Westworld (2016) Season 1-2 (1080p BluRay x265 HEVC 10bit AAC 5.1 RCVR)

Summary: Westworld is a dark odyssey about the dawn of artificial consciousness and the evolution of sin. Set at the intersection of the near future and the reimagined past, it explores a world in which every human appetite, no matter how noble or depraved, can be indulged.

Season 01

Westworld (2016) Season 1 S01 + Extras (1080p BDRip x265 HEVC 10bit AAC 5.1 RCVR)

Files

Westworld (2016) Season 1 S01 + Extras (1080p BDRip x265 HEVC 10bit AAC 5.1 RCVR) ENG FRE SPA POR [UTR]
Westworld - S01E01 - The Original (1080p BDRip x265 HEVC 10bit AAC 5.1 RCVR) [UTR].mkv - 1.99 GB
Westworld - S01E02 - Chestnut (1080p BDRip x265 HEVC 10bit AAC 5.1 RCVR) [UTR].mkv - 2.03 GB
Westworld - S01E03 - The Stray (1080p BDRip x265 HEVC 10bit AAC 5.1 RCVR) [UTR].mkv - 1.9 GB
Westworld - S01E04 - Dissonance Theory (1080p BDRip x265 HEVC 10bit AAC 5.1 RCVR) [UTR].mkv - 2.06 GB
Westworld - S01E05 - Contrapasso (1080p BDRip x265 HEVC 10bit AAC 5.1 RCVR) [UTR].mkv - 2.03 GB
Westworld - S01E06 - The Adversary (1080p BDRip x265 HEVC 10bit AAC 5.1 RCVR) [UTR].mkv - 1.93 GB
Westworld - S01E07 - Trompe L'Oeil (1080p BDRip x265 HEVC 10bit AAC 5.1 RCVR) [UTR].mkv - 1.6 GB
Westworld - S01E08 - Trace Decay (1080p BDRip x265 HEVC 10bit AAC 5.1 RCVR) [UTR].mkv - 1.91 GB
Westworld - S01E09 - The Well-Tempered Clavier (1080p BDRip x265 HEVC 10bit AAC 5.1 RCVR) [UTR].mkv - 1.59 GB
Westworld - S01E10 - The Bicameral Mind (1080p BDRip x265 HEVC 10bit AAC 5.1 RCVR) [UTR].mkv - 2.87 GB

Extras
About the Series.mkv - 36.06 MB
An Invitation to the Set.mkv - 46.19 MB
Crafting the Narrative.mkv - 526.04 MB
Gag Reel.mkv - 31.39 MB
Imagining the Main Title.mkv - 188.87 MB
Menu Art.mkv - 27.37 MB
Real.mkv - 230.93 MB
The Big Moment/A Host Self-Sabotages.mkv - 22.77 MB
The Big Moment/Bernard Faces an Unlikely Saboteur.mkv - 13.27 MB
The Big Moment/Dr. Ford's Blood Sacrifice.mkv - 13.96 MB
The Big Moment/Dr. Ford's New Narrative.mkv - 46.86 MB
The Big Moment/Maeve Gets an Answer.mkv - 24.94 MB
The Big Moment/Teddy Versus the Man In Black.mkv - 18.31 MB
The Big Moment/The Truth About Bernard.mkv - 27.05 MB
The Key to the Chords.mkv - 143.48 MB
The Reality of A.I..mkv - 76.61 MB
Welcome to Westworld.mkv - 158.7 MB

Mediainfo

General
Complete name                            : Westworld - S01E01 - The Original (1080p BDRip x265 HEVC 10bit AAC 5.1 RCVR) [UTR].mkv
Format                                   : Matroska
Format version                           : Version 4 / Version 2
File size                                : 1.99 GiB
Duration                                 : 1 h 8 min
Overall bit rate                         : 4 191 kb/s
Movie name                               : Westworld Season 1: The Maze Disc 1
Encoded date                             : UTC 2017-11-13 02:56:34
Writing application                      : mkvmerge v16.0.0 ('Protest') 64-bit
Writing library                          : libebml v1.3.5 + libmatroska v1.4.8
Cover                                    : Yes
Attachments                              : cover.jpg

Video
ID                                       : 1
Format                                   : HEVC
Format/Info                              : High Efficiency Video Coding
Format profile                           : Main [email protected]@Main
Codec ID                                 : V_MPEGH/ISO/HEVC
Duration                                 : 1 h 8 min
Bit rate                                 : 3 083 kb/s
Width                                    : 1 920 pixels
Height                                   : 1 080 pixels
Display aspect ratio                     : 16:9
Frame rate mode                          : Constant
Frame rate                               : 23.976 (24000/1001) FPS
Color space                              : YUV
Chroma subsampling                       : 4:2:0
Bit depth                                : 10 bits
Bits/(Pixel*Frame)                       : 0.062
Stream size                              : 1.47 GiB (74%)
Writing library                          : x265 2.5+48-bd438ce10843:[Windows][MSVC 1911][64 bit] 10bit
Encoding settings                        : cpuid=1173503 / frame-threads=3 / numa-pools=8 / wpp / no-pmode / no-pme / no-psnr / no-ssim / log-level=2 / input-csp=1 / input-res=1920x1080 / interlace=0 / total-frames=97974 / level-idc=0 / high-tier=1 / uhd-bd=0 / ref=5 / no-allow-non-conformance / no-repeat-headers / annexb / no-aud / no-hrd / info / hash=0 / no-temporal-layers / open-gop / min-keyint=23 / keyint=250 / bframes=8 / b-adapt=2 / b-pyramid / bframe-bias=0 / rc-lookahead=120 / lookahead-slices=4 / scenecut=40 / no-intra-refresh / ctu=64 / min-cu-size=8 / rect / no-amp / max-tu-size=32 / tu-inter-depth=1 / tu-intra-depth=1 / limit-tu=0 / rdoq-level=2 / dynamic-rd=0.00 / no-ssim-rd / signhide / no-tskip / nr-intra=0 / nr-inter=0 / no-constrained-intra / no-strong-intra-smoothing / max-merge=3 / limit-refs=3 / limit-modes / me=3 / subme=5 / merange=57 / temporal-mvp / weightp / no-weightb / no-analyze-src-pics / deblock=-3:-3 / no-sao / no-sao-non-deblock / rd=4 / no-early-skip / no-rskip / no-fast-intra / no-tskip-fast / no-cu-lossless / no-b-intra / no-splitrd-skip / rdpenalty=0 / psy-rd=1.20 / psy-rdoq=1.50 / no-rd-refine / analysis-reuse-mode=0 / no-lossless / cbqpoffs=0 / crqpoffs=0 / rc=crf / crf=20.0 / qcomp=0.60 / qpstep=4 / stats-write=0 / stats-read=0 / ipratio=1.40 / pbratio=1.30 / aq-mode=3 / aq-strength=0.90 / cutree / zone-count=0 / no-strict-cbr / qg-size=32 / no-rc-grain / qpmax=69 / qpmin=0 / no-const-vbv / sar=0 / overscan=0 / videoformat=5 / range=0 / colorprim=2 / transfer=2 / colormatrix=2 / chromaloc=0 / display-window=0 / max-cll=0,0 / min-luma=0 / max-luma=1023 / log2-max-poc-lsb=8 / vui-timing-info / vui-hrd-info / slices=1 / opt-qp-pps / opt-ref-list-length-pps / no-multi-pass-opt-rps / scenecut-bias=0.05 / no-opt-cu-delta-qp / no-aq-motion / no-hdr / no-hdr-opt / no-dhdr10-opt / analysis-reuse-level=5 / scale-factor=0 / refine-intra=0 / refine-inter=0 / refine-mv=0 / no-limit-sao / ctu-info=0 / no-lowpass-dct / refine-mv-type=0
Language                                 : English
Default                                  : Yes
Forced                                   : No

Audio #1
ID                                       : 2
Format                                   : AAC
Format/Info                              : Advanced Audio Codec
Format profile                           : LC
Codec ID                                 : A_AAC
Duration                                 : 1 h 8 min
Bit rate                                 : 446 kb/s
Channel(s)                               : 6 channels
Channel positions                        : Front: L C R, Side: L R, LFE
Sampling rate                            : 48.0 kHz
Frame rate                               : 46.875 FPS (1024 spf)
Compression mode                         : Lossy
Delay relative to video                  : 20 ms
Stream size                              : 217 MiB (11%)
Language                                 : English
Default                                  : Yes
Forced                                   : No

Audio #2
ID                                       : 3
Format                                   : AAC
Format/Info                              : Advanced Audio Codec
Format profile                           : HE-AAC / LC
Codec ID                                 : A_AAC
Duration                                 : 1 h 8 min
Bit rate                                 : 192 kb/s
Channel(s)                               : 6 channels
Channel positions                        : Front: L C R, Side: L R, LFE
Sampling rate                            : 48.0 kHz / 24.0 kHz
Frame rate                               : 23.438 FPS (1024 spf)
Compression mode                         : Lossy
Delay relative to video                  : 40 ms
Stream size                              : 93.5 MiB (5%)
Language                                 : French
Default                                  : No
Forced                                   : No

Audio #3
ID                                       : 4
Format                                   : AAC
Format/Info                              : Advanced Audio Codec
Format profile                           : HE-AAC / LC
Codec ID                                 : A_AAC
Duration                                 : 1 h 8 min
Bit rate                                 : 192 kb/s
Channel(s)                               : 6 channels
Channel positions                        : Front: L C R, Side: L R, LFE
Sampling rate                            : 48.0 kHz / 24.0 kHz
Frame rate                               : 23.438 FPS (1024 spf)
Compression mode                         : Lossy
Delay relative to video                  : 40 ms
Stream size                              : 93.5 MiB (5%)
Language                                 : Spanish
Default                                  : No
Forced                                   : No

Audio #4
ID                                       : 5
Format                                   : AAC
Format/Info                              : Advanced Audio Codec
Format profile                           : HE-AAC / LC
Codec ID                                 : A_AAC
Duration                                 : 1 h 8 min
Bit rate                                 : 192 kb/s
Channel(s)                               : 6 channels
Channel positions                        : Front: L C R, Side: L R, LFE
Sampling rate                            : 48.0 kHz / 24.0 kHz
Frame rate                               : 23.438 FPS (1024 spf)
Compression mode                         : Lossy
Delay relative to video                  : 40 ms
Stream size                              : 93.5 MiB (5%)
Language                                 : Portuguese
Default                                  : No
Forced                                   : No

Text #1
ID                                       : 6
Format                                   : PGS
Muxing mode                              : zlib
Codec ID                                 : S_HDMV/PGS
Codec ID/Info                            : Picture based subtitle format used on BDs/HD-DVDs
Duration                                 : 1 h 8 min
Bit rate                                 : 32.7 kb/s
Count of elements                        : 1658
Stream size                              : 15.9 MiB (1%)
Language                                 : English
Default                                  : No
Forced                                   : No

Text #2
ID                                       : 7
Format                                   : PGS
Muxing mode                              : zlib
Codec ID                                 : S_HDMV/PGS
Codec ID/Info                            : Picture based subtitle format used on BDs/HD-DVDs
Duration                                 : 1 h 6 min
Bit rate                                 : 29.5 kb/s
Count of elements                        : 1482
Stream size                              : 14.0 MiB (1%)
Language                                 : French
Default                                  : No
Forced                                   : No

Text #3
ID                                       : 8
Format                                   : PGS
Muxing mode                              : zlib
Codec ID                                 : S_HDMV/PGS
Codec ID/Info                            : Picture based subtitle format used on BDs/HD-DVDs
Duration                                 : 1 h 6 min
Bit rate                                 : 28.8 kb/s
Count of elements                        : 1490
Stream size                              : 13.7 MiB (1%)
Language                                 : Spanish
Default                                  : No
Forced                                   : No

Text #4
ID                                       : 9
Format                                   : PGS
Muxing mode                              : zlib
Codec ID                                 : S_HDMV/PGS
Codec ID/Info                            : Picture based subtitle format used on BDs/HD-DVDs
Duration                                 : 1 h 6 min
Bit rate                                 : 30.1 kb/s
Count of elements                        : 1488
Stream size                              : 14.3 MiB (1%)
Language                                 : Dutch
Default                                  : No
Forced                                   : No

Text #5
ID                                       : 10
Format                                   : PGS
Muxing mode                              : zlib
Codec ID                                 : S_HDMV/PGS
Codec ID/Info                            : Picture based subtitle format used on BDs/HD-DVDs
Duration                                 : 1 h 6 min
Bit rate                                 : 29.3 kb/s
Count of elements                        : 1490
Stream size                              : 13.9 MiB (1%)
Language                                 : Spanish
Default                                  : No
Forced                                   : No

Text #6
ID                                       : 11
Format                                   : PGS
Muxing mode                              : zlib
Codec ID                                 : S_HDMV/PGS
Codec ID/Info                            : Picture based subtitle format used on BDs/HD-DVDs
Duration                                 : 1 h 6 min
Bit rate                                 : 29.5 kb/s
Count of elements                        : 1490
Stream size                              : 14.0 MiB (1%)
Language                                 : Portuguese
Default                                  : No
Forced                                   : No

Text #7
ID                                       : 12
Format                                   : PGS
Muxing mode                              : zlib
Codec ID                                 : S_HDMV/PGS
Codec ID/Info                            : Picture based subtitle format used on BDs/HD-DVDs
Duration                                 : 1 h 6 min
Bit rate                                 : 28.2 kb/s
Count of elements                        : 1140
Stream size                              : 13.4 MiB (1%)
Language                                 : Danish
Default                                  : No
Forced                                   : No

Text #8
ID                                       : 13
Format                                   : PGS
Muxing mode                              : zlib
Codec ID                                 : S_HDMV/PGS
Codec ID/Info                            : Picture based subtitle format used on BDs/HD-DVDs
Duration                                 : 1 h 6 min
Bit rate                                 : 25.9 kb/s
Count of elements                        : 1170
Stream size                              : 12.3 MiB (1%)
Language                                 : Finnish
Default                                  : No
Forced                                   : No

Text #9
ID                                       : 14
Format                                   : PGS
Muxing mode                              : zlib
Codec ID                                 : S_HDMV/PGS
Codec ID/Info                            : Picture based subtitle format used on BDs/HD-DVDs
Duration                                 : 1 h 6 min
Bit rate                                 : 27.1 kb/s
Count of elements                        : 1036
Stream size                              : 12.9 MiB (1%)
Language                                 : Norwegian Bokmal
Default                                  : No
Forced                                   : No

Text #10
ID                                       : 15
Format                                   : PGS
Muxing mode                              : zlib
Codec ID                                 : S_HDMV/PGS
Codec ID/Info                            : Picture based subtitle format used on BDs/HD-DVDs
Duration                                 : 1 h 6 min
Bit rate                                 : 26.2 kb/s
Count of elements                        : 1162
Stream size                              : 12.4 MiB (1%)
Language                                 : Swedish
Default                                  : No
Forced                                   : No

Menu
00:00:00.000                             : en:Chapter 01
00:01:47.607                             : en:Chapter 02
00:14:14.895                             : en:Chapter 03
00:22:41.234                             : en:Chapter 04
00:33:14.450                             : en:Chapter 05
00:43:01.370                             : en:Chapter 06
00:54:44.781                             : en:Chapter 07
01:06:51.257                             : en:Chapter 08

Download

Download: Google Drive (21.50 GB)

Season 02

Westworld (2016) Season 2 S02 + Extras (1080p BluRay x265 HEVC 10bit AAC 5.1 English + French + Spanish + Portuguese RCVR)

Files

Westworld (2016) Season 2 S02 + Extras (1080p BluRay x265 HEVC 10bit AAC 5.1 RCVR)
Westworld (2016) - S02E01 - Journey Into Night (1080p BluRay x265 RCVR).mkv (3.2 GB)
Westworld (2016) - S02E02 - Reunion (1080p BluRay x265 RCVR).mkv (2.5 GB)
Westworld (2016) - S02E03 - Virtù e Fortuna (1080p BluRay x265 RCVR).mkv (2.9 GB)
Westworld (2016) - S02E04 - The Riddle of the Sphinx (1080p BluRay x265 RCVR).mkv (4.1 GB)
Westworld (2016) - S02E05 - Akane No Mai (1080p BluRay x265 RCVR).mkv (3.2 GB)
Westworld (2016) - S02E06 - Phase Space (1080p BluRay x265 RCVR).mkv (3.0 GB)
Westworld (2016) - S02E07 - Les Écorchés (1080p BluRay x265 RCVR).mkv (3.2 GB)
Westworld (2016) - S02E08 - Kiksuya (1080p BluRay x265 RCVR).mkv (3.5 GB)
Westworld (2016) - S02E09 - Vanishing Point (1080p BluRay x265 RCVR).mkv (3.5 GB)
Westworld (2016) - S02E10 - The Passenger (1080p BluRay x265 RCVR).mkv (3.6 GB)

Bring Yourself Back Online
Of Love and Shogun.mkv (302.4 MB)
Reflections on Season 2.mkv (343.8 MB)

Creating Westworld’s Reality
An Evocative Location.mkv (92.5 MB)
Chaos in the Mesa.mkv (129.2 MB)
Deconstructing Maeve.mkv (72.3 MB)
Fort Forlorn Hope.mkv (134.5 MB)
Ghost Nation.mkv (77.0 MB)
Inside the Cradle.mkv (74.0 MB)
Shogun World.mkv (303.4 MB)
The Delos Experiment.mkv (140.1 MB)
The Drone Hosts.mkv (61.2 MB)
The Valley Beyond.mkv (265.6 MB)
Journeys and Technology.mkv (296.6 MB)
Menu Art (1).mkv (14.2 MB)
Menu Art (2).mkv (10.8 MB)
The Truth Behind Delos.mkv (335.2 MB)
These Violent Delights Have Violent Ends.mkv (297.5 MB)

Mediainfo

General 
Format : Matroska 
Format version : Version 4 / Version 2 
File size : 3.19 GiB 
Duration : 1 h 9 min 
Overall bit rate : 6 571 kb/s 
Encoded date : UTC 2018-12-09 11:16:18 
Writing application : mkvmerge v12.0.0 ('Trust / Lust') 64bit 
Writing library : libebml v1.3.4 + libmatroska v1.4.5 
Cover : Yes 
Attachments : cover.jpg 

Video 
ID : 1 
Format : HEVC 
Format/Info : High Efficiency Video Coding 
Format profile : Main [email protected]@Main 
Codec ID : V_MPEGH/ISO/HEVC 
Duration : 1 h 9 min 
Bit rate : 5 457 kb/s 
Width : 1 920 pixels 
Height : 1 080 pixels 
Display aspect ratio : 16:9 
Frame rate mode : Constant 
Frame rate : 23.976 (24000/1001) FPS 
Color space : YUV 
Chroma subsampling : 4:2:0 
Bit depth : 10 bits 
Bits/(Pixel*Frame) : 0.110 
Stream size : 2.65 GiB (83%) 
Writing library : x265 2.9+9-f74003e88622:[Windows][MSVC 1916][64 bit] 10bit 
Encoding settings : cpuid=1111039 / frame-threads=3 / numa-pools=8 / wpp / no-pmode / no-pme / no-psnr / no-ssim / log-level=2 / input-csp=1 / input-res=1920x1080 / interlace=0 / total-frames=100063 / level-idc=0 / high-tier=1 / uhd-bd=0 / ref=5 / no-allow-non-conformance / no-repeat-headers / annexb / no-aud / no-hrd / info / hash=0 / no-temporal-layers / open-gop / min-keyint=23 / keyint=250 / gop-lookahead=0 / bframes=8 / b-adapt=2 / b-pyramid / bframe-bias=0 / rc-lookahead=80 / lookahead-slices=4 / scenecut=40 / radl=0 / no-intra-refresh / ctu=64 / min-cu-size=8 / rect / no-amp / max-tu-size=32 / tu-inter-depth=1 / tu-intra-depth=1 / limit-tu=0 / rdoq-level=2 / dynamic-rd=0.00 / no-ssim-rd / signhide / no-tskip / nr-intra=0 / nr-inter=0 / no-constrained-intra / no-strong-intra-smoothing / max-merge=4 / limit-refs=3 / limit-modes / me=3 / subme=5 / merange=57 / temporal-mvp / weightp / weightb / no-analyze-src-pics / deblock=-2:-2 / no-sao / no-sao-non-deblock / rd=5 / no-early-skip / no-rskip / no-fast-intra / no-tskip-fast / no-cu-lossless / no-b-intra / no-splitrd-skip / rdpenalty=0 / psy-rd=1.50 / psy-rdoq=1.80 / no-rd-refine / no-lossless / cbqpoffs=0 / crqpoffs=0 / rc=crf / crf=21.0 / qcomp=0.60 / qpstep=4 / stats-write=0 / stats-read=0 / ipratio=1.40 / pbratio=1.30 / aq-mode=3 / aq-strength=1.00 / cutree / zone-count=0 / no-strict-cbr / qg-size=32 / no-rc-grain / qpmax=69 / qpmin=0 / no-const-vbv / sar=0 / overscan=0 / videoformat=5 / range=0 / colorprim=2 / transfer=2 / colormatrix=2 / chromaloc=0 / display-window=0 / max-cll=0,0 / min-luma=0 / max-luma=1023 / log2-max-poc-lsb=8 / vui-timing-info / vui-hrd-info / slices=1 / no-opt-qp-pps / no-opt-ref-list-length-pps / no-multi-pass-opt-rps / scenecut-bias=0.05 / no-opt-cu-delta-qp / no-aq-motion / no-hdr / no-hdr-opt / no-dhdr10-opt / no-idr-recovery-sei / analysis-reuse-level=5 / scale-factor=0 / refine-intra=0 / refine-inter=0 / refine-mv=0 / no-limit-sao / ctu-info=0 / no-lowpass-dct / refine-mv-type=0 / copy-pic=1 / max-ausize-factor=1.0 / no-dynamic-refine / no-single-sei 
Default : Yes 
Forced : No 

Audio #1 
ID : 2 
Format : AAC 
Format/Info : Advanced Audio Codec 
Format profile : LC 
Codec ID : A_AAC 
Duration : 1 h 9 min 
Bit rate : 446 kb/s 
Channel(s) : 6 channels 
Channel positions : Front: L C R, Side: L R, LFE 
Sampling rate : 48.0 kHz 
Frame rate : 46.875 FPS (1024 spf) 
Compression mode : Lossy 
Delay relative to video : 20 ms 
Stream size : 222 MiB (7%) 
Language : English 
Default : Yes 
Forced : No 

Audio #2 
ID : 3 
Format : AAC 
Format/Info : Advanced Audio Codec 
Format profile : HE-AAC / LC 
Codec ID : A_AAC 
Duration : 1 h 9 min 
Bit rate : 192 kb/s 
Channel(s) : 6 channels 
Channel positions : Front: L C R, Side: L R, LFE 
Sampling rate : 48.0 kHz / 24.0 kHz 
Frame rate : 23.438 FPS (1024 spf) 
Compression mode : Lossy 
Delay relative to video : 40 ms 
Stream size : 95.5 MiB (3%) 
Language : French 
Default : No 
Forced : No 

Audio #3 
ID : 4 
Format : AAC 
Format/Info : Advanced Audio Codec 
Format profile : HE-AAC / LC 
Codec ID : A_AAC 
Duration : 1 h 9 min 
Bit rate : 192 kb/s 
Channel(s) : 6 channels 
Channel positions : Front: L C R, Side: L R, LFE 
Sampling rate : 48.0 kHz / 24.0 kHz 
Frame rate : 23.438 FPS (1024 spf) 
Compression mode : Lossy 
Delay relative to video : 40 ms 
Stream size : 95.5 MiB (3%) 
Language : Spanish 
Default : No 
Forced : No 

Audio #4 
ID : 5 
Format : AAC 
Format/Info : Advanced Audio Codec 
Format profile : HE-AAC / LC 
Codec ID : A_AAC 
Duration : 1 h 9 min 
Bit rate : 192 kb/s 
Channel(s) : 6 channels 
Channel positions : Front: L C R, Side: L R, LFE 
Sampling rate : 48.0 kHz / 24.0 kHz 
Frame rate : 23.438 FPS (1024 spf) 
Compression mode : Lossy 
Delay relative to video : 40 ms 
Stream size : 95.5 MiB (3%) 
Language : Portuguese 
Default : No 
Forced : No 

Subtitle #1 
ID : 6 
Format : PGS 
Muxing mode : zlib 
Codec ID : S_HDMV/PGS 
Codec ID/Info : Picture based subtitle format used on BDs/HD-DVDs 
Duration : 1 h 9 min 
Bit rate : 9 734 b/s 
Count of elements : 1235 
Stream size : 4.83 MiB (0%) 
Language : English 
Default : No 
Forced : No 

Subtitle #2 
ID : 7 
Format : PGS 
Muxing mode : zlib 
Codec ID : S_HDMV/PGS 
Codec ID/Info : Picture based subtitle format used on BDs/HD-DVDs 
Duration : 1 h 7 min 
Bit rate : 8 040 b/s 
Count of elements : 1115 
Stream size : 3.88 MiB (0%) 
Language : French 
Default : No 
Forced : No 

Subtitle #3 
ID : 8 
Format : PGS 
Muxing mode : zlib 
Codec ID : S_HDMV/PGS 
Codec ID/Info : Picture based subtitle format used on BDs/HD-DVDs 
Duration : 1 h 7 min 
Bit rate : 8 534 b/s 
Count of elements : 1145 
Stream size : 4.12 MiB (0%) 
Language : Spanish 
Default : No 
Forced : No 

Subtitle #4 
ID : 9 
Format : PGS 
Muxing mode : zlib 
Codec ID : S_HDMV/PGS 
Codec ID/Info : Picture based subtitle format used on BDs/HD-DVDs 
Duration : 1 h 7 min 
Bit rate : 8 525 b/s 
Count of elements : 1121 
Stream size : 4.12 MiB (0%) 
Language : Dutch 
Default : No 
Forced : No 

Subtitle #5 
ID : 10 
Format : PGS 
Muxing mode : zlib 
Codec ID : S_HDMV/PGS 
Codec ID/Info : Picture based subtitle format used on BDs/HD-DVDs 
Duration : 1 h 7 min 
Bit rate : 8 986 b/s 
Count of elements : 1153 
Stream size : 4.37 MiB (0%) 
Language : Korean 
Default : No 
Forced : No 

Subtitle #6 
ID : 11 
Format : PGS 
Muxing mode : zlib 
Codec ID : S_HDMV/PGS 
Codec ID/Info : Picture based subtitle format used on BDs/HD-DVDs 
Duration : 1 h 7 min 
Bit rate : 8 714 b/s 
Count of elements : 1149 
Stream size : 4.21 MiB (0%) 
Language : Spanish 
Default : No 
Forced : No 

Subtitle #7 
ID : 12 
Format : PGS 
Muxing mode : zlib 
Codec ID : S_HDMV/PGS 
Codec ID/Info : Picture based subtitle format used on BDs/HD-DVDs 
Duration : 1 h 7 min 
Bit rate : 8 621 b/s 
Count of elements : 1147 
Stream size : 4.16 MiB (0%) 
Language : Portuguese 
Default : No 
Forced : No 

Subtitle #8 
ID : 13 
Format : PGS 
Muxing mode : zlib 
Codec ID : S_HDMV/PGS 
Codec ID/Info : Picture based subtitle format used on BDs/HD-DVDs 
Duration : 1 h 7 min 
Bit rate : 7 566 b/s 
Count of elements : 875 
Stream size : 3.66 MiB (0%) 
Language : Danish 
Default : No 
Forced : No 

Subtitle #9 
ID : 14 
Format : PGS 
Muxing mode : zlib 
Codec ID : S_HDMV/PGS 
Codec ID/Info : Picture based subtitle format used on BDs/HD-DVDs 
Duration : 1 h 7 min 
Bit rate : 6 918 b/s 
Count of elements : 894 
Stream size : 3.34 MiB (0%) 
Language : Finnish 
Default : No 
Forced : No 

Subtitle #10 
ID : 15 
Format : PGS 
Muxing mode : zlib 
Codec ID : S_HDMV/PGS 
Codec ID/Info : Picture based subtitle format used on BDs/HD-DVDs 
Duration : 1 h 7 min 
Bit rate : 6 821 b/s 
Count of elements : 818 
Stream size : 3.30 MiB (0%) 
Language : Norwegian Bokmal 
Default : No 
Forced : No 

Subtitle #11 
ID : 16 
Format : PGS 
Muxing mode : zlib 
Codec ID : S_HDMV/PGS 
Codec ID/Info : Picture based subtitle format used on BDs/HD-DVDs 
Duration : 1 h 7 min 
Bit rate : 7 628 b/s 
Count of elements : 873 
Stream size : 3.69 MiB (0%) 
Language : Swedish 
Default : No 
Forced : No 

Menu 
00:00:00.000 : en:Chapter 01 
00:01:42.435 : en:Chapter 02 
00:13:59.630 : en:Chapter 03 
00:23:11.181 : en:Chapter 04 
00:33:50.319 : en:Chapter 05 
00:46:59.483 : en:Chapter 06 
00:56:51.074 : en:Chapter 07 
01:03:58.376 : en:Chapter 08 
01:08:24.391 : en:Chapter 09

Screencaps

Download

Download: Google Drive (35.73 GB)

4 thoughts on “Westworld (2016) Season 1-2 (1080p BluRay x265 HEVC 10bit AAC 5.1 RCVR)

  1. I’ve been waiting for the Season 2 Bluray release! Like always, great job man! this website is one of my favorite. Thank you!

Leave a Reply

Your email address will not be published. Required fields are marked *