The Terror (2018) Season 1 (1080p BluRay x265 HEVC 10bit AAC 5.1 RCVR)

Season 01

Plot: Haunting, suspenseful and based on true events, The Terror centers on a perilous Arctic voyage by the British Royal Navy. It’s an extreme tale of survival in wholly unforgiving landscape – with the crew’s fears exacerbated by an unknown threat.

Files

The Terror (2018) Season 1 S01 + Extras (1080p BluRay x265 HEVC 10bit AAC 5.1 RCVR)
The Terror (2018) - S01E01 - Go for Broke (1080p BluRay x265 RCVR).mkv (1.1 GB)
The Terror (2018) - S01E02 - Gore (1080p BluRay x265 RCVR).mkv (1.9 GB)
The Terror (2018) - S01E03 - The Ladder (1080p BluRay x265 RCVR).mkv (1.7 GB)
The Terror (2018) - S01E04 - Punished, as a Boy (1080p BluRay x265 RCVR).mkv (1.5 GB)
The Terror (2018) - S01E05 - First Shot a Winner, Lads (1080p BluRay x265 RCVR).mkv (1.8 GB)
The Terror (2018) - S01E06 - A Mercy (1080p BluRay x265 RCVR).mkv (1.4 GB)
The Terror (2018) - S01E07 - Horrible from Supper (1080p BluRay x265 RCVR).mkv (1.1 GB)
The Terror (2018) - S01E08 - Terror Camp Clear (1080p BluRay x265 RCVR).mkv (1.7 GB)
The Terror (2018) - S01E09 - The C, the C, the Open C (1080p BluRay x265 RCVR).mkv (1.4 GB)
The Terror (2018) - S01E10 - We Are Gone (1080p BluRay x265 RCVR).mkv (1.3 GB)

Mediainfo

General 
Format : Matroska 
Format version : Version 4 / Version 2 
File size : 1.14 GiB 
Duration : 46 min 3 s 
Overall bit rate : 3 539 kb/s 
Encoded date : UTC 2018-09-20 08:12:43 
Writing application : mkvmerge v20.0.0 ('I Am The Sun') 64-bit 
Writing library : libebml v1.3.5 + libmatroska v1.4.8 
Cover : Yes 
Attachments : cover.jpg 
Writing frontend : StaxRip v1.7.0.6 

Video 
ID : 1 
Format : HEVC 
Format/Info : High Efficiency Video Coding 
Format profile : Main [email protected]@Main 
Codec ID : V_MPEGH/ISO/HEVC 
Duration : 46 min 3 s 
Bit rate : 3 136 kb/s 
Width : 1 920 pixels 
Height : 1 080 pixels 
Display aspect ratio : 16:9 
Frame rate mode : Constant 
Frame rate : 23.976 (24000/1001) FPS 
Color space : YUV 
Chroma subsampling : 4:2:0 
Bit depth : 10 bits 
Bits/(Pixel*Frame) : 0.063 
Stream size : 1.01 GiB (89%) 
Writing library : x265 2.8+68-fa57fa584898:[Windows][MSVC 1900][64 bit] 10bit 
Encoding settings : cpuid=1111039 / frame-threads=3 / numa-pools=8 / wpp / no-pmode / no-pme / no-psnr / no-ssim / log-level=2 / input-csp=1 / input-res=1920x1080 / interlace=0 / total-frames=66265 / level-idc=0 / high-tier=1 / uhd-bd=0 / ref=5 / no-allow-non-conformance / no-repeat-headers / annexb / no-aud / no-hrd / info / hash=0 / no-temporal-layers / open-gop / min-keyint=23 / keyint=250 / gop-lookahead=0 / bframes=8 / b-adapt=2 / b-pyramid / bframe-bias=0 / rc-lookahead=80 / lookahead-slices=4 / scenecut=40 / radl=0 / no-intra-refresh / ctu=64 / min-cu-size=8 / no-rect / no-amp / max-tu-size=32 / tu-inter-depth=1 / tu-intra-depth=1 / limit-tu=0 / rdoq-level=2 / dynamic-rd=0.00 / no-ssim-rd / signhide / no-tskip / nr-intra=0 / nr-inter=0 / no-constrained-intra / no-strong-intra-smoothing / max-merge=4 / limit-refs=3 / limit-modes / me=3 / subme=5 / merange=57 / temporal-mvp / weightp / weightb / no-analyze-src-pics / deblock=-3:-3 / no-sao / no-sao-non-deblock / rd=4 / no-early-skip / rskip / no-fast-intra / no-tskip-fast / no-cu-lossless / b-intra / no-splitrd-skip / rdpenalty=0 / psy-rd=1.80 / psy-rdoq=2.00 / no-rd-refine / no-lossless / cbqpoffs=0 / crqpoffs=0 / rc=crf / crf=19.0 / qcomp=0.60 / qpstep=4 / stats-write=0 / stats-read=0 / ipratio=1.40 / pbratio=1.30 / aq-mode=3 / aq-strength=0.90 / cutree / zone-count=0 / no-strict-cbr / qg-size=32 / no-rc-grain / qpmax=69 / qpmin=0 / no-const-vbv / sar=0 / overscan=0 / videoformat=5 / range=0 / colorprim=2 / transfer=2 / colormatrix=2 / chromaloc=0 / display-window=0 / max-cll=0,0 / min-luma=0 / max-luma=1023 / log2-max-poc-lsb=8 / vui-timing-info / vui-hrd-info / slices=1 / no-opt-qp-pps / no-opt-ref-list-length-pps / no-multi-pass-opt-rps / scenecut-bias=0.05 / no-opt-cu-delta-qp / no-aq-motion / no-hdr / no-hdr-opt / no-dhdr10-opt / no-idr-recovery-sei / analysis-reuse-level=5 / scale-factor=0 / refine-intra=0 / refine-inter=0 / refine-mv=0 / no-limit-sao / ctu-info=0 / no-lowpass-dct / refine-mv-type=0 / copy-pic=1 / max-ausize-factor=1.0 / no-dynamic-refine / no-single-sei 
Default : Yes 
Forced : No 

Audio 
ID : 2 
Format : AAC 
Format/Info : Advanced Audio Codec 
Format profile : LC 
Codec ID : A_AAC 
Duration : 46 min 3 s 
Bit rate : 384 kb/s 
Channel(s) : 6 channels 
Channel positions : Front: L C R, Side: L R, LFE 
Sampling rate : 48.0 kHz 
Frame rate : 46.875 FPS (1024 spf) 
Compression mode : Lossy 
Delay relative to video : 20 ms 
Stream size : 128 MiB (11%) 
Language : English 
Default : No 
Forced : No 

Subtitle #1 
ID : 3 
Format : VobSub 
Muxing mode : zlib 
Codec ID : S_VOBSUB 
Codec ID/Info : Picture based subtitle format used on DVDs 
Duration : 44 min 53 s 
Bit rate : 10.5 kb/s 
Count of elements : 695 
Stream size : 3.37 MiB (0%) 
Language : English 
Default : No 
Forced : No 

Subtitle #2 
ID : 4 
Format : VobSub 
Muxing mode : zlib 
Codec ID : S_VOBSUB 
Codec ID/Info : Picture based subtitle format used on DVDs 
Duration : 44 min 27 s 
Bit rate : 9 666 b/s 
Count of elements : 560 
Stream size : 3.07 MiB (0%) 
Language : Spanish 
Default : No 
Forced : No 

Menu 
00:00:00.000 : en:Chapter 01 
00:09:48.754 : en:Chapter 02 
00:10:19.327 : en:Chapter 03 
00:18:34.279 : en:Chapter 04 
00:25:30.070 : en:Chapter 05 
00:32:06.132 : en:Chapter 06 
00:41:02.460 : en:Chapter 07 
00:45:31.895 : en:Chapter 08 
00:46:02.760 : en:Chapter 09

Screencaps

Download

Download: Google Drive (15.05 GB)

Leave a Reply

Your email address will not be published. Required fields are marked *