The Mentalist (2008) Season 1-7 (1080p AMZN WEB-DL x265 HEVC 10bit EAC3 6.0 RZeroX)

Summary: When mentalist Patrick Jane insults a vengeful serial killer, Red John, his loved ones are brutally killed. Faced with the horrifying consequences of misusing his gift for observation and misdirection, Jane lends his skills to the California Bureau of Investigation, all the while hoping that his connections within the CBI will give him the opportunity to track down and revenge himself upon Red John.

Season 1

The Mentalist (2008) Season 1 S01 (1080p BluRay x265 HEVC 10bit AC3 5.1 RZeroX)

Files

The Mentalist (2008) - S01E01 - Pilot (1080p BluRay x265 RZeroX).mkv (1.0 GB)
The Mentalist (2008) - S01E02 - Red Hair and Silver Tape (1080p BluRay x265 RZeroX).mkv (1.3 GB)
The Mentalist (2008) - S01E03 - Red Tide (1080p BluRay x265 RZeroX).mkv (1.5 GB)
The Mentalist (2008) - S01E04 - Ladies in Red (1080p BluRay x265 RZeroX).mkv (1.4 GB)
The Mentalist (2008) - S01E05 - Redwood (1080p BluRay x265 RZeroX).mkv (1.5 GB)
The Mentalist (2008) - S01E06 - Red Handed (1080p BluRay x265 RZeroX).mkv (1.2 GB)
The Mentalist (2008) - S01E07 - Seeing Red (1080p BluRay x265 RZeroX).mkv (1.7 GB)
The Mentalist (2008) - S01E08 - The Thin Red Line (1080p BluRay x265 RZeroX).mkv (1.7 GB)
The Mentalist (2008) - S01E09 - Flame Red (1080p BluRay x265 RZeroX).mkv (1.5 GB)
The Mentalist (2008) - S01E10 - Red Brick and Ivy (1080p BluRay x265 RZeroX).mkv (1.7 GB)
The Mentalist (2008) - S01E11 - Red John's Friends (1080p BluRay x265 RZeroX).mkv (1.6 GB)
The Mentalist (2008) - S01E12 - Red Rum (1080p BluRay x265 RZeroX).mkv (1.4 GB)
The Mentalist (2008) - S01E13 - Paint It Red (1080p BluRay x265 RZeroX).mkv (1.5 GB)
The Mentalist (2008) - S01E14 - Crimson Casanova (1080p BluRay x265 RZeroX).mkv (1.5 GB)
The Mentalist (2008) - S01E15 - Scarlett Fever (1080p BluRay x265 RZeroX).mkv (1.5 GB)
The Mentalist (2008) - S01E16 - Bloodshot (1080p BluRay x265 RZeroX).mkv (1.4 GB)
The Mentalist (2008) - S01E17 - Carnelian Inc. (1080p BluRay x265 RZeroX).mkv (1.2 GB)
The Mentalist (2008) - S01E18 - Russet Potatoes (1080p BluRay x265 RZeroX).mkv (1.3 GB)
The Mentalist (2008) - S01E19 - A Dozen Red Roses (1080p BluRay x265 RZeroX).mkv (1.3 GB)
The Mentalist (2008) - S01E20 - Red Sauce (1080p BluRay x265 RZeroX).mkv (1.4 GB)
The Mentalist (2008) - S01E21 - Miss Red (1080p BluRay x265 RZeroX).mkv (1.2 GB)
The Mentalist (2008) - S01E22 - Blood Brothers (1080p BluRay x265 RZeroX).mkv (1.9 GB)
The Mentalist (2008) - S01E23 - Red John's Footsteps (1080p BluRay x265 RZeroX).mkv (1.4 GB)

Mediainfo

General 
Format : Matroska 
Format version : Version 4 / Version 2 
File size : 1.01 GiB 
Duration : 45 min 9 s 
Overall bit rate : 3 211 kb/s 
Encoded date : UTC 2018-03-10 18:46:51 
Writing application : mkvmerge v21.0.0 ('Tardigrades Will Inherit The Earth') 64-bit 
Writing library : libebml v1.3.5 + libmatroska v1.4.8 

Video 
ID : 1 
Format : HEVC 
Format/Info : High Efficiency Video Coding 
Format profile : Main [email protected]@Main 
Codec ID : V_MPEGH/ISO/HEVC 
Duration : 45 min 8 s 
Bit rate : 2 460 kb/s 
Width : 1 920 pixels 
Height : 1 080 pixels 
Display aspect ratio : 16:9 
Frame rate mode : Constant 
Frame rate : 23.976 (24000/1001) FPS 
Color space : YUV 
Chroma subsampling : 4:2:0 
Bit depth : 10 bits 
Bits/(Pixel*Frame) : 0.049 
Stream size : 794 MiB (77%) 
Writing library : x265 2.7+1-2aa737a99f51:[Windows][GCC 8.0.1][64 bit] 10bit 
Encoding settings : cpuid=1173503 / frame-threads=3 / numa-pools=12 / wpp / no-pmode / no-pme / no-psnr / no-ssim / log-level=2 / input-csp=1 / input-res=1920x1080 / interlace=0 / total-frames=64929 / level-idc=0 / high-tier=1 / uhd-bd=0 / ref=4 / no-allow-non-conformance / no-repeat-headers / annexb / no-aud / no-hrd / info / hash=0 / no-temporal-layers / open-gop / min-keyint=23 / keyint=250 / gop-lookahead=0 / bframes=8 / b-adapt=2 / b-pyramid / bframe-bias=0 / rc-lookahead=70 / lookahead-slices=4 / scenecut=40 / radl=0 / no-intra-refresh / ctu=64 / min-cu-size=8 / no-rect / no-amp / max-tu-size=32 / tu-inter-depth=1 / tu-intra-depth=1 / limit-tu=0 / rdoq-level=2 / dynamic-rd=0.00 / no-ssim-rd / signhide / no-tskip / nr-intra=0 / nr-inter=0 / no-constrained-intra / strong-intra-smoothing / max-merge=3 / limit-refs=3 / limit-modes / me=3 / subme=5 / merange=57 / temporal-mvp / weightp / weightb / no-analyze-src-pics / deblock=-1:-1 / sao / no-sao-non-deblock / rd=4 / no-early-skip / rskip / no-fast-intra / no-tskip-fast / no-cu-lossless / no-b-intra / no-splitrd-skip / rdpenalty=0 / psy-rd=1.70 / psy-rdoq=1.00 / no-rd-refine / no-lossless / cbqpoffs=0 / crqpoffs=0 / rc=crf / crf=21.0 / qcomp=0.60 / qpstep=4 / stats-write=0 / stats-read=0 / ipratio=1.40 / pbratio=1.30 / aq-mode=3 / aq-strength=1.00 / cutree / zone-count=0 / no-strict-cbr / qg-size=32 / no-rc-grain / qpmax=69 / qpmin=0 / no-const-vbv / sar=0 / overscan=0 / videoformat=5 / range=0 / colorprim=2 / transfer=2 / colormatrix=2 / chromaloc=0 / display-window=0 / max-cll=0,0 / min-luma=0 / max-luma=1023 / log2-max-poc-lsb=8 / vui-timing-info / vui-hrd-info / slices=1 / no-opt-qp-pps / no-opt-ref-list-length-pps / no-multi-pass-opt-rps / scenecut-bias=0.00 / no-opt-cu-delta-qp / aq-motion / no-hdr / no-hdr-opt / no-dhdr10-opt / analysis-reuse-level=5 / scale-factor=0 / refine-intra=0 / refine-inter=0 / refine-mv=0 / no-limit-sao / ctu-info=0 / no-lowpass-dct / refine-mv-type=0 / copy-pic=1 
Default : Yes 
Forced : No 

Audio 
ID : 2 
Format : AC-3 
Format/Info : Audio Coding 3 
Mode extension : CM (complete main) 
Format settings, Endianness : Big 
Codec ID : A_AC3 
Duration : 45 min 9 s 
Bit rate mode : Constant 
Bit rate : 640 kb/s 
Channel(s) : 6 channels 
Channel positions : Front: L C R, Side: L R, LFE 
Sampling rate : 48.0 kHz 
Frame rate : 31.250 FPS (1536 spf) 
Bit depth : 16 bits 
Compression mode : Lossy 
Stream size : 207 MiB (20%) 
Language : English 
Default : No 
Forced : No 

Subtitle #1 
ID : 3 
Format : PGS 
Muxing mode : zlib 
Codec ID : S_HDMV/PGS 
Codec ID/Info : Picture based subtitle format used on BDs/HD-DVDs 
Duration : 44 min 53 s 
Bit rate : 37.1 kb/s 
Count of elements : 1184 
Stream size : 11.9 MiB (1%) 
Title : SDH 
Language : English 
Default : No 
Forced : No 

Subtitle #2 
ID : 4 
Format : PGS 
Muxing mode : zlib 
Codec ID : S_HDMV/PGS 
Codec ID/Info : Picture based subtitle format used on BDs/HD-DVDs 
Duration : 44 min 57 s 
Bit rate : 34.5 kb/s 
Count of elements : 1124 
Stream size : 11.1 MiB (1%) 
Language : French 
Default : No 
Forced : No 

Subtitle #3 
ID : 5 
Format : PGS 
Muxing mode : zlib 
Codec ID : S_HDMV/PGS 
Codec ID/Info : Picture based subtitle format used on BDs/HD-DVDs 
Duration : 44 min 57 s 
Bit rate : 44.4 kb/s 
Count of elements : 1306 
Stream size : 14.3 MiB (1%) 
Language : German 
Default : No 
Forced : No 

Subtitle #4 
ID : 6 
Format : PGS 
Muxing mode : zlib 
Codec ID : S_HDMV/PGS 
Codec ID/Info : Picture based subtitle format used on BDs/HD-DVDs 
Duration : 44 min 57 s 
Bit rate : 35.0 kb/s 
Count of elements : 1154 
Stream size : 11.3 MiB (1%) 
Language : Spanish 
Default : No 
Forced : No 

Subtitle #5 
ID : 7 
Format : PGS 
Muxing mode : zlib 
Codec ID : S_HDMV/PGS 
Codec ID/Info : Picture based subtitle format used on BDs/HD-DVDs 
Duration : 44 min 57 s 
Bit rate : 33.8 kb/s 
Count of elements : 1080 
Stream size : 10.9 MiB (1%) 
Language : Dutch 
Default : No 
Forced : No 

Subtitle #6 
ID : 8 
Format : PGS 
Muxing mode : zlib 
Codec ID : S_HDMV/PGS 
Codec ID/Info : Picture based subtitle format used on BDs/HD-DVDs 
Duration : 44 min 57 s 
Bit rate : 33.1 kb/s 
Count of elements : 1128 
Stream size : 10.6 MiB (1%) 
Language : Spanish 
Default : No 
Forced : No 

Subtitle #7 
ID : 9 
Format : PGS 
Muxing mode : zlib 
Codec ID : S_HDMV/PGS 
Codec ID/Info : Picture based subtitle format used on BDs/HD-DVDs 
Duration : 44 min 57 s 
Bit rate : 32.6 kb/s 
Count of elements : 1032 
Stream size : 10.5 MiB (1%) 
Language : Finnish 
Default : No 
Forced : No 

Menu 
00:00:00.000 : en:Chapter 1 
00:07:30.742 : en:Chapter 2 
00:16:31.824 : en:Chapter 3 
00:26:18.744 : en:Chapter 4 
00:32:39.666 : en:Chapter 5 
00:41:40.511 : en:Chapter 6

Screens

Download

Download: Google Drive (33.05 GB)

Season 2

The Mentalist (2008) Season 2 S02 (1080p AMZN WEB-DL x265 HEVC 10bit EAC3 6.0 RZeroX)

Files

The Mentalist (2008) - S02E01 - Redemption (1080p AMZN WEB-DL x265 RZeroX).mkv (1.1 GB)
The Mentalist (2008) - S02E02 - The Scarlet Letter (1080p AMZN WEB-DL x265 RZeroX).mkv (980.1 MB)
The Mentalist (2008) - S02E03 - Red Badge (1080p AMZN WEB-DL x265 RZeroX).mkv (1,023.3 MB)
The Mentalist (2008) - S02E04 - Red Menace (1080p AMZN WEB-DL x265 RZeroX).mkv (1.2 GB)
The Mentalist (2008) - S02E05 - Red Scare (1080p AMZN WEB-DL x265 RZeroX).mkv (972.1 MB)
The Mentalist (2008) - S02E06 - Black Gold and Red Blood (1080p AMZN WEB-DL x265 RZeroX).mkv (1.2 GB)
The Mentalist (2008) - S02E07 - Red Bulls (1080p AMZN WEB-DL x265 RZeroX).mkv (1.1 GB)
The Mentalist (2008) - S02E08 - His Red Right Hand (1080p AMZN WEB-DL x265 RZeroX).mkv (819.9 MB)
The Mentalist (2008) - S02E09 - A Price Above Rubies (1080p AMZN WEB-DL x265 RZeroX).mkv (948.4 MB)
The Mentalist (2008) - S02E10 - Throwing Fire (1080p AMZN WEB-DL x265 RZeroX).mkv (1.3 GB)
The Mentalist (2008) - S02E11 - Rose-Colored Glasses (1080p AMZN WEB-DL x265 RZeroX).mkv (958.2 MB)
The Mentalist (2008) - S02E12 - Bleeding Heart (1080p AMZN WEB-DL x265 RZeroX).mkv (1.1 GB)
The Mentalist (2008) - S02E13 - Redline (1080p AMZN WEB-DL x265 RZeroX).mkv (1.3 GB)
The Mentalist (2008) - S02E14 - Blood In, Blood Out (1080p AMZN WEB-DL x265 RZeroX).mkv (911.7 MB)
The Mentalist (2008) - S02E15 - Red Herring (1080p AMZN WEB-DL x265 RZeroX).mkv (1.1 GB)
The Mentalist (2008) - S02E16 - Code Red (1080p AMZN WEB-DL x265 RZeroX).mkv (1.3 GB)
The Mentalist (2008) - S02E17 - The Red Box (1080p AMZN WEB-DL x265 RZeroX).mkv (1.2 GB)
The Mentalist (2008) - S02E18 - Aingavite Baa (1080p AMZN WEB-DL x265 RZeroX).mkv (1.1 GB)
The Mentalist (2008) - S02E19 - Blood Money (1080p AMZN WEB-DL x265 RZeroX).mkv (1.0 GB)
The Mentalist (2008) - S02E20 - Red All Over (1080p AMZN WEB-DL x265 RZeroX).mkv (1,011.2 MB)
The Mentalist (2008) - S02E21 - 18-5-4 (1080p AMZN WEB-DL x265 RZeroX).mkv (1,004.8 MB)
The Mentalist (2008) - S02E22 - Red Letter (1080p AMZN WEB-DL x265 RZeroX).mkv (801.9 MB)
The Mentalist (2008) - S02E23 - Red Sky in the Morning (1080p AMZN WEB-DL x265 RZeroX).mkv (1.0 GB)

Mediainfo

General 
Format : Matroska 
Format version : Version 4 / Version 2 
File size : 1.11 GiB 
Duration : 43 min 22 s 
Overall bit rate : 3 677 kb/s 
Encoded date : UTC 2018-03-31 13:32:56 
Writing application : mkvmerge v21.0.0 ('Tardigrades Will Inherit The Earth') 64-bit 
Writing library : libebml v1.3.5 + libmatroska v1.4.8 

Video 
ID : 1 
Format : HEVC 
Format/Info : High Efficiency Video Coding 
Format profile : Main [email protected]@Main 
Codec ID : V_MPEGH/ISO/HEVC 
Duration : 43 min 22 s 
Bit rate : 3 035 kb/s 
Width : 1 920 pixels 
Height : 1 080 pixels 
Display aspect ratio : 16:9 
Frame rate mode : Constant 
Frame rate : 23.976 (24000/1001) FPS 
Color space : YUV 
Chroma subsampling : 4:2:0 
Bit depth : 10 bits 
Bits/(Pixel*Frame) : 0.061 
Stream size : 942 MiB (83%) 
Writing library : x265 2.7+1-2aa737a99f51:[Windows][GCC 8.0.1][64 bit] 10bit 
Encoding settings : cpuid=1173503 / frame-threads=3 / numa-pools=12 / wpp / no-pmode / no-pme / no-psnr / no-ssim / log-level=2 / input-csp=1 / input-res=1920x1080 / interlace=0 / total-frames=62409 / level-idc=0 / high-tier=1 / uhd-bd=0 / ref=4 / no-allow-non-conformance / no-repeat-headers / annexb / no-aud / no-hrd / info / hash=0 / no-temporal-layers / open-gop / min-keyint=23 / keyint=250 / gop-lookahead=0 / bframes=8 / b-adapt=2 / b-pyramid / bframe-bias=0 / rc-lookahead=70 / lookahead-slices=4 / scenecut=40 / radl=0 / no-intra-refresh / ctu=64 / min-cu-size=8 / no-rect / no-amp / max-tu-size=32 / tu-inter-depth=1 / tu-intra-depth=1 / limit-tu=0 / rdoq-level=2 / dynamic-rd=0.00 / no-ssim-rd / signhide / no-tskip / nr-intra=0 / nr-inter=0 / no-constrained-intra / strong-intra-smoothing / max-merge=3 / limit-refs=3 / limit-modes / me=3 / subme=5 / merange=57 / temporal-mvp / weightp / weightb / no-analyze-src-pics / deblock=-1:-1 / sao / no-sao-non-deblock / rd=4 / no-early-skip / rskip / no-fast-intra / no-tskip-fast / no-cu-lossless / no-b-intra / no-splitrd-skip / rdpenalty=0 / psy-rd=1.70 / psy-rdoq=1.00 / no-rd-refine / no-lossless / cbqpoffs=0 / crqpoffs=0 / rc=crf / crf=22.0 / qcomp=0.60 / qpstep=4 / stats-write=0 / stats-read=0 / ipratio=1.40 / pbratio=1.30 / aq-mode=3 / aq-strength=1.00 / cutree / zone-count=0 / no-strict-cbr / qg-size=32 / no-rc-grain / qpmax=69 / qpmin=0 / no-const-vbv / sar=0 / overscan=0 / videoformat=5 / range=0 / colorprim=2 / transfer=2 / colormatrix=2 / chromaloc=0 / display-window=0 / max-cll=0,0 / min-luma=0 / max-luma=1023 / log2-max-poc-lsb=8 / vui-timing-info / vui-hrd-info / slices=1 / no-opt-qp-pps / no-opt-ref-list-length-pps / no-multi-pass-opt-rps / scenecut-bias=0.00 / no-opt-cu-delta-qp / aq-motion / no-hdr / no-hdr-opt / no-dhdr10-opt / analysis-reuse-level=5 / scale-factor=0 / refine-intra=0 / refine-inter=0 / refine-mv=0 / no-limit-sao / ctu-info=0 / no-lowpass-dct / refine-mv-type=0 / copy-pic=1 
Default : Yes 
Forced : No 

Audio 
ID : 2 
Format : E-AC-3 
Format/Info : Enhanced Audio Coding 3 
Format settings, Endianness : Big 
Codec ID : A_EAC3 
Duration : 43 min 22 s 
Bit rate mode : Constant 
Bit rate : 640 kb/s 
Channel(s) : 6 channels 
Channel positions : Front: L C R, Side: L R, LFE 
Sampling rate : 48.0 kHz 
Frame rate : 187.500 FPS (256 spf) 
Compression mode : Lossy 
Stream size : 199 MiB (17%) 
Language : English 
Default : No 
Forced : No 

Subtitle 
ID : 3 
Format : UTF-8 
Codec ID : S_TEXT/UTF8 
Codec ID/Info : UTF-8 Plain Text 
Duration : 42 min 55 s 
Bit rate : 85 b/s 
Count of elements : 845 
Stream size : 27.0 KiB (0%) 
Language : English 
Default : No 
Forced : No

Screens

Download

Download: Google Drive (24.28 GB)

Season 3

The Mentalist (2008) Season 3 S03 (1080p AMZN WEB-DL x265 HEVC 10bit EAC3 6.0 RZeroX)

Files

The Mentalist (2008) - S03E01 - Red Sky at Night (1080p AMZN WEB-DL x265 RZeroX).mkv (921.5 MB)
The Mentalist (2008) - S03E02 - Cackle-Bladder Blood (1080p AMZN WEB-DL x265 RZeroX).mkv (1.0 GB)
The Mentalist (2008) - S03E03 - The Blood on His Hands (1080p AMZN WEB-DL x265 RZeroX).mkv (879.1 MB)
The Mentalist (2008) - S03E04 - Red Carpet Treatment (1080p AMZN WEB-DL x265 RZeroX).mkv (956.7 MB)
The Mentalist (2008) - S03E05 - The Red Ponies (1080p AMZN WEB-DL x265 RZeroX).mkv (1.0 GB)
The Mentalist (2008) - S03E06 - Pink Chanel Suit (1080p AMZN WEB-DL x265 RZeroX).mkv (785.3 MB)
The Mentalist (2008) - S03E07 - Red Hot (1080p AMZN WEB-DL x265 RZeroX).mkv (908.1 MB)
The Mentalist (2008) - S03E08 - Ball of Fire (1080p AMZN WEB-DL x265 RZeroX).mkv (856.0 MB)
The Mentalist (2008) - S03E09 - Red Moon (1080p AMZN WEB-DL x265 RZeroX).mkv (807.9 MB)
The Mentalist (2008) - S03E10 - Jolly Red Elf (1080p AMZN WEB-DL x265 RZeroX).mkv (815.5 MB)
The Mentalist (2008) - S03E11 - Bloodsport (1080p AMZN WEB-DL x265 RZeroX).mkv (871.4 MB)
The Mentalist (2008) - S03E12 - Bloodhounds (1080p AMZN WEB-DL x265 RZeroX).mkv (756.3 MB)
The Mentalist (2008) - S03E13 - Red Alert (1080p AMZN WEB-DL x265 RZeroX).mkv (772.0 MB)
The Mentalist (2008) - S03E14 - Blood for Blood (1080p AMZN WEB-DL x265 RZeroX).mkv (692.3 MB)
The Mentalist (2008) - S03E15 - Red Gold (1080p AMZN WEB-DL x265 RZeroX).mkv (1.0 GB)
The Mentalist (2008) - S03E16 - Red Queen (1080p AMZN WEB-DL x265 RZeroX).mkv (775.8 MB)
The Mentalist (2008) - S03E17 - Bloodstream (1080p AMZN WEB-DL x265 RZeroX).mkv (779.1 MB)
The Mentalist (2008) - S03E18 - The Red Mile (1080p AMZN WEB-DL x265 RZeroX).mkv (814.0 MB)
The Mentalist (2008) - S03E19 - Every Rose Has Its Thorn (1080p AMZN WEB-DL x265 RZeroX).mkv (690.4 MB)
The Mentalist (2008) - S03E20 - Redacted (1080p AMZN WEB-DL x265 RZeroX).mkv (601.6 MB)
The Mentalist (2008) - S03E21 - Like a Redheaded Stepchild (1080p AMZN WEB-DL x265 RZeroX).mkv (699.0 MB)
The Mentalist (2008) - S03E22 - Rhapsody in Red (1080p AMZN WEB-DL x265 RZeroX).mkv (686.8 MB)
The Mentalist (2008) - S03E23-E24 - Strawberries and Cream (1080p AMZN WEB-DL x265 RZeroX).mkv (1.3 GB)

Mediainfo

General 
Format : Matroska 
Format version : Version 4 / Version 2 
File size : 921 MiB 
Duration : 43 min 10 s 
Overall bit rate : 2 984 kb/s 
Encoded date : UTC 2018-04-16 18:17:34 
Writing application : mkvmerge v22.0.0 ('At The End Of The World') 64-bit 
Writing library : libebml v1.3.5 + libmatroska v1.4.8 

Video 
ID : 1 
Format : HEVC 
Format/Info : High Efficiency Video Coding 
Format profile : Main [email protected]@Main 
Codec ID : V_MPEGH/ISO/HEVC 
Duration : 43 min 10 s 
Bit rate : 2 342 kb/s 
Width : 1 920 pixels 
Height : 1 080 pixels 
Display aspect ratio : 16:9 
Frame rate mode : Constant 
Frame rate : 23.976 (24000/1001) FPS 
Color space : YUV 
Chroma subsampling : 4:2:0 
Bit depth : 10 bits 
Bits/(Pixel*Frame) : 0.047 
Stream size : 723 MiB (78%) 
Writing library : x265 2.7+340-aa9102400f24:[Windows][GCC 8.0.1][64 bit] 10bit 
Encoding settings : cpuid=1111039 / frame-threads=3 / numa-pools=12 / wpp / no-pmode / no-pme / no-psnr / no-ssim / log-level=2 / input-csp=1 / input-res=1920x1080 / interlace=0 / total-frames=62107 / level-idc=0 / high-tier=1 / uhd-bd=0 / ref=4 / no-allow-non-conformance / no-repeat-headers / annexb / no-aud / no-hrd / info / hash=0 / no-temporal-layers / open-gop / min-keyint=23 / keyint=250 / gop-lookahead=0 / bframes=8 / b-adapt=2 / b-pyramid / bframe-bias=0 / rc-lookahead=70 / lookahead-slices=4 / scenecut=40 / radl=0 / no-intra-refresh / ctu=64 / min-cu-size=8 / no-rect / no-amp / max-tu-size=32 / tu-inter-depth=1 / tu-intra-depth=1 / limit-tu=0 / rdoq-level=2 / dynamic-rd=0.00 / no-ssim-rd / signhide / no-tskip / nr-intra=0 / nr-inter=0 / no-constrained-intra / strong-intra-smoothing / max-merge=3 / limit-refs=3 / limit-modes / me=3 / subme=5 / merange=57 / temporal-mvp / weightp / weightb / no-analyze-src-pics / deblock=-1:-1 / sao / no-sao-non-deblock / rd=4 / no-early-skip / rskip / no-fast-intra / no-tskip-fast / no-cu-lossless / no-b-intra / no-splitrd-skip / rdpenalty=0 / psy-rd=1.70 / psy-rdoq=1.00 / no-rd-refine / no-lossless / cbqpoffs=0 / crqpoffs=0 / rc=crf / crf=22.0 / qcomp=0.60 / qpstep=4 / stats-write=0 / stats-read=0 / ipratio=1.40 / pbratio=1.30 / aq-mode=3 / aq-strength=1.00 / cutree / zone-count=0 / no-strict-cbr / qg-size=32 / no-rc-grain / qpmax=69 / qpmin=0 / no-const-vbv / sar=0 / overscan=0 / videoformat=5 / range=0 / colorprim=2 / transfer=2 / colormatrix=2 / chromaloc=0 / display-window=0 / max-cll=0,0 / min-luma=0 / max-luma=1023 / log2-max-poc-lsb=8 / vui-timing-info / vui-hrd-info / slices=1 / no-opt-qp-pps / no-opt-ref-list-length-pps / no-multi-pass-opt-rps / scenecut-bias=0.00 / no-opt-cu-delta-qp / aq-motion / no-hdr / no-hdr-opt / no-dhdr10-opt / no-idr-recovery-sei / analysis-reuse-level=5 / scale-factor=0 / refine-intra=0 / refine-inter=0 / refine-mv=0 / no-limit-sao / ctu-info=0 / no-lowpass-dct / refine-mv-type=0 / copy-pic=1 / max-ausize-factor=1.0 / no-dynamic-refine / no-single-sei 
Default : Yes 
Forced : No 

Audio 
ID : 2 
Format : E-AC-3 
Format/Info : Enhanced Audio Coding 3 
Format settings, Endianness : Big 
Codec ID : A_EAC3 
Duration : 43 min 10 s 
Bit rate mode : Constant 
Bit rate : 640 kb/s 
Channel(s) : 6 channels 
Channel positions : Front: L C R, Side: L R, LFE 
Sampling rate : 48.0 kHz 
Frame rate : 187.500 FPS (256 spf) 
Compression mode : Lossy 
Stream size : 198 MiB (21%) 
Language : English 
Default : No 
Forced : No 

Subtitle 
ID : 3 
Format : UTF-8 
Codec ID : S_TEXT/UTF8 
Codec ID/Info : UTF-8 Plain Text 
Duration : 42 min 29 s 
Bit rate : 94 b/s 
Count of elements : 873 
Stream size : 29.4 KiB (0%) 
Language : English 
Default : No 
Forced : No

Screens

Download

Download: Google Drive (19.05 GB)

Season 4

The Mentalist (2008) Season 4 S04 (1080p AMZN WEB-DL x265 HEVC 10bit EAC3 6.0 RZeroX)

Files

The Mentalist (2008) - S04E01 - Scarlet Ribbons (1080p AMZN WEB-DL x265 RZeroX).mkv (796.7 MB)
The Mentalist (2008) - S04E02 - Little Red Book (1080p AMZN WEB-DL x265 RZeroX).mkv (715.1 MB)
The Mentalist (2008) - S04E03 - Pretty Red Balloon (1080p AMZN WEB-DL x265 RZeroX).mkv (711.0 MB)
The Mentalist (2008) - S04E04 - Ring Around the Rosie (1080p AMZN WEB-DL x265 RZeroX).mkv (786.0 MB)
The Mentalist (2008) - S04E05 - Blood and Sand (1080p AMZN WEB-DL x265 RZeroX).mkv (872.8 MB)
The Mentalist (2008) - S04E06 - Where in the World Is Carmine O'Brien (1080p AMZN WEB-DL x265 RZeroX).mkv (789.2 MB)
The Mentalist (2008) - S04E07 - Blinking Red Light (1080p AMZN WEB-DL x265 RZeroX).mkv (685.7 MB)
The Mentalist (2008) - S04E08 - Pink Tops (1080p AMZN WEB-DL x265 RZeroX).mkv (726.3 MB)
The Mentalist (2008) - S04E09 - The Redshirt (1080p AMZN WEB-DL x265 RZeroX).mkv (737.2 MB)
The Mentalist (2008) - S04E10 - Fugue in Red (1080p AMZN WEB-DL x265 RZeroX).mkv (773.3 MB)
The Mentalist (2008) - S04E11 - Always Bet on Red (1080p AMZN WEB-DL x265 RZeroX).mkv (740.6 MB)
The Mentalist (2008) - S04E12 - My Bloody Valentine (1080p AMZN WEB-DL x265 RZeroX).mkv (856.9 MB)
The Mentalist (2008) - S04E13 - Red is the New Black (1080p AMZN WEB-DL x265 RZeroX).mkv (691.6 MB)
The Mentalist (2008) - S04E14 - At First Blush (1080p AMZN WEB-DL x265 RZeroX).mkv (848.4 MB)
The Mentalist (2008) - S04E15 - War of the Roses (1080p AMZN WEB-DL x265 RZeroX).mkv (734.9 MB)
The Mentalist (2008) - S04E16 - His Thoughts Were Red Thoughts (1080p AMZN WEB-DL x265 RZeroX).mkv (698.9 MB)
The Mentalist (2008) - S04E17 - Cheap Burgundy (1080p AMZN WEB-DL x265 RZeroX).mkv (737.5 MB)
The Mentalist (2008) - S04E18 - Ruddy Cheeks (1080p AMZN WEB-DL x265 RZeroX).mkv (761.6 MB)
The Mentalist (2008) - S04E19 - Pink Champagne on Ice (1080p AMZN WEB-DL x265 RZeroX).mkv (758.1 MB)
The Mentalist (2008) - S04E20 - Something's Rotten in Redmund (1080p AMZN WEB-DL x265 RZeroX).mkv (801.6 MB)
The Mentalist (2008) - S04E21 - Ruby Slippers (1080p AMZN WEB-DL x265 RZeroX).mkv (801.6 MB)
The Mentalist (2008) - S04E22 - So Long, and Thanks for All the Red Snapper (1080p AMZN WEB-DL x265 RZeroX).mkv (884.7 MB)
The Mentalist (2008) - S04E23 - Red Rover, Red Rover (1080p AMZN WEB-DL x265 RZeroX).mkv (762.4 MB)
The Mentalist (2008) - S04E24 - The Crimson Hat (1080p AMZN WEB-DL x265 RZeroX).mkv (875.7 MB)

Mediainfo

General 
Format : Matroska 
Format version : Version 4 / Version 2 
File size : 797 MiB 
Duration : 42 min 34 s 
Overall bit rate : 2 617 kb/s 
Encoded date : UTC 2018-05-21 22:57:24 
Writing application : mkvmerge v23.0.0 ('The Bride Said No') 64-bit 
Writing library : libebml v1.3.6 + libmatroska v1.4.9 

Video 
ID : 1 
Format : HEVC 
Format/Info : High Efficiency Video Coding 
Format profile : Main [email protected]@Main 
Codec ID : V_MPEGH/ISO/HEVC 
Duration : 42 min 34 s 
Bit rate : 1 975 kb/s 
Width : 1 920 pixels 
Height : 1 080 pixels 
Display aspect ratio : 16:9 
Frame rate mode : Constant 
Frame rate : 23.976 (24000/1001) FPS 
Color space : YUV 
Chroma subsampling : 4:2:0 
Bit depth : 10 bits 
Bits/(Pixel*Frame) : 0.040 
Stream size : 601 MiB (75%) 
Writing library : x265 2.7+340-aa9102400f24:[Windows][GCC 8.0.1][64 bit] 10bit 
Encoding settings : cpuid=1111039 / frame-threads=3 / numa-pools=12 / wpp / no-pmode / no-pme / no-psnr / no-ssim / log-level=2 / input-csp=1 / input-res=1920x1080 / interlace=0 / total-frames=61235 / level-idc=0 / high-tier=1 / uhd-bd=0 / ref=4 / no-allow-non-conformance / no-repeat-headers / annexb / no-aud / no-hrd / info / hash=0 / no-temporal-layers / open-gop / min-keyint=23 / keyint=250 / gop-lookahead=0 / bframes=8 / b-adapt=2 / b-pyramid / bframe-bias=0 / rc-lookahead=70 / lookahead-slices=4 / scenecut=40 / radl=0 / no-intra-refresh / ctu=64 / min-cu-size=8 / no-rect / no-amp / max-tu-size=32 / tu-inter-depth=1 / tu-intra-depth=1 / limit-tu=0 / rdoq-level=2 / dynamic-rd=0.00 / no-ssim-rd / signhide / no-tskip / nr-intra=0 / nr-inter=0 / no-constrained-intra / strong-intra-smoothing / max-merge=3 / limit-refs=3 / limit-modes / me=3 / subme=5 / merange=57 / temporal-mvp / weightp / weightb / no-analyze-src-pics / deblock=-1:-1 / sao / no-sao-non-deblock / rd=4 / no-early-skip / rskip / no-fast-intra / no-tskip-fast / no-cu-lossless / no-b-intra / no-splitrd-skip / rdpenalty=0 / psy-rd=1.70 / psy-rdoq=1.00 / no-rd-refine / no-lossless / cbqpoffs=0 / crqpoffs=0 / rc=crf / crf=22.0 / qcomp=0.60 / qpstep=4 / stats-write=0 / stats-read=0 / ipratio=1.40 / pbratio=1.30 / aq-mode=3 / aq-strength=1.00 / cutree / zone-count=0 / no-strict-cbr / qg-size=32 / no-rc-grain / qpmax=69 / qpmin=0 / no-const-vbv / sar=0 / overscan=0 / videoformat=5 / range=0 / colorprim=2 / transfer=2 / colormatrix=2 / chromaloc=0 / display-window=0 / max-cll=0,0 / min-luma=0 / max-luma=1023 / log2-max-poc-lsb=8 / vui-timing-info / vui-hrd-info / slices=1 / no-opt-qp-pps / no-opt-ref-list-length-pps / no-multi-pass-opt-rps / scenecut-bias=0.00 / no-opt-cu-delta-qp / aq-motion / no-hdr / no-hdr-opt / no-dhdr10-opt / no-idr-recovery-sei / analysis-reuse-level=5 / scale-factor=0 / refine-intra=0 / refine-inter=0 / refine-mv=0 / no-limit-sao / ctu-info=0 / no-lowpass-dct / refine-mv-type=0 / copy-pic=1 / max-ausize-factor=1.0 / no-dynamic-refine / no-single-sei 
Default : Yes 
Forced : No 

Audio 
ID : 2 
Format : E-AC-3 
Format/Info : Enhanced Audio Coding 3 
Format settings, Endianness : Big 
Codec ID : A_EAC3 
Duration : 42 min 33 s 
Bit rate mode : Constant 
Bit rate : 640 kb/s 
Channel(s) : 6 channels 
Channel positions : Front: L C R, Side: L R, LFE 
Sampling rate : 48.0 kHz 
Frame rate : 187.500 FPS (256 spf) 
Compression mode : Lossy 
Stream size : 195 MiB (24%) 
Language : English 
Default : No 
Forced : No 

Subtitle 
ID : 3 
Format : UTF-8 
Codec ID : S_TEXT/UTF8 
Codec ID/Info : UTF-8 Plain Text 
Duration : 41 min 56 s 
Bit rate : 73 b/s 
Count of elements : 747 
Stream size : 22.6 KiB (0%) 
Language : English 
Default : No 
Forced : No

Screens

Download

Download: Google Drive (18.11 GB)

Season 5

The Mentalist (2008) Season 5 S05 (1080p AMZN WEB-DL x265 HEVC 10bit EAC3 6.0 RZeroX)

Files

The Mentalist (2008) - S05E01 - The Crimson Ticket (1080p AMZN WEB-DL x265 RZeroX).mkv (839.6 MB)
The Mentalist (2008) - S05E02 - Devil's Cherry (1080p AMZN WEB-DL x265 RZeroX).mkv (910.1 MB)
The Mentalist (2008) - S05E03 - Not One Red Cent (1080p AMZN WEB-DL x265 RZeroX).mkv (845.8 MB)
The Mentalist (2008) - S05E04 - Blood Feud (1080p AMZN WEB-DL x265 RZeroX).mkv (915.2 MB)
The Mentalist (2008) - S05E05 - Red Dawn (1080p AMZN WEB-DL x265 RZeroX).mkv (1.1 GB)
The Mentalist (2008) - S05E06 - Cherry Picked (1080p AMZN WEB-DL x265 RZeroX).mkv (788.2 MB)
The Mentalist (2008) - S05E07 - If It Bleeds, It Leads (1080p AMZN WEB-DL x265 RZeroX).mkv (903.8 MB)
The Mentalist (2008) - S05E08 - Red Sails in the Sunset (1080p AMZN WEB-DL x265 RZeroX).mkv (1.0 GB)
The Mentalist (2008) - S05E09 - Black Cherry (1080p AMZN WEB-DL x265 RZeroX).mkv (909.4 MB)
The Mentalist (2008) - S05E10 - Panama Red (1080p AMZN WEB-DL x265 RZeroX).mkv (1.0 GB)
The Mentalist (2008) - S05E11 - Days of Wine & Roses (1080p AMZN WEB-DL x265 RZeroX).mkv (848.8 MB)
The Mentalist (2008) - S05E12 - Little Red Corvette (1080p AMZN WEB-DL x265 RZeroX).mkv (875.9 MB)
The Mentalist (2008) - S05E13 - The Red Barn (1080p AMZN WEB-DL x265 RZeroX).mkv (814.9 MB)
The Mentalist (2008) - S05E14 - Red in Tooth and Claw (1080p AMZN WEB-DL x265 RZeroX).mkv (796.6 MB)
The Mentalist (2008) - S05E15 - Red Lacquer Nail Polish (1080p AMZN WEB-DL x265 RZeroX).mkv (852.6 MB)
The Mentalist (2008) - S05E16 - There Will Be Blood (1080p AMZN WEB-DL x265 RZeroX).mkv (719.7 MB)
The Mentalist (2008) - S05E17 - Red, White and Blue (1080p AMZN WEB-DL x265 RZeroX).mkv (860.4 MB)
The Mentalist (2008) - S05E18 - Behind the Red Curtain (1080p AMZN WEB-DL x265 RZeroX).mkv (785.5 MB)
The Mentalist (2008) - S05E19 - Red Letter Day (1080p AMZN WEB-DL x265 RZeroX).mkv (876.4 MB)
The Mentalist (2008) - S05E20 - Red Velvet Cupcakes (1080p AMZN WEB-DL x265 RZeroX).mkv (793.1 MB)
The Mentalist (2008) - S05E21 - Red and Itchy (1080p AMZN WEB-DL x265 RZeroX).mkv (828.4 MB)
The Mentalist (2008) - S05E22 - Red John's Rules (1080p AMZN WEB-DL x265 RZeroX).mkv (899.5 MB)

Mediainfo

General 
Format : Matroska 
Format version : Version 4 / Version 2 
File size : 840 MiB 
Duration : 41 min 31 s 
Overall bit rate : 2 827 kb/s 
Encoded date : UTC 2018-05-28 22:13:51 
Writing application : mkvmerge v23.0.0 ('The Bride Said No') 64-bit 
Writing library : libebml v1.3.6 + libmatroska v1.4.9 

Video 
ID : 1 
Format : HEVC 
Format/Info : High Efficiency Video Coding 
Format profile : Main [email protected]@Main 
Codec ID : V_MPEGH/ISO/HEVC 
Duration : 41 min 31 s 
Bit rate : 2 185 kb/s 
Width : 1 920 pixels 
Height : 1 080 pixels 
Display aspect ratio : 16:9 
Frame rate mode : Constant 
Frame rate : 23.976 (24000/1001) FPS 
Color space : YUV 
Chroma subsampling : 4:2:0 
Bit depth : 10 bits 
Bits/(Pixel*Frame) : 0.044 
Stream size : 649 MiB (77%) 
Writing library : x265 2.8+1-478bfe2b7673:[Windows][GCC 8.1.0][64 bit] 10bit 
Encoding settings : cpuid=1111039 / frame-threads=3 / numa-pools=12 / wpp / no-pmode / no-pme / no-psnr / no-ssim / log-level=2 / input-csp=1 / input-res=1920x1080 / interlace=0 / total-frames=59734 / level-idc=0 / high-tier=1 / uhd-bd=0 / ref=4 / no-allow-non-conformance / no-repeat-headers / annexb / no-aud / no-hrd / info / hash=0 / no-temporal-layers / open-gop / min-keyint=23 / keyint=250 / gop-lookahead=0 / bframes=8 / b-adapt=2 / b-pyramid / bframe-bias=0 / rc-lookahead=70 / lookahead-slices=4 / scenecut=40 / radl=0 / no-intra-refresh / ctu=64 / min-cu-size=8 / no-rect / no-amp / max-tu-size=32 / tu-inter-depth=1 / tu-intra-depth=1 / limit-tu=0 / rdoq-level=2 / dynamic-rd=0.00 / no-ssim-rd / signhide / no-tskip / nr-intra=0 / nr-inter=0 / no-constrained-intra / strong-intra-smoothing / max-merge=3 / limit-refs=3 / limit-modes / me=3 / subme=5 / merange=57 / temporal-mvp / weightp / weightb / no-analyze-src-pics / deblock=-1:-1 / sao / no-sao-non-deblock / rd=4 / no-early-skip / rskip / no-fast-intra / no-tskip-fast / no-cu-lossless / no-b-intra / no-splitrd-skip / rdpenalty=0 / psy-rd=1.70 / psy-rdoq=1.00 / no-rd-refine / no-lossless / cbqpoffs=0 / crqpoffs=0 / rc=crf / crf=22.0 / qcomp=0.60 / qpstep=4 / stats-write=0 / stats-read=0 / ipratio=1.40 / pbratio=1.30 / aq-mode=3 / aq-strength=1.00 / cutree / zone-count=0 / no-strict-cbr / qg-size=32 / no-rc-grain / qpmax=69 / qpmin=0 / no-const-vbv / sar=0 / overscan=0 / videoformat=5 / range=0 / colorprim=2 / transfer=2 / colormatrix=2 / chromaloc=0 / display-window=0 / max-cll=0,0 / min-luma=0 / max-luma=1023 / log2-max-poc-lsb=8 / vui-timing-info / vui-hrd-info / slices=1 / no-opt-qp-pps / no-opt-ref-list-length-pps / no-multi-pass-opt-rps / scenecut-bias=0.00 / no-opt-cu-delta-qp / aq-motion / no-hdr / no-hdr-opt / no-dhdr10-opt / no-idr-recovery-sei / analysis-reuse-level=5 / scale-factor=0 / refine-intra=0 / refine-inter=0 / refine-mv=0 / no-limit-sao / ctu-info=0 / no-lowpass-dct / refine-mv-type=0 / copy-pic=1 / max-ausize-factor=1.0 / no-dynamic-refine / no-single-sei 
Default : Yes 
Forced : No 

Audio 
ID : 2 
Format : E-AC-3 
Format/Info : Enhanced Audio Coding 3 
Format settings, Endianness : Big 
Codec ID : A_EAC3 
Duration : 41 min 31 s 
Bit rate mode : Constant 
Bit rate : 640 kb/s 
Channel(s) : 6 channels 
Channel positions : Front: L C R, Side: L R, LFE 
Sampling rate : 48.0 kHz 
Frame rate : 187.500 FPS (256 spf) 
Compression mode : Lossy 
Stream size : 190 MiB (23%) 
Language : English 
Default : No 
Forced : No 

Subtitle 
ID : 3 
Format : UTF-8 
Codec ID : S_TEXT/UTF8 
Codec ID/Info : UTF-8 Plain Text 
Duration : 41 min 5 s 
Bit rate : 107 b/s 
Count of elements : 949 
Stream size : 32.3 KiB (0%) 
Language : English 
Default : No 
Forced : No

Screens

Download

Download: Google Drive (18.86 GB)

Season 6

The Mentalist (2008) Season 6 S06 (1080p AMZN WEB-DL x265 HEVC 10bit EAC3 6.0 RZeroX)

Files

The Mentalist (2008) - S06E01 - The Desert Rose (1080p AMZN WEB-DL x265 RZeroX).mkv (837.8 MB)
The Mentalist (2008) - S06E02 - Black-Winged Redbird (1080p AMZN WEB-DL x265 RZeroX).mkv (951.4 MB)
The Mentalist (2008) - S06E03 - Wedding in Red (1080p AMZN WEB-DL x265 RZeroX).mkv (951.8 MB)
The Mentalist (2008) - S06E04 - Red Listed (1080p AMZN WEB-DL x265 RZeroX).mkv (855.6 MB)
The Mentalist (2008) - S06E05 - The Red Tattoo (1080p AMZN WEB-DL x265 RZeroX).mkv (976.8 MB)
The Mentalist (2008) - S06E06 - Fire and Brimstone (1080p AMZN WEB-DL x265 RZeroX).mkv (815.5 MB)
The Mentalist (2008) - S06E07 - The Great Red Dragon (1080p AMZN WEB-DL x265 RZeroX).mkv (890.0 MB)
The Mentalist (2008) - S06E08 - Red John (1080p AMZN WEB-DL x265 RZeroX).mkv (1.1 GB)
The Mentalist (2008) - S06E09 - My Blue Heaven (1080p AMZN WEB-DL x265 RZeroX).mkv (978.6 MB)
The Mentalist (2008) - S06E10 - Green Thumb (1080p AMZN WEB-DL x265 RZeroX).mkv (854.0 MB)
The Mentalist (2008) - S06E11 - White Lines (1080p AMZN WEB-DL x265 RZeroX).mkv (782.1 MB)
The Mentalist (2008) - S06E12 - The Golden Hammer (1080p AMZN WEB-DL x265 RZeroX).mkv (850.6 MB)
The Mentalist (2008) - S06E13 - Black Helicopters (1080p AMZN WEB-DL x265 RZeroX).mkv (1,018.0 MB)
The Mentalist (2008) - S06E14 - Grey Water (1080p AMZN WEB-DL x265 RZeroX).mkv (785.7 MB)
The Mentalist (2008) - S06E15 - White as the Driven Snow (1080p AMZN WEB-DL x265 RZeroX).mkv (952.8 MB)
The Mentalist (2008) - S06E16 - Violets (1080p AMZN WEB-DL x265 RZeroX).mkv (815.4 MB)
The Mentalist (2008) - S06E17 - Silver Wings of Time (1080p AMZN WEB-DL x265 RZeroX).mkv (811.2 MB)
The Mentalist (2008) - S06E18 - Forest Green (1080p AMZN WEB-DL x265 RZeroX).mkv (953.6 MB)
The Mentalist (2008) - S06E19 - Brown Eyed Girls (1080p AMZN WEB-DL x265 RZeroX).mkv (838.0 MB)
The Mentalist (2008) - S06E20 - Il Tavolo Bianco (1080p AMZN WEB-DL x265 RZeroX).mkv (769.1 MB)
The Mentalist (2008) - S06E21 - Black Hearts (1080p AMZN WEB-DL x265 RZeroX).mkv (701.4 MB)
The Mentalist (2008) - S06E22 - Blue Bird (1080p AMZN WEB-DL x265 RZeroX).mkv (891.6 MB)

Mediainfo

General 
Format : Matroska 
Format version : Version 4 / Version 2 
File size : 838 MiB 
Duration : 41 min 50 s 
Overall bit rate : 2 799 kb/s 
Encoded date : UTC 2018-06-05 02:29:29 
Writing application : mkvmerge v23.0.0 ('The Bride Said No') 64-bit 
Writing library : libebml v1.3.6 + libmatroska v1.4.9 

Video 
ID : 1 
Format : HEVC 
Format/Info : High Efficiency Video Coding 
Format profile : Main [email protected]@Main 
Codec ID : V_MPEGH/ISO/HEVC 
Duration : 41 min 50 s 
Bit rate : 2 157 kb/s 
Width : 1 920 pixels 
Height : 1 080 pixels 
Display aspect ratio : 16:9 
Frame rate mode : Constant 
Frame rate : 23.976 (24000/1001) FPS 
Color space : YUV 
Chroma subsampling : 4:2:0 
Bit depth : 10 bits 
Bits/(Pixel*Frame) : 0.043 
Stream size : 646 MiB (77%) 
Writing library : x265 2.8+1-478bfe2b7673:[Windows][GCC 8.1.0][64 bit] 10bit 
Encoding settings : cpuid=1111039 / frame-threads=3 / numa-pools=12 / wpp / no-pmode / no-pme / no-psnr / no-ssim / log-level=2 / input-csp=1 / input-res=1920x1080 / interlace=0 / total-frames=60201 / level-idc=0 / high-tier=1 / uhd-bd=0 / ref=4 / no-allow-non-conformance / no-repeat-headers / annexb / no-aud / no-hrd / info / hash=0 / no-temporal-layers / open-gop / min-keyint=23 / keyint=250 / gop-lookahead=0 / bframes=8 / b-adapt=2 / b-pyramid / bframe-bias=0 / rc-lookahead=70 / lookahead-slices=4 / scenecut=40 / radl=0 / no-intra-refresh / ctu=64 / min-cu-size=8 / no-rect / no-amp / max-tu-size=32 / tu-inter-depth=1 / tu-intra-depth=1 / limit-tu=0 / rdoq-level=2 / dynamic-rd=0.00 / no-ssim-rd / signhide / no-tskip / nr-intra=0 / nr-inter=0 / no-constrained-intra / strong-intra-smoothing / max-merge=3 / limit-refs=3 / limit-modes / me=3 / subme=5 / merange=57 / temporal-mvp / weightp / weightb / no-analyze-src-pics / deblock=-1:-1 / sao / no-sao-non-deblock / rd=4 / no-early-skip / rskip / no-fast-intra / no-tskip-fast / no-cu-lossless / no-b-intra / no-splitrd-skip / rdpenalty=0 / psy-rd=1.70 / psy-rdoq=1.00 / no-rd-refine / no-lossless / cbqpoffs=0 / crqpoffs=0 / rc=crf / crf=22.0 / qcomp=0.60 / qpstep=4 / stats-write=0 / stats-read=0 / ipratio=1.40 / pbratio=1.30 / aq-mode=3 / aq-strength=1.00 / cutree / zone-count=0 / no-strict-cbr / qg-size=32 / no-rc-grain / qpmax=69 / qpmin=0 / no-const-vbv / sar=0 / overscan=0 / videoformat=5 / range=0 / colorprim=2 / transfer=2 / colormatrix=2 / chromaloc=0 / display-window=0 / max-cll=0,0 / min-luma=0 / max-luma=1023 / log2-max-poc-lsb=8 / vui-timing-info / vui-hrd-info / slices=1 / no-opt-qp-pps / no-opt-ref-list-length-pps / no-multi-pass-opt-rps / scenecut-bias=0.00 / no-opt-cu-delta-qp / aq-motion / no-hdr / no-hdr-opt / no-dhdr10-opt / no-idr-recovery-sei / analysis-reuse-level=5 / scale-factor=0 / refine-intra=0 / refine-inter=0 / refine-mv=0 / no-limit-sao / ctu-info=0 / no-lowpass-dct / refine-mv-type=0 / copy-pic=1 / max-ausize-factor=1.0 / no-dynamic-refine / no-single-sei 
Default : Yes 
Forced : No 

Audio 
ID : 2 
Format : E-AC-3 
Format/Info : Enhanced Audio Coding 3 
Format settings, Endianness : Big 
Codec ID : A_EAC3 
Duration : 41 min 50 s 
Bit rate mode : Constant 
Bit rate : 640 kb/s 
Channel(s) : 6 channels 
Channel positions : Front: L C R, Side: L R, LFE 
Sampling rate : 48.0 kHz 
Frame rate : 187.500 FPS (256 spf) 
Compression mode : Lossy 
Stream size : 192 MiB (23%) 
Language : English 
Default : No 
Forced : No 

Subtitle 
ID : 3 
Format : UTF-8 
Codec ID : S_TEXT/UTF8 
Codec ID/Info : UTF-8 Plain Text 
Duration : 41 min 20 s 
Bit rate : 78 b/s 
Count of elements : 839 
Stream size : 23.7 KiB (0%) 
Language : English 
Default : No 
Forced : No

Screens

Download

Download: Google Drive (18.94 GB)

Season 7

The Mentalist (2008) Season 7 S07 (1080p AMZN WEB-DL x265 HEVC 10bit EAC3 6.0 RZeroX)

Files

The Mentalist (2008) - S07E01 - Nothing But Blue Skies (1080p AMZN WEB-DL x265 RZeroX).mkv (755.7 MB)
The Mentalist (2008) - S07E02 - The Greybar Hotel (1080p AMZN WEB-DL x265 RZeroX).mkv (856.2 MB)
The Mentalist (2008) - S07E03 - Orange Blossom Ice Cream (1080p AMZN WEB-DL x265 RZeroX).mkv (845.3 MB)
The Mentalist (2008) - S07E04 - Black Market (1080p AMZN WEB-DL x265 RZeroX).mkv (745.3 MB)
The Mentalist (2008) - S07E05 - The Silver Briefcase (1080p AMZN WEB-DL x265 RZeroX).mkv (774.0 MB)
The Mentalist (2008) - S07E06 - Green Light (1080p AMZN WEB-DL x265 RZeroX).mkv (652.1 MB)
The Mentalist (2008) - S07E07 - Little Yellow House (1080p AMZN WEB-DL x265 RZeroX).mkv (772.5 MB)
The Mentalist (2008) - S07E08 - The Whites of His Eyes (1080p AMZN WEB-DL x265 RZeroX).mkv (789.4 MB)
The Mentalist (2008) - S07E09 - Copper Bullet (1080p AMZN WEB-DL x265 RZeroX).mkv (797.7 MB)
The Mentalist (2008) - S07E10 - Nothing Gold Can Stay (1080p AMZN WEB-DL x265 RZeroX).mkv (719.6 MB)
The Mentalist (2008) - S07E11 - Byzantium (1080p AMZN WEB-DL x265 RZeroX).mkv (803.5 MB)
The Mentalist (2008) - S07E12 - Brown Shag Carpet (1080p AMZN WEB-DL x265 RZeroX).mkv (674.0 MB)
The Mentalist (2008) - S07E13 - White Orchids (1080p AMZN WEB-DL x265 RZeroX).mkv (877.5 MB)

Mediainfo

General 
Format : Matroska 
Format version : Version 4 / Version 2 
File size : 756 MiB 
Duration : 43 min 4 s 
Overall bit rate : 2 453 kb/s 
Encoded date : UTC 2018-06-14 01:31:12 
Writing application : mkvmerge v24.0.0 ('Beyond The Pale') 64-bit 
Writing library : libebml v1.3.6 + libmatroska v1.4.9 

Video 
ID : 1 
Format : HEVC 
Format/Info : High Efficiency Video Coding 
Format profile : Main [email protected]@Main 
Codec ID : V_MPEGH/ISO/HEVC 
Duration : 43 min 4 s 
Bit rate : 1 811 kb/s 
Width : 1 920 pixels 
Height : 1 080 pixels 
Display aspect ratio : 16:9 
Frame rate mode : Constant 
Frame rate : 23.976 (24000/1001) FPS 
Color space : YUV 
Chroma subsampling : 4:2:0 
Bit depth : 10 bits 
Bits/(Pixel*Frame) : 0.036 
Stream size : 558 MiB (74%) 
Writing library : x265 2.8+19-bcdc610cf5f0:[Windows][GCC 8.1.0][64 bit] 10bit 
Encoding settings : cpuid=1111039 / frame-threads=3 / numa-pools=12 / wpp / no-pmode / no-pme / no-psnr / no-ssim / log-level=2 / input-csp=1 / input-res=1920x1080 / interlace=0 / total-frames=61960 / level-idc=0 / high-tier=1 / uhd-bd=0 / ref=4 / no-allow-non-conformance / no-repeat-headers / annexb / no-aud / no-hrd / info / hash=0 / no-temporal-layers / open-gop / min-keyint=23 / keyint=250 / gop-lookahead=0 / bframes=8 / b-adapt=2 / b-pyramid / bframe-bias=0 / rc-lookahead=70 / lookahead-slices=4 / scenecut=40 / radl=0 / no-intra-refresh / ctu=64 / min-cu-size=8 / no-rect / no-amp / max-tu-size=32 / tu-inter-depth=1 / tu-intra-depth=1 / limit-tu=0 / rdoq-level=2 / dynamic-rd=0.00 / no-ssim-rd / signhide / no-tskip / nr-intra=0 / nr-inter=0 / no-constrained-intra / strong-intra-smoothing / max-merge=3 / limit-refs=3 / limit-modes / me=3 / subme=5 / merange=57 / temporal-mvp / weightp / weightb / no-analyze-src-pics / deblock=-1:-1 / sao / no-sao-non-deblock / rd=4 / no-early-skip / rskip / no-fast-intra / no-tskip-fast / no-cu-lossless / no-b-intra / no-splitrd-skip / rdpenalty=0 / psy-rd=1.70 / psy-rdoq=1.00 / no-rd-refine / no-lossless / cbqpoffs=0 / crqpoffs=0 / rc=crf / crf=22.0 / qcomp=0.60 / qpstep=4 / stats-write=0 / stats-read=0 / ipratio=1.40 / pbratio=1.30 / aq-mode=3 / aq-strength=1.00 / cutree / zone-count=0 / no-strict-cbr / qg-size=32 / no-rc-grain / qpmax=69 / qpmin=0 / no-const-vbv / sar=0 / overscan=0 / videoformat=5 / range=0 / colorprim=2 / transfer=2 / colormatrix=2 / chromaloc=0 / display-window=0 / max-cll=0,0 / min-luma=0 / max-luma=1023 / log2-max-poc-lsb=8 / vui-timing-info / vui-hrd-info / slices=1 / no-opt-qp-pps / no-opt-ref-list-length-pps / no-multi-pass-opt-rps / scenecut-bias=0.00 / no-opt-cu-delta-qp / aq-motion / no-hdr / no-hdr-opt / no-dhdr10-opt / no-idr-recovery-sei / analysis-reuse-level=5 / scale-factor=0 / refine-intra=0 / refine-inter=0 / refine-mv=0 / no-limit-sao / ctu-info=0 / no-lowpass-dct / refine-mv-type=0 / copy-pic=1 / max-ausize-factor=1.0 / no-dynamic-refine / no-single-sei 
Default : Yes 
Forced : No 

Audio 
ID : 2 
Format : E-AC-3 
Format/Info : Enhanced Audio Coding 3 
Format settings, Endianness : Big 
Codec ID : A_EAC3 
Duration : 43 min 4 s 
Bit rate mode : Constant 
Bit rate : 640 kb/s 
Channel(s) : 6 channels 
Channel positions : Front: L C R, Side: L R, LFE 
Sampling rate : 48.0 kHz 
Frame rate : 187.500 FPS (256 spf) 
Compression mode : Lossy 
Stream size : 197 MiB (26%) 
Language : English 
Default : No 
Forced : No 

Subtitle 
ID : 3 
Format : UTF-8 
Codec ID : S_TEXT/UTF8 
Codec ID/Info : UTF-8 Plain Text 
Duration : 42 min 29 s 
Bit rate : 88 b/s 
Count of elements : 974 
Stream size : 27.6 KiB (0%) 
Language : English 
Default : No 
Forced : No

Screens

Download

Download: Google Drive (9.83 GB)

Leave a Reply

Your email address will not be published. Required fields are marked *