The Last Ship (2013) Season 1-5 (1080p BluRay x265 HEVC 10bit AAC 5.1 Vyndros)

Summary:  The crew of a naval destroyer is forced to confront the reality of a new existence when a pandemic kills off most of the earth’s population.

Season 1

The Last Ship (2013) Season 1 S01 (1080p BluRay x265 HEVC 10bit AAC 5.1 Vyndros)

Files

The.Last.Ship.S01E01.Phase.Six.1080p.10bit.BluRay.AAC5.1.HEVC-Vyndros.mkv (1.6 GB)
The.Last.Ship.S01E02.Welcome.to.Gitmo.1080p.10bit.BluRay.AAC5.1.HEVC-Vyndros.mkv (1.4 GB)
The.Last.Ship.S01E03.Dead.Reckoning.1080p.10bit.BluRay.AAC5.1.HEVC-Vyndros.mkv (1.1 GB)
The.Last.Ship.S01E04.We'll.Get.There.1080p.10bit.BluRay.AAC5.1.HEVC-Vyndros.mkv (1.2 GB)
The.Last.Ship.S01E05.El.Toro.1080p.10bit.BluRay.AAC5.1.HEVC-Vyndros.mkv (1.6 GB)
The.Last.Ship.S01E06.Lockdown.1080p.10bit.BluRay.AAC5.1.HEVC-Vyndros.mkv (1.3 GB)
The.Last.Ship.S01E07.SOS.1080p.10bit.BluRay.AAC5.1.HEVC-Vyndros.mkv (1.5 GB)
The.Last.Ship.S01E08.Two.Sailors.Walk.Into.a.Bar.1080p.10bit.BluRay.AAC5.1.HEVC-Vyndros.mkv (1.2 GB)
The.Last.Ship.S01E09.Trials.1080p.10bit.BluRay.AAC5.1.HEVC-Vyndros.mkv (1.2 GB)
The.Last.Ship.S01E10.No.Place.Like.Home.1080p.10bit.BluRay.AAC5.1.HEVC-Vyndros.mkv (1.2 GB)

Mediainfo

General 
Format : Matroska 
Format version : Version 4 / Version 2 
File size : 1.23 GiB 
Duration : 42 min 20 s 
Overall bit rate : 4 151 kb/s 
Movie name : The Last Ship S01E10 No Place Like Home 1080p Blu-ray Remux AVC TrueHD 5.1 - KRaLiMaRKo 
Encoded date : UTC 2018-10-25 19:23:50 
Writing application : mkvmerge v20.0.0 ('I Am The Sun') 64-bit 
Writing library : libebml v1.3.5 + libmatroska v1.4.8 
Writing frontend : StaxRip v1.7.0.6 

Video 
ID : 1 
Format : HEVC 
Format/Info : High Efficiency Video Coding 
Format profile : Main [email protected]@Main 
Codec ID : V_MPEGH/ISO/HEVC 
Duration : 42 min 9 s 
Bit rate : 3 702 kb/s 
Width : 1 920 pixels 
Height : 1 080 pixels 
Display aspect ratio : 16:9 
Frame rate mode : Constant 
Frame rate : 23.976 (24000/1001) FPS 
Color space : YUV 
Chroma subsampling : 4:2:0 
Bit depth : 10 bits 
Bits/(Pixel*Frame) : 0.074 
Stream size : 1.09 GiB (89%) 
Writing library : x265 2.9+1-169e76b6bbcc:[Windows][GCC 8.2.0][64 bit] 10bit 
Encoding settings : cpuid=1111039 / frame-threads=2 / numa-pools=4 / wpp / no-pmode / no-pme / no-psnr / ssim / log-level=2 / input-csp=1 / input-res=1920x1080 / interlace=0 / total-frames=60649 / level-idc=0 / high-tier=1 / uhd-bd=0 / ref=3 / no-allow-non-conformance / no-repeat-headers / annexb / no-aud / no-hrd / info / hash=0 / no-temporal-layers / open-gop / min-keyint=23 / keyint=250 / gop-lookahead=0 / bframes=8 / b-adapt=2 / b-pyramid / bframe-bias=0 / rc-lookahead=50 / lookahead-slices=6 / scenecut=40 / radl=0 / no-intra-refresh / ctu=64 / min-cu-size=8 / no-rect / no-amp / max-tu-size=32 / tu-inter-depth=1 / tu-intra-depth=1 / limit-tu=0 / rdoq-level=0 / dynamic-rd=0.00 / no-ssim-rd / signhide / no-tskip / nr-intra=0 / nr-inter=0 / no-constrained-intra / no-strong-intra-smoothing / max-merge=3 / limit-refs=3 / no-limit-modes / me=3 / subme=5 / merange=57 / temporal-mvp / weightp / no-weightb / no-analyze-src-pics / deblock=0:0 / sao / no-sao-non-deblock / rd=3 / no-early-skip / no-rskip / no-fast-intra / no-tskip-fast / no-cu-lossless / no-b-intra / no-splitrd-skip / rdpenalty=0 / psy-rd=2.00 / psy-rdoq=0.00 / no-rd-refine / no-lossless / cbqpoffs=0 / crqpoffs=0 / rc=crf / crf=20.0 / qcomp=0.60 / qpstep=4 / stats-write=0 / stats-read=0 / ipratio=1.40 / pbratio=1.30 / aq-mode=3 / aq-strength=1.00 / cutree / zone-count=0 / no-strict-cbr / qg-size=32 / no-rc-grain / qpmax=69 / qpmin=0 / no-const-vbv / sar=0 / overscan=0 / videoformat=5 / range=0 / colorprim=2 / transfer=2 / colormatrix=2 / chromaloc=0 / display-window=0 / max-cll=0,0 / min-luma=0 / max-luma=1023 / log2-max-poc-lsb=8 / vui-timing-info / vui-hrd-info / slices=1 / no-opt-qp-pps / no-opt-ref-list-length-pps / no-multi-pass-opt-rps / scenecut-bias=0.05 / no-opt-cu-delta-qp / no-aq-motion / no-hdr / no-hdr-opt / no-dhdr10-opt / no-idr-recovery-sei / analysis-reuse-level=5 / scale-factor=0 / refine-intra=0 / refine-inter=0 / refine-mv=0 / no-limit-sao / ctu-info=0 / no-lowpass-dct / refine-mv-type=0 / copy-pic=1 / max-ausize-factor=1.0 / no-dynamic-refine / no-single-sei 
Default : Yes 
Forced : No 

Audio 
ID : 2 
Format : AAC 
Format/Info : Advanced Audio Codec 
Format profile : LC 
Codec ID : A_AAC 
Duration : 42 min 20 s 
Bit rate : 445 kb/s 
Channel(s) : 6 channels 
Channel positions : Front: L C R, Side: L R, LFE 
Sampling rate : 48.0 kHz 
Frame rate : 46.875 FPS (1024 spf) 
Compression mode : Lossy 
Stream size : 135 MiB (11%) 
Language : English 
Default : Yes 
Forced : No 

Subtitle 
ID : 3 
Format : PGS 
Muxing mode : zlib 
Codec ID : S_HDMV/PGS 
Codec ID/Info : Picture based subtitle format used on BDs/HD-DVDs 
Duration : 42 min 4 s 
Bit rate : 39.0 kb/s 
Count of elements : 1178 
Stream size : 11.7 MiB (1%) 
Language : English 
Default : No 
Forced : No

Screens

Download

Download: Google Drive (13.39 GB)

Season 2

The Last Ship (2013) Season 2 S02 (1080p BluRay x265 HEVC 10bit AAC 5.1 Vyndros)

Files

The.Last.Ship.S02E01.Unreal.City.1080p.10bit.BluRay.AAC5.1.HEVC-Vyndros.mkv (1.2 GB)
The.Last.Ship.S02E02.Fight.the.Ship.1080p.10bit.BluRay.AAC5.1.HEVC-Vyndros.mkv (1.0 GB)
The.Last.Ship.S02E03.It's.Not.a.Rumor.1080p.10bit.BluRay.AAC5.1.HEVC-Vyndros.mkv (1.4 GB)
The.Last.Ship.S02E04.Solace.1080p.10bit.BluRay.AAC5.1.HEVC-Vyndros.mkv (1.3 GB)
The.Last.Ship.S02E05.Achilles.1080p.10bit.BluRay.AAC5.1.HEVC-Vyndros.mkv (1.0 GB)
The.Last.Ship.S02E06.Long.Day's.Journey.1080p.10bit.BluRay.AAC5.1.HEVC-Vyndros.mkv (1.2 GB)
The.Last.Ship.S02E07.Alone.and.Unafraid.1080p.10bit.BluRay.AAC5.1.HEVC-Vyndros.mkv (1.4 GB)
The.Last.Ship.S02E08.Safe.Zone.1080p.10bit.BluRay.AAC5.1.HEVC-Vyndros.mkv (902.2 MB)
The.Last.Ship.S02E09.Uneasy.Lies.the.Head.1080p.10bit.BluRay.AAC5.1.HEVC-Vyndros.mkv (1.1 GB)
The.Last.Ship.S02E10.Friendly.Fire.1080p.10bit.BluRay.AAC5.1.HEVC-Vyndros.mkv (1.0 GB)
The.Last.Ship.S02E11.Valkyrie.1080p.10bit.BluRay.AAC5.1.HEVC-Vyndros.mkv (1.3 GB)
The.Last.Ship.S02E12.Cry.Havoc.1080p.10bit.BluRay.AAC5.1.HEVC-Vyndros.mkv (1.3 GB)
The.Last.Ship.S02E13.A.More.Perfect.Union.1080p.10bit.BluRay.AAC5.1.HEVC-Vyndros.mkv (1.3 GB)

Mediainfo

General 
Format : Matroska 
Format version : Version 4 / Version 2 
File size : 1.01 GiB 
Duration : 42 min 19 s 
Overall bit rate : 3 403 kb/s 
Movie name : The Last Ship S02E10 Friendly Fire 1080p Blu-ray Remux AVC TrueHD 5.1 - KRaLiMaRKo 
Encoded date : UTC 2018-10-28 15:51:02 
Writing application : mkvmerge v20.0.0 ('I Am The Sun') 64-bit 
Writing library : libebml v1.3.5 + libmatroska v1.4.8 
Writing frontend : StaxRip v1.7.0.6 

Video 
ID : 1 
Format : HEVC 
Format/Info : High Efficiency Video Coding 
Format profile : Main [email protected]@Main 
Codec ID : V_MPEGH/ISO/HEVC 
Duration : 42 min 18 s 
Bit rate : 2 940 kb/s 
Width : 1 920 pixels 
Height : 1 080 pixels 
Display aspect ratio : 16:9 
Frame rate mode : Constant 
Frame rate : 23.976 (24000/1001) FPS 
Color space : YUV 
Chroma subsampling : 4:2:0 
Bit depth : 10 bits 
Bits/(Pixel*Frame) : 0.059 
Stream size : 890 MiB (86%) 
Writing library : x265 2.9+1-169e76b6bbcc:[Windows][GCC 8.2.0][64 bit] 10bit 
Encoding settings : cpuid=1111039 / frame-threads=2 / numa-pools=4 / wpp / no-pmode / no-pme / no-psnr / ssim / log-level=2 / input-csp=1 / input-res=1920x1080 / interlace=0 / total-frames=60857 / level-idc=0 / high-tier=1 / uhd-bd=0 / ref=3 / no-allow-non-conformance / no-repeat-headers / annexb / no-aud / no-hrd / info / hash=0 / no-temporal-layers / open-gop / min-keyint=23 / keyint=250 / gop-lookahead=0 / bframes=8 / b-adapt=2 / b-pyramid / bframe-bias=0 / rc-lookahead=50 / lookahead-slices=6 / scenecut=40 / radl=0 / no-intra-refresh / ctu=64 / min-cu-size=8 / no-rect / no-amp / max-tu-size=32 / tu-inter-depth=1 / tu-intra-depth=1 / limit-tu=0 / rdoq-level=0 / dynamic-rd=0.00 / no-ssim-rd / signhide / no-tskip / nr-intra=0 / nr-inter=0 / no-constrained-intra / no-strong-intra-smoothing / max-merge=3 / limit-refs=3 / no-limit-modes / me=3 / subme=5 / merange=57 / temporal-mvp / weightp / no-weightb / no-analyze-src-pics / deblock=0:0 / sao / no-sao-non-deblock / rd=3 / no-early-skip / no-rskip / no-fast-intra / no-tskip-fast / no-cu-lossless / no-b-intra / no-splitrd-skip / rdpenalty=0 / psy-rd=2.00 / psy-rdoq=0.00 / no-rd-refine / no-lossless / cbqpoffs=0 / crqpoffs=0 / rc=crf / crf=20.0 / qcomp=0.60 / qpstep=4 / stats-write=0 / stats-read=0 / ipratio=1.40 / pbratio=1.30 / aq-mode=3 / aq-strength=1.00 / cutree / zone-count=0 / no-strict-cbr / qg-size=32 / no-rc-grain / qpmax=69 / qpmin=0 / no-const-vbv / sar=0 / overscan=0 / videoformat=5 / range=0 / colorprim=2 / transfer=2 / colormatrix=2 / chromaloc=0 / display-window=0 / max-cll=0,0 / min-luma=0 / max-luma=1023 / log2-max-poc-lsb=8 / vui-timing-info / vui-hrd-info / slices=1 / no-opt-qp-pps / no-opt-ref-list-length-pps / no-multi-pass-opt-rps / scenecut-bias=0.05 / no-opt-cu-delta-qp / no-aq-motion / no-hdr / no-hdr-opt / no-dhdr10-opt / no-idr-recovery-sei / analysis-reuse-level=5 / scale-factor=0 / refine-intra=0 / refine-inter=0 / refine-mv=0 / no-limit-sao / ctu-info=0 / no-lowpass-dct / refine-mv-type=0 / copy-pic=1 / max-ausize-factor=1.0 / no-dynamic-refine / no-single-sei 
Default : Yes 
Forced : No 

Audio 
ID : 2 
Format : AAC 
Format/Info : Advanced Audio Codec 
Format profile : LC 
Codec ID : A_AAC 
Duration : 42 min 19 s 
Bit rate : 446 kb/s 
Channel(s) : 6 channels 
Channel positions : Front: L C R, Side: L R, LFE 
Sampling rate : 48.0 kHz 
Frame rate : 46.875 FPS (1024 spf) 
Compression mode : Lossy 
Stream size : 135 MiB (13%) 
Language : English 
Default : Yes 
Forced : No 

Subtitle 
ID : 3 
Format : PGS 
Muxing mode : zlib 
Codec ID : S_HDMV/PGS 
Codec ID/Info : Picture based subtitle format used on BDs/HD-DVDs 
Duration : 42 min 13 s 
Bit rate : 50.7 kb/s 
Count of elements : 1408 
Stream size : 15.3 MiB (1%) 
Language : English 
Default : No 
Forced : No

Screens

Download

Download: Google Drive (15.36 GB)

Season 3

The Last Ship (2014) Season 3 S03 (1080p BluRay x265 HEVC 10bit AAC 5.1 Vyndros)

Files

The Last Ship (2014) - S03E01 - The Scott Effect (1080p BluRay x265 Vyndros).mkv (879.9 MB)
The Last Ship (2014) - S03E02 - Rising Sun (1080p BluRay x265 Vyndros).mkv (823.6 MB)
The Last Ship (2014) - S03E03 - Shanzhai (1080p BluRay x265 Vyndros).mkv (1,018.0 MB)
The Last Ship (2014) - S03E04 - Devil May Care (1080p BluRay x265 Vyndros).mkv (679.6 MB)
The Last Ship (2014) - S03E05 - Minefield (1080p BluRay x265 Vyndros).mkv (870.5 MB)
The Last Ship (2014) - S03E06 - Dog Day (1080p BluRay x265 Vyndros).mkv (1.1 GB)
The Last Ship (2014) - S03E07 - In the Dark (1080p BluRay x265 Vyndros).mkv (634.1 MB)
The Last Ship (2014) - S03E08 - Sea Change (1080p BluRay x265 Vyndros).mkv (737.7 MB)
The Last Ship (2014) - S03E09 - Paradise (1080p BluRay x265 Vyndros).mkv (873.3 MB)
The Last Ship (2014) - S03E10 - Scuttle (1080p BluRay x265 Vyndros).mkv (823.4 MB)
The Last Ship (2014) - S03E11 - Legacy (1080p BluRay x265 Vyndros).mkv (742.2 MB)
The Last Ship (2014) - S03E12 - Resistance (1080p BluRay x265 Vyndros).mkv (784.7 MB)
The Last Ship (2014) - S03E13 - Don't Look Back (1080p BluRay x265 Vyndros).mkv (807.3 MB)

Mediainfo

General 
Format : Matroska 
Format version : Version 4 / Version 2 
File size : 880 MiB 
Duration : 41 min 58 s 
Overall bit rate : 2 930 kb/s 
Encoded date : UTC 2018-01-15 20:42:32 
Writing application : mkvmerge v15.0.0 ('Duel with the Devil') 64-bit 
Writing library : libebml v1.3.5 + libmatroska v1.4.5 
Writing frontend : StaxRip v1.7.0.0 

Video 
ID : 1 
Format : HEVC 
Format/Info : High Efficiency Video Coding 
Format profile : Main [email protected]@Main 
Codec ID : V_MPEGH/ISO/HEVC 
Duration : 41 min 57 s 
Bit rate : 2 467 kb/s 
Width : 1 920 pixels 
Height : 1 080 pixels 
Display aspect ratio : 16:9 
Frame rate mode : Constant 
Frame rate : 23.976 (24000/1001) FPS 
Color space : YUV 
Chroma subsampling : 4:2:0 
Bit depth : 10 bits 
Bits/(Pixel*Frame) : 0.050 
Stream size : 741 MiB (84%) 
Writing library : x265 2.6+24-69cfe46e8a3b:[Windows][GCC 7.2.0][64 bit] 10bit 
Encoding settings : cpuid=1173503 / frame-threads=2 / numa-pools=4 / wpp / no-pmode / no-pme / no-psnr / ssim / log-level=2 / input-csp=1 / input-res=1920x1080 / interlace=0 / total-frames=60367 / level-idc=0 / high-tier=1 / uhd-bd=0 / ref=3 / no-allow-non-conformance / no-repeat-headers / annexb / no-aud / no-hrd / info / hash=0 / no-temporal-layers / open-gop / min-keyint=23 / keyint=250 / gop-lookahead=0 / bframes=8 / b-adapt=2 / b-pyramid / bframe-bias=0 / rc-lookahead=50 / lookahead-slices=6 / scenecut=40 / radl=0 / no-intra-refresh / ctu=64 / min-cu-size=8 / no-rect / no-amp / max-tu-size=32 / tu-inter-depth=1 / tu-intra-depth=1 / limit-tu=0 / rdoq-level=0 / dynamic-rd=0.00 / no-ssim-rd / signhide / no-tskip / nr-intra=0 / nr-inter=0 / no-constrained-intra / no-strong-intra-smoothing / max-merge=3 / limit-refs=3 / no-limit-modes / me=3 / subme=3 / merange=57 / temporal-mvp / weightp / no-weightb / no-analyze-src-pics / deblock=0:0 / sao / no-sao-non-deblock / rd=3 / no-early-skip / no-rskip / no-fast-intra / no-tskip-fast / no-cu-lossless / no-b-intra / no-splitrd-skip / rdpenalty=0 / psy-rd=1.50 / psy-rdoq=0.00 / no-rd-refine / no-lossless / cbqpoffs=0 / crqpoffs=0 / rc=crf / crf=21.0 / qcomp=0.60 / qpstep=4 / stats-write=0 / stats-read=0 / ipratio=1.40 / pbratio=1.30 / aq-mode=3 / aq-strength=0.80 / cutree / zone-count=0 / no-strict-cbr / qg-size=32 / no-rc-grain / qpmax=69 / qpmin=0 / no-const-vbv / sar=0 / overscan=0 / videoformat=5 / range=0 / colorprim=2 / transfer=2 / colormatrix=2 / chromaloc=0 / display-window=0 / max-cll=0,0 / min-luma=0 / max-luma=1023 / log2-max-poc-lsb=8 / vui-timing-info / vui-hrd-info / slices=1 / no-opt-qp-pps / no-opt-ref-list-length-pps / no-multi-pass-opt-rps / scenecut-bias=0.05 / no-opt-cu-delta-qp / no-aq-motion / no-hdr / no-hdr-opt / no-dhdr10-opt / analysis-save=(null) / analysis-load=(null) / analysis-reuse-level=5 / scale-factor=0 / refine-intra=0 / refine-inter=0 / refine-mv=0 / no-limit-sao / ctu-info=0 / no-lowpass-dct / refine-mv-type=0 / copy-pic=1 
Default : Yes 
Forced : No 

Audio 
ID : 2 
Format : AAC 
Format/Info : Advanced Audio Codec 
Format profile : LC 
Codec ID : A_AAC 
Duration : 41 min 58 s 
Bit rate : 446 kb/s 
Channel(s) : 6 channels 
Channel positions : Front: L C R, Side: L R, LFE 
Sampling rate : 48.0 kHz 
Frame rate : 46.875 FPS (1024 spf) 
Compression mode : Lossy 
Stream size : 134 MiB (15%) 
Language : English 
Default : Yes 
Forced : No 

Subtitle 
ID : 3 
Format : PGS 
Muxing mode : zlib 
Codec ID : S_HDMV/PGS 
Codec ID/Info : Picture based subtitle format used on BDs/HD-DVDs 
Duration : 41 min 52 s 
Bit rate : 46.6 kb/s 
Count of elements : 1330 
Stream size : 13.9 MiB (2%) 
Language : English 
Default : No 
Forced : No 

Menu 
00:00:00.000 : en:Chapter 1 
00:02:16.178 : en:Chapter 2 
00:09:22.520 : en:Chapter 3 
00:14:31.537 : en:Chapter 4 
00:23:42.421 : en:Chapter 5 
00:28:27.497 : en:Chapter 6 
00:33:46.691 : en:Chapter 7 
00:41:20.853 : en:Chapter 8

Screens

Download

Download: Google Drive (10.54 GB)

Season 4

The Last Ship (2013) Season 4 S04 (1080p BluRay x265 HEVC 10bit AAC 5.1 Vyndros)

Files

The.Last.Ship.S04E01.In.Medias.Res.1080p.10bit.BluRay.AAC5.1.HEVC-Vyndros.mkv (1.2 GB)
The.Last.Ship.S04E02.The.Pillars.of.Hercules.1080p.10bit.BluRay.AAC5.1.HEVC-Vyndros.mkv (1.1 GB)
The.Last.Ship.S04E03.Bread.&.Circuses.1080p.10bit.BluRay.AAC5.1.HEVC-Vyndros.mkv (1.1 GB)
The.Last.Ship.S04E04.Nostos.1080p.10bit.BluRay.AAC5.1.HEVC-Vyndros.mkv (1.3 GB)
The.Last.Ship.S04E05.Allegiance.1080p.10bit.BluRay.AAC5.1.HEVC-Vyndros.mkv (853.4 MB)
The.Last.Ship.S04E06.Tempest.1080p.10bit.BluRay.AAC5.1.HEVC-Vyndros.mkv (1,014.7 MB)
The.Last.Ship.S04E07.Feast.1080p.10bit.BluRay.AAC5.1.HEVC-Vyndros.mkv (955.7 MB)
The.Last.Ship.S04E08.Lazaretto.1080p.10bit.BluRay.AAC5.1.HEVC-Vyndros.mkv (990.6 MB)
The.Last.Ship.S04E09.Detect,.Deceive,.Destroy.1080p.10bit.BluRay.AAC5.1.HEVC-Vyndros.mkv (1.1 GB)
The.Last.Ship.S04E10.Endgame.1080p.10bit.BluRay.AAC5.1.HEVC-Vyndros.mkv (958.2 MB)

Mediainfo

General 
Format : Matroska 
Format version : Version 4 / Version 2 
File size : 1.10 GiB 
Duration : 42 min 18 s 
Overall bit rate : 3 709 kb/s 
Encoded date : UTC 2018-11-01 07:17:58 
Writing application : mkvmerge v20.0.0 ('I Am The Sun') 64-bit 
Writing library : libebml v1.3.5 + libmatroska v1.4.8 
Writing frontend : StaxRip v1.7.0.6 

Video 
ID : 1 
Format : HEVC 
Format/Info : High Efficiency Video Coding 
Format profile : Main [email protected]@Main 
Codec ID : V_MPEGH/ISO/HEVC 
Duration : 42 min 18 s 
Bit rate : 3 243 kb/s 
Width : 1 920 pixels 
Height : 1 080 pixels 
Display aspect ratio : 16:9 
Frame rate mode : Constant 
Frame rate : 23.976 (24000/1001) FPS 
Color space : YUV 
Chroma subsampling : 4:2:0 
Bit depth : 10 bits 
Bits/(Pixel*Frame) : 0.065 
Stream size : 981 MiB (87%) 
Writing library : x265 2.9+1-169e76b6bbcc:[Windows][GCC 8.2.0][64 bit] 10bit 
Encoding settings : cpuid=1111039 / frame-threads=2 / numa-pools=4 / wpp / no-pmode / no-pme / no-psnr / ssim / log-level=2 / input-csp=1 / input-res=1920x1080 / interlace=0 / total-frames=60865 / level-idc=0 / high-tier=1 / uhd-bd=0 / ref=3 / no-allow-non-conformance / no-repeat-headers / annexb / no-aud / no-hrd / info / hash=0 / no-temporal-layers / open-gop / min-keyint=23 / keyint=250 / gop-lookahead=0 / bframes=8 / b-adapt=2 / b-pyramid / bframe-bias=0 / rc-lookahead=50 / lookahead-slices=6 / scenecut=40 / radl=0 / no-intra-refresh / ctu=64 / min-cu-size=8 / no-rect / no-amp / max-tu-size=32 / tu-inter-depth=1 / tu-intra-depth=1 / limit-tu=0 / rdoq-level=0 / dynamic-rd=0.00 / no-ssim-rd / signhide / no-tskip / nr-intra=0 / nr-inter=0 / no-constrained-intra / no-strong-intra-smoothing / max-merge=3 / limit-refs=3 / no-limit-modes / me=3 / subme=5 / merange=57 / temporal-mvp / weightp / no-weightb / no-analyze-src-pics / deblock=0:0 / sao / no-sao-non-deblock / rd=3 / no-early-skip / no-rskip / no-fast-intra / no-tskip-fast / no-cu-lossless / no-b-intra / no-splitrd-skip / rdpenalty=0 / psy-rd=2.00 / psy-rdoq=0.00 / no-rd-refine / no-lossless / cbqpoffs=0 / crqpoffs=0 / rc=crf / crf=20.0 / qcomp=0.60 / qpstep=4 / stats-write=0 / stats-read=0 / ipratio=1.40 / pbratio=1.30 / aq-mode=3 / aq-strength=1.00 / cutree / zone-count=0 / no-strict-cbr / qg-size=32 / no-rc-grain / qpmax=69 / qpmin=0 / no-const-vbv / sar=0 / overscan=0 / videoformat=5 / range=0 / colorprim=2 / transfer=2 / colormatrix=2 / chromaloc=0 / display-window=0 / max-cll=0,0 / min-luma=0 / max-luma=1023 / log2-max-poc-lsb=8 / vui-timing-info / vui-hrd-info / slices=1 / no-opt-qp-pps / no-opt-ref-list-length-pps / no-multi-pass-opt-rps / scenecut-bias=0.05 / no-opt-cu-delta-qp / no-aq-motion / no-hdr / no-hdr-opt / no-dhdr10-opt / no-idr-recovery-sei / analysis-reuse-level=5 / scale-factor=0 / refine-intra=0 / refine-inter=0 / refine-mv=0 / no-limit-sao / ctu-info=0 / no-lowpass-dct / refine-mv-type=0 / copy-pic=1 / max-ausize-factor=1.0 / no-dynamic-refine / no-single-sei 
Default : Yes 
Forced : No 

Audio 
ID : 2 
Format : AAC 
Format/Info : Advanced Audio Codec 
Format profile : LC 
Codec ID : A_AAC 
Duration : 42 min 18 s 
Bit rate : 446 kb/s 
Channel(s) : 6 channels 
Channel positions : Front: L C R, Side: L R, LFE 
Sampling rate : 48.0 kHz 
Frame rate : 46.875 FPS (1024 spf) 
Compression mode : Lossy 
Stream size : 135 MiB (12%) 
Language : English 
Default : Yes 
Forced : No 

Subtitle 
ID : 3 
Format : PGS 
Muxing mode : zlib 
Codec ID : S_HDMV/PGS 
Codec ID/Info : Picture based subtitle format used on BDs/HD-DVDs 
Duration : 41 min 32 s 
Bit rate : 44.5 kb/s 
Count of elements : 1190 
Stream size : 13.2 MiB (1%) 
Language : English 
Default : No 
Forced : No

Screens

Download

Download: Google Drive (10.52 GB)

Season 5

The Last Ship (2013) Season 5 S05 (1080p AMZN WEB-DL x265 HEVC 10bit AAC 5.1 Vyndros)

Files

The.Last.Ship.S05E01.Casus.Belli.1080p.10bit.AMZN.WEB-DL.AAC5.1.HEVC-Vyndros.mkv (1.2 GB)
The.Last.Ship.S05E02.Fog.of.War.1080p.10bit.AMZN.WEB-DL.AAC5.1.HEVC-Vyndros.mkv (1.4 GB)
The.Last.Ship.S05E03.El.Puente.1080p.10bit.AMZN.WEB-DL.AAC5.1.HEVC-Vyndros.mkv (1.3 GB)
The.Last.Ship.S05E04.Tropic.of.Cancer.1080p.10bit.AMZN.WEB-DL.AAC5.1.HEVC-Vyndros.mkv (1.1 GB)
The.Last.Ship.S05E05.Warriors.1080p.10bit.AMZN.WEB-DL.AAC5.1.HEVC-Vyndros.mkv (955.5 MB)
The.Last.Ship.S05E06.Air.Drop.1080p.10bit.AMZN.WEB-DL.AAC5.1.HEVC-Vyndros.mkv (1.0 GB)
The.Last.Ship.S05E07.Somos.la.Sangre.1080p.10bit.AMZN.WEB-DL.AAC5.1.HEVC-Vyndros.mkv (1.3 GB)
The.Last.Ship.S05E08.Honor.1080p.10bit.AMZN.WEB-DL.AAC5.1.HEVC-Vyndros.mkv (987.5 MB)
The.Last.Ship.S05E09.Courage.1080p.10bit.AMZN.WEB-DL.AAC5.1.HEVC-Vyndros.mkv (838.0 MB)
The.Last.Ship.S05E10.Commitment.1080p.10bit.AMZN.WEB-DL.AAC5.1.HEVC-Vyndros.mkv (1.4 GB)

Mediainfo

General 
Format : Matroska 
Format version : Version 4 / Version 2 
File size : 1.42 GiB 
Duration : 43 min 45 s 
Overall bit rate : 4 653 kb/s 
Encoded date : UTC 2018-11-13 03:41:01 
Writing application : mkvmerge v20.0.0 ('I Am The Sun') 64-bit 
Writing library : libebml v1.3.5 + libmatroska v1.4.8 
Writing frontend : StaxRip v1.7.0.6 

Video 
ID : 1 
Format : HEVC 
Format/Info : High Efficiency Video Coding 
Format profile : Main [email protected]@Main 
Codec ID : V_MPEGH/ISO/HEVC 
Duration : 43 min 45 s 
Bit rate : 4 203 kb/s 
Width : 1 920 pixels 
Height : 1 080 pixels 
Display aspect ratio : 16:9 
Frame rate mode : Constant 
Frame rate : 23.976 (24000/1001) FPS 
Color space : YUV 
Chroma subsampling : 4:2:0 
Bit depth : 10 bits 
Bits/(Pixel*Frame) : 0.085 
Stream size : 1.28 GiB (90%) 
Writing library : x265 2.9+4-471726d3a046:[Windows][GCC 8.2.0][64 bit] 10bit 
Encoding settings : cpuid=1111039 / frame-threads=3 / numa-pools=12 / wpp / no-pmode / no-pme / no-psnr / ssim / log-level=2 / input-csp=1 / input-res=1920x1080 / interlace=0 / total-frames=62938 / level-idc=0 / high-tier=1 / uhd-bd=0 / ref=3 / no-allow-non-conformance / no-repeat-headers / annexb / no-aud / no-hrd / info / hash=0 / no-temporal-layers / open-gop / min-keyint=23 / keyint=250 / gop-lookahead=0 / bframes=8 / b-adapt=2 / b-pyramid / bframe-bias=0 / rc-lookahead=50 / lookahead-slices=6 / scenecut=40 / radl=0 / no-intra-refresh / ctu=64 / min-cu-size=8 / no-rect / no-amp / max-tu-size=32 / tu-inter-depth=1 / tu-intra-depth=1 / limit-tu=0 / rdoq-level=0 / dynamic-rd=0.00 / no-ssim-rd / signhide / no-tskip / nr-intra=0 / nr-inter=0 / no-constrained-intra / no-strong-intra-smoothing / max-merge=3 / limit-refs=3 / no-limit-modes / me=3 / subme=3 / merange=57 / temporal-mvp / weightp / no-weightb / no-analyze-src-pics / deblock=0:0 / sao / no-sao-non-deblock / rd=3 / no-early-skip / no-rskip / no-fast-intra / no-tskip-fast / no-cu-lossless / no-b-intra / no-splitrd-skip / rdpenalty=0 / psy-rd=1.50 / psy-rdoq=0.00 / no-rd-refine / no-lossless / cbqpoffs=0 / crqpoffs=0 / rc=crf / crf=20.0 / qcomp=0.60 / qpstep=4 / stats-write=0 / stats-read=0 / ipratio=1.40 / pbratio=1.30 / aq-mode=3 / aq-strength=0.80 / cutree / zone-count=0 / no-strict-cbr / qg-size=32 / no-rc-grain / qpmax=69 / qpmin=0 / no-const-vbv / sar=0 / overscan=0 / videoformat=5 / range=0 / colorprim=2 / transfer=2 / colormatrix=2 / chromaloc=0 / display-window=0 / max-cll=0,0 / min-luma=0 / max-luma=1023 / log2-max-poc-lsb=8 / vui-timing-info / vui-hrd-info / slices=1 / no-opt-qp-pps / no-opt-ref-list-length-pps / no-multi-pass-opt-rps / scenecut-bias=0.05 / no-opt-cu-delta-qp / no-aq-motion / no-hdr / no-hdr-opt / no-dhdr10-opt / no-idr-recovery-sei / analysis-reuse-level=5 / scale-factor=0 / refine-intra=0 / refine-inter=0 / refine-mv=0 / no-limit-sao / ctu-info=0 / no-lowpass-dct / refine-mv-type=0 / copy-pic=1 / max-ausize-factor=1.0 / no-dynamic-refine / no-single-sei 
Default : Yes 
Forced : No 

Audio 
ID : 2 
Format : AAC 
Format/Info : Advanced Audio Codec 
Format profile : LC 
Codec ID : A_AAC 
Duration : 43 min 45 s 
Bit rate : 447 kb/s 
Channel(s) : 6 channels 
Channel positions : Front: L C R, Side: L R, LFE 
Sampling rate : 48.0 kHz 
Frame rate : 46.875 FPS (1024 spf) 
Compression mode : Lossy 
Stream size : 140 MiB (10%) 
Language : English 
Default : Yes 
Forced : Yes 

Subtitle 
ID : 3 
Format : UTF-8 
Codec ID : S_TEXT/UTF8 
Codec ID/Info : UTF-8 Plain Text 
Duration : 43 min 35 s 
Bit rate : 42 b/s 
Count of elements : 698 
Stream size : 13.7 KiB (0%) 
Language : English 
Default : No 
Forced : No

Screens

Download

Download: Google Drive (11.38 GB)

Leave a Reply

Your email address will not be published. Required fields are marked *