Stranger Things (2016) Season 1-2 (1080p/2160p BluRay x265 HEVC 10bit AAC 5.1 Joy)

Summary: In a small town where everyone knows everyone, a peculiar incident starts a chain of events that leads to the disappearance of a child – which begins to tear at the fabric of an otherwise peaceful community. Dark government agencies and seemingly malevolent supernatural forces converge on the town while a few locals begin to understand that there’s more going on than meets the eye.

Season 1 (1080p)

Stranger Things (2016) Season 01 S01 (1080p BluRay x265 HEVC 10bit AAC 5.1 Joy) [UTR]

Files

Stranger Things Season 1 (1080p BD x265 10bit S90 Joy)
Stranger Things S01E01 Chapter One The Vanishing Of Will Byers (1080p x265 10bit S87 Joy).mkv (485.4 MB)
Stranger Things S01E02 Chapter Two The Weirdo On Maple Street (1080p x265 10bit S92 Joy).mkv (549.9 MB)
Stranger Things S01E03 Chapter Three Holly Jolly (1080p x265 10bit S92 Joy).mkv (516.1 MB)
Stranger Things S01E04 Chapter Four The Body (1080p x265 10bit S90 Joy).mkv (502.4 MB)
Stranger Things S01E05 Chapter Five The Flea And The Acrobat (1080p x265 10bit S91 Joy).mkv (529.4 MB)
Stranger Things S01E06 Chapter Six The Monster (1080p x265 10bit S86 Joy).mkv (465.5 MB)
Stranger Things S01E07 Chapter Seven The Bathtub (1080p x265 10bit S91 Joy).mkv (418.2 MB)
Stranger Things S01E08 Chapter Eight The Upside Down (1080p x265 10bit S93 Joy).mkv (542.0 MB)

Mediainfo

General 
Format : Matroska 
Format version : Version 4 / Version 2 
File size : 485 MiB 
Duration : 47 min 32 s 
Overall bit rate : 1 427 kb/s 
Movie name : Stranger Things S01E01 Chapter One The Vanishing Of Will Byers (1080p x265 10bit Joy) 
Encoded date : UTC 2018-12-09 03:50:04 
Writing application : mkvmerge v28.2.0 ('The Awakening') 64-bit 
Writing library : libebml v1.3.6 + libmatroska v1.4.9 
Writing frontend : StaxRip v2.0, Encoded by JoyBell 

Video 
ID : 1 
Format : HEVC 
Format/Info : High Efficiency Video Coding 
Format profile : Main [email protected]@Main 
Codec ID : V_MPEGH/ISO/HEVC 
Duration : 47 min 32 s 
Bit rate : 1 199 kb/s 
Width : 1 920 pixels 
Height : 960 pixels 
Display aspect ratio : 2.000 
Frame rate mode : Constant 
Frame rate : 23.976 (24000/1001) FPS 
Color space : YUV 
Chroma subsampling : 4:2:0 
Bit depth : 10 bits 
Bits/(Pixel*Frame) : 0.027 
Stream size : 408 MiB (84%) 
Writing library : x265 2.9+8-27d8424c799d:[Windows][GCC 8.2.0][64 bit] 10bit 
Encoding settings : cpuid=1111039 / frame-threads=3 / numa-pools=12 / wpp / no-pmode / no-pme / no-psnr / ssim / log-level=2 / input-csp=1 / input-res=1920x960 / interlace=0 / total-frames=68400 / level-idc=0 / high-tier=1 / uhd-bd=0 / ref=4 / no-allow-non-conformance / no-repeat-headers / annexb / no-aud / no-hrd / info / hash=0 / no-temporal-layers / open-gop / min-keyint=23 / keyint=250 / gop-lookahead=0 / bframes=4 / b-adapt=2 / b-pyramid / bframe-bias=0 / rc-lookahead=80 / lookahead-slices=4 / scenecut=40 / radl=0 / no-intra-refresh / ctu=64 / min-cu-size=8 / rect / no-amp / max-tu-size=32 / tu-inter-depth=1 / tu-intra-depth=1 / limit-tu=0 / rdoq-level=2 / dynamic-rd=0.00 / ssim-rd / signhide / no-tskip / nr-intra=0 / nr-inter=0 / no-constrained-intra / strong-intra-smoothing / max-merge=3 / limit-refs=3 / limit-modes / me=3 / subme=3 / merange=57 / temporal-mvp / weightp / no-weightb / no-analyze-src-pics / deblock=0:0 / sao / no-sao-non-deblock / rd=6 / no-early-skip / rskip / no-fast-intra / no-tskip-fast / no-cu-lossless / no-b-intra / no-splitrd-skip / rdpenalty=0 / psy-rd=0.00 / psy-rdoq=1.00 / no-rd-refine / no-lossless / cbqpoffs=0 / crqpoffs=0 / rc=abr / bitrate=1200 / qcomp=0.60 / qpstep=4 / stats-write=0 / stats-read=2 / cplxblur=20.0 / qblur=0.5 / vbv-maxrate=3200 / vbv-bufsize=7400 / vbv-init=0.9 / ipratio=1.40 / pbratio=1.30 / aq-mode=2 / aq-strength=0.80 / cutree / zone-count=0 / no-strict-cbr / qg-size=32 / no-rc-grain / qpmax=69 / qpmin=0 / no-const-vbv / sar=0 / overscan=0 / videoformat=5 / range=0 / colorprim=2 / transfer=2 / colormatrix=2 / chromaloc=0 / display-window=0 / max-cll=0,0 / min-luma=0 / max-luma=1023 / log2-max-poc-lsb=8 / vui-timing-info / vui-hrd-info / slices=1 / no-opt-qp-pps / no-opt-ref-list-length-pps / multi-pass-opt-rps / scenecut-bias=0.05 / no-opt-cu-delta-qp / no-aq-motion / no-hdr / no-hdr-opt / no-dhdr10-opt / no-idr-recovery-sei / analysis-reuse-level=10 / scale-factor=0 / refine-intra=0 / refine-inter=0 / refine-mv=0 / limit-sao / ctu-info=0 / no-lowpass-dct / refine-mv-type=0 / copy-pic=1 / max-ausize-factor=1.0 / no-dynamic-refine / no-single-sei 
Default : Yes 
Forced : No 

Audio 
ID : 2 
Format : AAC 
Format/Info : Advanced Audio Codec 
Format profile : HE-AACv2 / HE-AAC / LC 
Codec ID : A_AAC 
Duration : 47 min 32 s 
Bit rate : 213 kb/s 
Channel(s) : 6 channels 
Channel(s)_Original : 2 channels / 7 channels / 7 channels 
Channel positions : Front: L R / , Side: L R, Back: 4, LFE / , Side: L R, Back: 4, LFE 
Sampling rate : 48.0 kHz / 48.0 kHz / 24.0 kHz 
Frame rate : 23.438 FPS (1024 spf) 
Compression mode : Lossy 
Delay relative to video : 31 ms 
Stream size : 72.3 MiB (15%) 
Language : English 
Default : No 
Forced : No 

Subtitle 
ID : 3 
Format : PGS 
Muxing mode : zlib 
Codec ID : S_HDMV/PGS 
Codec ID/Info : Picture based subtitle format used on BDs/HD-DVDs 
Duration : 46 min 12 s 
Bit rate : 46.5 kb/s 
Count of elements : 1538 
Stream size : 15.4 MiB (3%) 
Language : English 
Default : No 
Forced : No 

Menu 
00:00:00.000 : en:Chapter 01 
00:10:01.392 : en:Chapter 02 
00:20:02.201 : en:Chapter 03 
00:30:03.218 : en:Chapter 04 
00:40:03.401 : en:Chapter 05

Screens

Download

Download: Google Drive (3.91 GB)

Season 1 (2160p)

Stranger Things 2016 Season 01 S01 (2160p BluRay x265 HEVC 10bit SDR AAC 5.1 Joy) [UTR]

Files

Stranger Things Season 1 (2160p BD x265 10bit FS92 Joy)
Stranger Things S01E01 Chapter One The Vanishing Of Will Byers (2160p x265 10bit FS90 Joy).mkv (1.4 GB)
Stranger Things S01E02 Chapter Two The Weirdo On Maple Street (2160p x265 10bit FS95 Joy).mkv (1.6 GB)
Stranger Things S01E03 Chapter Three Holly Jolly (2160p x265 10bit FS94 Joy).mkv (1.5 GB)
Stranger Things S01E04 Chapter Four The Body (2160p x265 10bit FS91 Joy).mkv (1.5 GB)
Stranger Things S01E05 Chapter Five The Flea And The Acrobat (2160p x265 10bit FS94 Joy).mkv (1.6 GB)
Stranger Things S01E06 Chapter Six The Monster (2160p x265 10bit FS93 Joy).mkv (1.4 GB)
Stranger Things S01E07 Chapter Seven The Bathtub (2160p x265 10bit FS91 Joy).mkv (1.2 GB)
Stranger Things S01E08 Chapter Eight The Upside Down (2160p x265 10bit FS94 Joy).mkv (1.6 GB)

Mediainfo

General 
Format : Matroska 
Format version : Version 4 / Version 2 
File size : 1.44 GiB 
Duration : 47 min 32 s 
Overall bit rate : 4 333 kb/s 
Movie name : Stranger Things S01E01 Chapter One The Vanishing Of Will Byers (2160p x265 10bit Joy) 
Encoded date : UTC 2018-12-05 14:59:57 
Writing application : mkvmerge v28.2.0 ('The Awakening') 64-bit 
Writing library : libebml v1.3.6 + libmatroska v1.4.9 
Writing frontend : StaxRip v2.0, Encoded by JoyBell 

Video 
ID : 1 
Format : HEVC 
Format/Info : High Efficiency Video Coding 
Format profile : Main [email protected]@Main 
Codec ID : V_MPEGH/ISO/HEVC 
Duration : 47 min 32 s 
Bit rate : 3 998 kb/s 
Width : 3 840 pixels 
Height : 1 920 pixels 
Display aspect ratio : 2.000 
Frame rate mode : Constant 
Frame rate : 23.976 (24000/1001) FPS 
Color space : YUV 
Chroma subsampling : 4:2:0 
Bit depth : 10 bits 
Bits/(Pixel*Frame) : 0.023 
Stream size : 1.33 GiB (92%) 
Writing library : x265 2.9+8-27d8424c799d:[Windows][GCC 8.2.0][64 bit] 10bit 
Encoding settings : cpuid=1111039 / frame-threads=3 / numa-pools=12 / wpp / no-pmode / no-pme / no-psnr / ssim / log-level=2 / input-csp=1 / input-res=3840x1920 / interlace=0 / total-frames=68400 / level-idc=0 / high-tier=1 / uhd-bd=0 / ref=3 / no-allow-non-conformance / no-repeat-headers / annexb / no-aud / no-hrd / info / hash=0 / no-temporal-layers / open-gop / min-keyint=23 / keyint=250 / gop-lookahead=0 / bframes=8 / b-adapt=2 / b-pyramid / bframe-bias=0 / rc-lookahead=20 / lookahead-slices=8 / scenecut=40 / radl=0 / no-intra-refresh / ctu=64 / min-cu-size=8 / no-rect / no-amp / max-tu-size=32 / tu-inter-depth=1 / tu-intra-depth=1 / limit-tu=0 / rdoq-level=1 / dynamic-rd=4.00 / ssim-rd / signhide / no-tskip / nr-intra=0 / nr-inter=0 / no-constrained-intra / strong-intra-smoothing / max-merge=2 / limit-refs=3 / no-limit-modes / me=1 / subme=2 / merange=57 / temporal-mvp / weightp / weightb / analyze-src-pics / deblock=0:0 / sao / sao-non-deblock / rd=3 / no-early-skip / rskip / no-fast-intra / no-tskip-fast / no-cu-lossless / b-intra / no-splitrd-skip / rdpenalty=0 / psy-rd=0.00 / psy-rdoq=0.00 / no-rd-refine / no-lossless / cbqpoffs=0 / crqpoffs=0 / rc=abr / bitrate=4000 / qcomp=0.60 / qpstep=4 / stats-write=0 / stats-read=2 / cplxblur=20.0 / qblur=0.5 / vbv-maxrate=12000 / vbv-bufsize=24000 / vbv-init=0.9 / ipratio=1.40 / pbratio=1.30 / aq-mode=3 / aq-strength=1.00 / cutree / zone-count=0 / no-strict-cbr / qg-size=32 / no-rc-grain / qpmax=69 / qpmin=0 / no-const-vbv / sar=0 / overscan=0 / videoformat=5 / range=0 / colorprim=2 / transfer=2 / colormatrix=2 / chromaloc=0 / display-window=0 / max-cll=0,0 / min-luma=0 / max-luma=1023 / log2-max-poc-lsb=8 / vui-timing-info / vui-hrd-info / slices=1 / no-opt-qp-pps / no-opt-ref-list-length-pps / multi-pass-opt-rps / scenecut-bias=0.05 / no-opt-cu-delta-qp / no-aq-motion / no-hdr / no-hdr-opt / no-dhdr10-opt / no-idr-recovery-sei / analysis-reuse-level=10 / scale-factor=0 / refine-intra=0 / refine-inter=0 / refine-mv=0 / limit-sao / ctu-info=0 / no-lowpass-dct / refine-mv-type=0 / copy-pic=1 / max-ausize-factor=1.0 / no-dynamic-refine / no-single-sei 
Default : Yes 
Forced : No 

Audio 
ID : 2 
Format : AAC 
Format/Info : Advanced Audio Codec 
Format profile : LC 
Codec ID : A_AAC 
Duration : 47 min 32 s 
Bit rate : 319 kb/s 
Channel(s) : 6 channels 
Channel positions : Front: L C R, Side: L R, LFE 
Sampling rate : 48.0 kHz 
Frame rate : 46.875 FPS (1024 spf) 
Compression mode : Lossy 
Delay relative to video : 9 ms 
Stream size : 108 MiB (7%) 
Language : English 
Default : No 
Forced : No 

Subtitle 
ID : 3 
Format : PGS 
Muxing mode : zlib 
Codec ID : S_HDMV/PGS 
Codec ID/Info : Picture based subtitle format used on BDs/HD-DVDs 
Duration : 46 min 12 s 
Bit rate : 46.5 kb/s 
Count of elements : 1538 
Stream size : 15.4 MiB (1%) 
Language : English 
Default : No 
Forced : No 

Menu 
00:00:00.000 : en:Chapter 01 
00:10:01.392 : en:Chapter 02 
00:20:02.201 : en:Chapter 03 
00:30:03.218 : en:Chapter 04 
00:40:03.401 : en:Chapter 05

Screens

Download

Download: Google Drive (11.91 GB)

Season 2 (1080p)

Stranger Things (2016) Season 02 S02 (1080p BluRay x265 HEVC 10bit AAC 5.1 Joy) [UTR]

Files

Stranger Things Season 2 (1080p BD x265 10bit S89 Joy)
Stranger Things S02E01 Chapter One MADMAX (1080p x265 10bit S82 Joy).mkv (467.1 MB)
Stranger Things S02E02 Chapter Two Trick Or Treat Freak (1080p x265 10bit S91 Joy).mkv (547.7 MB)
Stranger Things S02E03 Chapter Three The Pollywog (1080p x265 10bit S84 Joy).mkv (497.6 MB)
Stranger Things S02E04 Chapte Four Will The Wise (1080p x265 10bit S86 Joy).mkv (450.6 MB)
Stranger Things S02E05 Chapter Five Dig Dug (1080p x265 10bit S91 Joy).mkv (567.1 MB)
Stranger Things S02E06 Chapter Six The Spy (1080p x265 10bit S86 Joy).mkv (505.5 MB)
Stranger Things S02E07 Chapter Seven The Lost Sister (1080p x265 10bit S94 Joy).mkv (445.3 MB)
Stranger Things S02E08 Chapter Eight The Mind Flayer (1080p x265 10bit S95 Joy).mkv (464.4 MB)
Stranger Things S02E09 Chapter Nine The Gate (1080p x265 10bit S93 Joy).mkv (609.1 MB)

Mediainfo

General 
Format : Matroska 
Format version : Version 4 / Version 2 
File size : 567 MiB 
Duration : 56 min 51 s 
Overall bit rate : 1 394 kb/s 
Movie name : Stranger Things S02E05 Chapter Five Dig Dug (2160p x265 10bit Joy) (1080p x265 10bit Joy) 
Encoded date : UTC 2019-01-15 09:45:01 
Writing application : mkvmerge v24.0.0 ('Beyond The Pale') 64-bit 
Writing library : libebml v1.3.6 + libmatroska v1.4.9 
Cover : Yes 
Attachments : cover.jpg / small_cover.jpg / cover_land.jpg / small_cover_land.jpg 
Writing frontend : StaxRip v1.8.2.0, A JoyBell Encode, UTR 

Video 
ID : 1 
Format : HEVC 
Format/Info : High Efficiency Video Coding 
Format profile : Main [email protected]@Main 
Codec ID : V_MPEGH/ISO/HEVC 
Duration : 56 min 51 s 
Bit rate : 1 200 kb/s 
Width : 1 920 pixels 
Height : 960 pixels 
Display aspect ratio : 2.000 
Frame rate mode : Constant 
Frame rate : 23.976 (24000/1001) FPS 
Color space : YUV 
Chroma subsampling : 4:2:0 
Bit depth : 10 bits 
Bits/(Pixel*Frame) : 0.027 
Stream size : 488 MiB (86%) 
Writing library : x265 2.9+15-81373aab81df:[Windows][MSVC 1916][64 bit] 10bit 
Encoding settings : cpuid=1111039 / frame-threads=3 / numa-pools=8 / wpp / no-pmode / no-pme / no-psnr / ssim / log-level=2 / input-csp=1 / input-res=1920x960 / interlace=0 / total-frames=81791 / level-idc=0 / high-tier=1 / uhd-bd=0 / ref=4 / no-allow-non-conformance / no-repeat-headers / annexb / no-aud / no-hrd / info / hash=0 / no-temporal-layers / open-gop / min-keyint=23 / keyint=250 / gop-lookahead=0 / bframes=4 / b-adapt=2 / b-pyramid / bframe-bias=0 / rc-lookahead=80 / lookahead-slices=4 / scenecut=40 / radl=0 / no-splice / no-intra-refresh / ctu=64 / min-cu-size=8 / no-rect / no-amp / max-tu-size=32 / tu-inter-depth=1 / tu-intra-depth=1 / limit-tu=0 / rdoq-level=2 / dynamic-rd=0.00 / ssim-rd / signhide / no-tskip / nr-intra=0 / nr-inter=0 / no-constrained-intra / strong-intra-smoothing / max-merge=3 / limit-refs=3 / limit-modes / me=3 / subme=3 / merange=57 / temporal-mvp / weightp / no-weightb / no-analyze-src-pics / deblock=0:0 / sao / no-sao-non-deblock / rd=4 / early-skip / rskip / no-fast-intra / no-tskip-fast / no-cu-lossless / no-b-intra / splitrd-skip / rdpenalty=0 / psy-rd=0.00 / psy-rdoq=1.50 / no-rd-refine / no-lossless / cbqpoffs=0 / crqpoffs=0 / rc=abr / bitrate=1200 / qcomp=0.60 / qpstep=4 / stats-write=0 / stats-read=2 / cplxblur=20.0 / qblur=0.5 / ipratio=1.40 / pbratio=1.30 / aq-mode=1 / aq-strength=0.80 / cutree / zone-count=0 / no-strict-cbr / qg-size=32 / no-rc-grain / qpmax=69 / qpmin=0 / no-const-vbv / sar=0 / overscan=0 / videoformat=5 / range=0 / colorprim=2 / transfer=2 / colormatrix=2 / chromaloc=0 / display-window=0 / max-cll=0,0 / min-luma=0 / max-luma=1023 / log2-max-poc-lsb=8 / vui-timing-info / vui-hrd-info / slices=1 / no-opt-qp-pps / no-opt-ref-list-length-pps / multi-pass-opt-rps / scenecut-bias=0.05 / no-opt-cu-delta-qp / no-aq-motion / no-hdr / no-hdr-opt / no-dhdr10-opt / no-idr-recovery-sei / analysis-reuse-level=10 / scale-factor=0 / refine-intra=0 / refine-inter=0 / refine-mv=0 / limit-sao / ctu-info=0 / no-lowpass-dct / refine-mv-type=0 / copy-pic=1 / max-ausize-factor=1.0 / no-dynamic-refine / no-single-sei 
Default : Yes 
Forced : No 

Audio 
ID : 2 
Format : AAC 
Format/Info : Advanced Audio Codec 
Format profile : HE-AAC / LC 
Codec ID : A_AAC 
Duration : 56 min 51 s 
Bit rate : 182 kb/s 
Channel(s) : 6 channels 
Channel positions : Front: L C R, Side: L R, LFE 
Sampling rate : 48.0 kHz / 24.0 kHz 
Frame rate : 23.438 FPS (1024 spf) 
Compression mode : Lossy 
Delay relative to video : 31 ms 
Stream size : 73.8 MiB (13%) 
Language : English 
Default : No 
Forced : No 

Subtitle #1 
ID : 3 
Format : UTF-8 
Codec ID : S_TEXT/UTF8 
Codec ID/Info : UTF-8 Plain Text 
Duration : 54 min 13 s 
Bit rate : 47 b/s 
Count of elements : 666 
Stream size : 18.9 KiB (0%) 
Language : English 
Default : No 
Forced : No 

Subtitle #2 
ID : 4 
Format : VobSub 
Muxing mode : zlib 
Codec ID : S_VOBSUB 
Codec ID/Info : Picture based subtitle format used on DVDs 
Duration : 54 min 48 s 
Bit rate : 9 798 b/s 
Count of elements : 807 
Stream size : 3.84 MiB (1%) 
Language : English 
Default : No 
Forced : No 

Subtitle #3 
ID : 5 
Format : VobSub 
Muxing mode : zlib 
Codec ID : S_VOBSUB 
Codec ID/Info : Picture based subtitle format used on DVDs 
Duration : 56 min 17 s 
Bit rate : 6 774 b/s 
Count of elements : 638 
Stream size : 2.73 MiB (0%) 
Language : Spanish 
Default : No 
Forced : No 

Subtitle #4 
ID : 6 
Format : VobSub 
Muxing mode : zlib 
Codec ID : S_VOBSUB 
Codec ID/Info : Picture based subtitle format used on DVDs 
Duration : 55 min 20 s 
Bit rate : 120 b/s 
Count of elements : 10 
Stream size : 48.9 KiB (0%) 
Language : Spanish 
Default : No 
Forced : No 

Subtitle #5 
ID : 7 
Format : VobSub 
Muxing mode : zlib 
Codec ID : S_VOBSUB 
Codec ID/Info : Picture based subtitle format used on DVDs 
Duration : 55 min 20 s 
Bit rate : 126 b/s 
Count of elements : 10 
Stream size : 51.2 KiB (0%) 
Language : Spanish 
Default : No 
Forced : Yes 

Menu 
00:00:00.000 : :Chapter 1 
00:10:03.185 : :Chapter 2 
00:20:05.662 : :Chapter 3 
00:30:04.803 : :Chapter 4 
00:40:19.792 : :Chapter 5 
00:54:51.496 : :Chapter 6

Screens

Download

Download: Google Drive (4.45 GB)

Season 2 (2160p)

Stranger Things (2016) Season 02 S02 (2160p BluRay x265 HEVC 10bit SDR AAC 5.1 Joy) [UTR]

Files

Stranger Things Season 2 (2160p BD x265 10bit FS91 Joy)
Stranger Things S02E01 Chapter One MADMAX (2160p x265 10bit FS85 Joy).mkv (1.4 GB)
Stranger Things S02E02 Chapter Two Trick Or Treat Freak (2160p x265 10bit FS93 Joy).mkv (1.7 GB)
Stranger Things S02E03 Chapter Three The Pollywog (2160p x265 10bit FS82 Joy).mkv (1.5 GB)
Stranger Things S02E04 Chapte Four Will The Wise (2160p x265 10bit FS86 Joy).mkv (1.4 GB)
Stranger Things S02E05 Chapter Five Dig Dug (2160p x265 10bit FS95 Joy).mkv (1.7 GB)
Stranger Things S02E06 Chapter Six The Spy (2160p x265 10bit FS87 Joy).mkv (1.5 GB)
Stranger Things S02E07 Chapter Seven The Lost Sister (2160p x265 10bit FS96 Joy).mkv (1.3 GB)
Stranger Things S02E08 Chapter Eight The Mind Flayer (2160p x265 10bit FS97 Joy).mkv (1.4 GB)
Stranger Things S02E09 Chapter Nine The Gate (2160p x265 10bit FS96 Joy).mkv (1.8 GB)

Mediainfo

General 
Format                                   : Matroska 
Format version                           : Version 4 / Version 2 
File size                                : 1.72 GiB 
Duration                                 : 56 min 51 s 
Overall bit rate                         : 4 328 kb/s 
Movie name                               : Stranger Things S02E05 Chapter Five Dig Dug  (2160p x265 10bit Joy) 
Encoded date                             : UTC 2019-01-15 08:22:59 
Writing application                      : mkvmerge v28.2.0 ('The Awakening') 64-bit 
Writing library                          : libebml v1.3.6 + libmatroska v1.4.9 
Cover                                    : Yes 
Attachments                              : cover.jpg / small_cover.jpg / cover_land.jpg / small_cover_land.jpg 
Writing frontend                         : StaxRip v2.0, Encoded by JoyBell 

Video 
ID                                       : 1 
Format                                   : HEVC 
Format/Info                              : High Efficiency Video Coding 
Format profile                           : Main [email protected]@Main 
Codec ID                                 : V_MPEGH/ISO/HEVC 
Duration                                 : 56 min 51 s 
Bit rate                                 : 3 998 kb/s 
Width                                    : 3 840 pixels 
Height                                   : 1 920 pixels 
Display aspect ratio                     : 2.000 
Frame rate mode                          : Constant 
Frame rate                               : 23.976 (24000/1001) FPS 
Color space                              : YUV 
Chroma subsampling                       : 4:2:0 
Bit depth                                : 10 bits 
Bits/(Pixel*Frame)                       : 0.023 
Stream size                              : 1.59 GiB (92%) 
Writing library                          : x265 2.9+15-81373aab81df:[Windows][MSVC 1916][64 bit] 10bit 
Encoding settings                        : cpuid=1111039 / frame-threads=3 / numa-pools=12 / wpp / no-pmode / no-pme / no-psnr / ssim / log-level=2 / input-csp=1 / input-res=3840x1920 / interlace=0 / total-frames=81791 / level-idc=0 / high-tier=1 / uhd-bd=0 / ref=4 / no-allow-non-conformance / no-repeat-headers / annexb / no-aud / no-hrd / info / hash=0 / no-temporal-layers / open-gop / min-keyint=23 / keyint=250 / gop-lookahead=0 / bframes=4 / b-adapt=2 / b-pyramid / bframe-bias=0 / rc-lookahead=80 / lookahead-slices=4 / scenecut=40 / radl=0 / no-splice / no-intra-refresh / ctu=64 / min-cu-size=8 / no-rect / no-amp / max-tu-size=32 / tu-inter-depth=1 / tu-intra-depth=1 / limit-tu=0 / rdoq-level=2 / dynamic-rd=0.00 / ssim-rd / signhide / no-tskip / nr-intra=0 / nr-inter=0 / no-constrained-intra / strong-intra-smoothing / max-merge=3 / limit-refs=3 / limit-modes / me=3 / subme=3 / merange=57 / temporal-mvp / weightp / no-weightb / no-analyze-src-pics / deblock=0:0 / sao / no-sao-non-deblock / rd=4 / early-skip / rskip / no-fast-intra / no-tskip-fast / no-cu-lossless / no-b-intra / splitrd-skip / rdpenalty=0 / psy-rd=2.20 / psy-rdoq=1.15 / no-rd-refine / no-lossless / cbqpoffs=0 / crqpoffs=0 / rc=abr / bitrate=4000 / qcomp=0.60 / qpstep=4 / stats-write=0 / stats-read=2 / cplxblur=20.0 / qblur=0.5 / ipratio=1.40 / pbratio=1.30 / aq-mode=1 / aq-strength=0.80 / cutree / zone-count=0 / no-strict-cbr / qg-size=32 / no-rc-grain / qpmax=69 / qpmin=0 / no-const-vbv / sar=0 / overscan=0 / videoformat=5 / range=0 / colorprim=2 / transfer=2 / colormatrix=2 / chromaloc=0 / display-window=0 / max-cll=0,0 / min-luma=0 / max-luma=1023 / log2-max-poc-lsb=8 / vui-timing-info / vui-hrd-info / slices=1 / no-opt-qp-pps / no-opt-ref-list-length-pps / multi-pass-opt-rps / scenecut-bias=0.05 / no-opt-cu-delta-qp / no-aq-motion / no-hdr / no-hdr-opt / no-dhdr10-opt / no-idr-recovery-sei / analysis-reuse-level=10 / scale-factor=0 / refine-intra=0 / refine-inter=0 / refine-mv=0 / limit-sao / ctu-info=0 / no-lowpass-dct / refine-mv-type=0 / copy-pic=1 / max-ausize-factor=1.0 / no-dynamic-refine / no-single-sei 
Default                                  : Yes 
Forced                                   : No 

Audio 
ID                                       : 2 
Format                                   : AAC 
Format/Info                              : Advanced Audio Codec 
Format profile                           : LC 
Codec ID                                 : A_AAC 
Duration                                 : 56 min 51 s 
Bit rate                                 : 317 kb/s 
Channel(s)                               : 6 channels 
Channel positions                        : Front: L C R, Side: L R, LFE 
Sampling rate                            : 48.0 kHz 
Frame rate                               : 46.875 FPS (1024 spf) 
Compression mode                         : Lossy 
Delay relative to video                  : 9 ms 
Stream size                              : 129 MiB (7%) 
Language                                 : English 
Default                                  : No 
Forced                                   : No 

Subtitle #1 
ID                                       : 3 
Format                                   : UTF-8 
Codec ID                                 : S_TEXT/UTF8 
Codec ID/Info                            : UTF-8 Plain Text 
Duration                                 : 54 min 13 s 
Bit rate                                 : 47 b/s 
Count of elements                        : 666 
Stream size                              : 18.9 KiB (0%) 
Language                                 : English 
Default                                  : No 
Forced                                   : No 

Subtitle #2 
ID                                       : 4 
Format                                   : VobSub 
Muxing mode                              : zlib 
Codec ID                                 : S_VOBSUB 
Codec ID/Info                            : Picture based subtitle format used on DVDs 
Duration                                 : 54 min 48 s 
Bit rate                                 : 9 798 b/s 
Count of elements                        : 807 
Stream size                              : 3.84 MiB (0%) 
Language                                 : English 
Default                                  : No 
Forced                                   : No 

Subtitle #3 
ID                                       : 5 
Format                                   : VobSub 
Muxing mode                              : zlib 
Codec ID                                 : S_VOBSUB 
Codec ID/Info                            : Picture based subtitle format used on DVDs 
Duration                                 : 56 min 17 s 
Bit rate                                 : 6 774 b/s 
Count of elements                        : 638 
Stream size                              : 2.73 MiB (0%) 
Language                                 : Spanish 
Default                                  : No 
Forced                                   : No 

Subtitle #4 
ID                                       : 6 
Format                                   : VobSub 
Muxing mode                              : zlib 
Codec ID                                 : S_VOBSUB 
Codec ID/Info                            : Picture based subtitle format used on DVDs 
Duration                                 : 55 min 20 s 
Bit rate                                 : 120 b/s 
Count of elements                        : 10 
Stream size                              : 48.9 KiB (0%) 
Language                                 : Spanish 
Default                                  : No 
Forced                                   : No 

Subtitle #5 
ID                                       : 7 
Format                                   : VobSub 
Muxing mode                              : zlib 
Codec ID                                 : S_VOBSUB 
Codec ID/Info                            : Picture based subtitle format used on DVDs 
Duration                                 : 55 min 20 s 
Bit rate                                 : 126 b/s 
Count of elements                        : 10 
Stream size                              : 51.2 KiB (0%) 
Language                                 : Spanish 
Default                                  : No 
Forced                                   : Yes 

Menu 
00:00:00.000                             : :Chapter 1 
00:10:03.185                             : :Chapter 2 
00:20:05.662                             : :Chapter 3 
00:30:04.803                             : :Chapter 4 
00:40:19.792                             : :Chapter 5 
00:54:51.496                             : :Chapter 6

Screens

Download

Download: Google Drive (13.80 GB)

2 thoughts on “Stranger Things (2016) Season 1-2 (1080p/2160p BluRay x265 HEVC 10bit AAC 5.1 Joy)

Leave a Reply

Your email address will not be published. Required fields are marked *