Person Of Interest (2011) Season 1-5 (1080p BluRay x265 HEVC 10bit AAC 5.1 Qman)

Summary: John Reese, a presumed dead former CIA agent who is approached by a mysterious billionaire named Harold Finch to prevent violent crimes before they happen by using an advanced surveillance system dubbed “The Machine”. Their unique brand of vigilante justice attracts the attention of two NYPD officers, Joss Carter and Lionel Fusco, whom Reese uses to his advantage as he investigates persons of interest.

Season 1

Person Of Interest (2011) Season 01 (1080p BluRay x265 HEVC 10bit AAC 5.1 Qman) [UTR]

Files

Person.Of.Interest.2011.Season.01.BluRay.1080p.10bit.5.1.x265.HEVC-Qman[UTR]
Person.of.Interest.S01E01.BluRay.1080p.10bit.5.1.x265.HEVC-Qman[UTR].mkv - 1.02 GB
Person.of.Interest.S01E01.Extended.BluRay.1080p.10bit.5.1.x265.HEVC-Qman[UTR].mkv - 1.15 GB
Person.of.Interest.S01E02.BluRay.1080p.10bit.5.1.x265.HEVC-Qman[UTR].mkv - 785.79 MB
Person.of.Interest.S01E03.BluRay.1080p.10bit.5.1.x265.HEVC-Qman[UTR].mkv - 729.8 MB
Person.of.Interest.S01E04.BluRay.1080p.10bit.5.1.x265.HEVC-Qman[UTR].mkv - 612.05 MB
Person.of.Interest.S01E05.BluRay.1080p.10bit.5.1.x265.HEVC-Qman[UTR].mkv - 705.38 MB
Person.of.Interest.S01E06.BluRay.1080p.10bit.5.1.x265.HEVC-Qman[UTR].mkv - 578.48 MB
Person.of.Interest.S01E07.BluRay.1080p.10bit.5.1.x265.HEVC-Qman[UTR].mkv - 729.98 MB
Person.of.Interest.S01E08.BluRay.1080p.10bit.5.1.x265.HEVC-Qman[UTR].mkv - 685.04 MB
Person.of.Interest.S01E09.BluRay.1080p.10bit.5.1.x265.HEVC-Qman[UTR].mkv - 669.89 MB
Person.of.Interest.S01E10.BluRay.1080p.10bit.5.1.x265.HEVC-Qman[UTR].mkv - 651.59 MB
Person.of.Interest.S01E11.BluRay.1080p.10bit.5.1.x265.HEVC-Qman[UTR].mkv - 659.01 MB
Person.of.Interest.S01E12.BluRay.1080p.10bit.5.1.x265.HEVC-Qman[UTR].mkv - 600.78 MB
Person.of.Interest.S01E13.BluRay.1080p.10bit.5.1.x265.HEVC-Qman[UTR].mkv - 637.07 MB
Person.of.Interest.S01E14.BluRay.1080p.10bit.5.1.x265.HEVC-Qman[UTR].mkv - 644.14 MB
Person.of.Interest.S01E15.BluRay.1080p.10bit.5.1.x265.HEVC-Qman[UTR].mkv - 617.85 MB
Person.of.Interest.S01E16.BluRay.1080p.10bit.5.1.x265.HEVC-Qman[UTR].mkv - 638.18 MB
Person.of.Interest.S01E17.BluRay.1080p.10bit.5.1.x265.HEVC-Qman[UTR].mkv - 675.84 MB
Person.of.Interest.S01E18.BluRay.1080p.10bit.5.1.x265.HEVC-Qman[UTR].mkv - 583.73 MB
Person.of.Interest.S01E19.BluRay.1080p.10bit.5.1.x265.HEVC-Qman[UTR].mkv - 643.62 MB
Person.of.Interest.S01E20.BluRay.1080p.10bit.5.1.x265.HEVC-Qman[UTR].mkv - 594.35 MB
Person.of.Interest.S01E21.BluRay.1080p.10bit.5.1.x265.HEVC-Qman[UTR].mkv - 557.84 MB
Person.of.Interest.S01E22.BluRay.1080p.10bit.5.1.x265.HEVC-Qman[UTR].mkv - 665.06 MB
Person.of.Interest.S01E23.BluRay.1080p.10bit.5.1.x265.HEVC-Qman[UTR].mkv - 562.05 MB

Mediainfo

General
Unique ID                                : 175703442546161202125707339625088103317 (0x842F408BCC7153E5AAFB33B028033395)
Complete name                            : Person.of.Interest.S01E01.BluRay.1080p.10bit.5.1.x265.HEVC-Qman[UTR].mkv
Format                                   : Matroska
Format version                           : Version 4 / Version 2
File size                                : 1.02 GiB
Duration                                 : 44 min 3 s
Overall bit rate                         : 3 324 kb/s
Encoded date                             : UTC 2016-04-18 14:39:12
Writing application                      : mkvmerge v9.0.1 ('Obstacles') 64bit
Writing library                          : libebml v1.3.3 + libmatroska v1.4.4

Video
ID                                       : 1
Format                                   : HEVC
Format/Info                              : High Efficiency Video Coding
Format profile                           : Main [email protected]@Main
Codec ID                                 : V_MPEGH/ISO/HEVC
Duration                                 : 44 min 3 s
Bit rate                                 : 3 130 kb/s
Width                                    : 1 920 pixels
Height                                   : 1 080 pixels
Display aspect ratio                     : 16:9
Frame rate mode                          : Constant
Frame rate                               : 23.976 (24000/1001) FPS
Color space                              : YUV
Chroma subsampling                       : 4:2:0
Bit depth                                : 10 bits
Bits/(Pixel*Frame)                       : 0.063
Stream size                              : 986 MiB (94%)
Writing library                          : x265 1.9+68-88aebc166fa8:[Windows][GCC 5.3.0][64 bit] 10bit
Encoding settings                        : wpp / ctu=64 / min-cu-size=8 / max-tu-size=32 / tu-intra-depth=1 / tu-inter-depth=1 / me=3 / subme=3 / merange=57 / rect / no-amp / max-merge=3 / temporal-mvp / no-early-skip / rdpenalty=0 / no-tskip / no-tskip-fast / strong-intra-smoothing / no-lossless / no-cu-lossless / no-constrained-intra / no-fast-intra / open-gop / no-temporal-layers / interlace=0 / keyint=250 / min-keyint=23 / scenecut=40 / rc-lookahead=25 / lookahead-slices=4 / bframes=4 / bframe-bias=0 / b-adapt=2 / ref=4 / limit-refs=3 / limit-modes / weightp / no-weightb / aq-mode=3 / qg-size=32 / aq-strength=1.00 / cbqpoffs=0 / crqpoffs=0 / rd=4 / psy-rd=2.00 / rdoq-level=2 / psy-rdoq=1.00 / no-rd-refine / signhide / deblock / sao / no-sao-non-deblock / b-pyramid / cutree / no-intra-refresh / rc=crf / crf=23.6 / qcomp=0.60 / qpmin=0 / qpmax=51 / qpstep=4 / ipratio=1.40 / pbratio=1.30
Language                                 : English
Default                                  : Yes
Forced                                   : No

Audio
ID                                       : 2
Format                                   : AAC
Format/Info                              : Advanced Audio Codec
Format profile                           : HE-AAC / LC
Codec ID                                 : A_AAC
Duration                                 : 44 min 3 s
Bit rate                                 : 192 kb/s
Channel(s)                               : 6 channels
Channel positions                        : Front: L C R, Side: L R, LFE
Sampling rate                            : 48.0 kHz / 24.0 kHz
Frame rate                               : 23.438 FPS (1024 spf)
Compression mode                         : Lossy
Delay relative to video                  : 34 ms
Stream size                              : 60.5 MiB (6%)
Language                                 : English
Default                                  : Yes
Forced                                   : No

Text
ID                                       : 3
Format                                   : UTF-8
Codec ID                                 : S_TEXT/UTF8
Codec ID/Info                            : UTF-8 Plain Text
Duration                                 : 43 min 52 s
Bit rate                                 : 72 b/s
Count of elements                        : 597
Stream size                              : 23.4 KiB (0%)
Language                                 : English
Default                                  : Yes
Forced                                   : No

Menu
00:00:00.000                             : en:00:00:00.000
00:12:04.974                             : en:00:12:04.974
00:18:28.566                             : en:00:18:28.566
00:25:16.974                             : en:00:25:16.974
00:34:56.344                             : en:00:34:56.344
00:43:34.195                             : en:00:43:34.195

Download

Download: Google Drive (16.07 GB)

Season 2

Person Of Interest (2011) Season 02 (1080p BluRay x265 HEVC 10bit AAC 5.1 Qman) [UTR]

Files

Person.Of.Interest.2011.Season.02.BluRay.1080p.10bit.5.1.x265.HEVC-Qman[UTR]
Person.Of.Interest.S02E01.BluRay.1080p.10bit.5.1.x265.HEVC-Qman[UTR].mkv - 829.66 MB
Person.Of.Interest.S02E02.BluRay.1080p.10bit.5.1.x265.HEVC-Qman[UTR].mkv - 600.78 MB
Person.Of.Interest.S02E03.BluRay.1080p.10bit.5.1.x265.HEVC-Qman[UTR].mkv - 714.28 MB
Person.Of.Interest.S02E04.BluRay.1080p.10bit.5.1.x265.HEVC-Qman[UTR].mkv - 717.09 MB
Person.Of.Interest.S02E05.BluRay.1080p.10bit.5.1.x265.HEVC-Qman[UTR].mkv - 681.72 MB
Person.Of.Interest.S02E06.BluRay.1080p.8bit.5.1.x265.HEVC-Qman[UTR].mkv - 824.32 MB
Person.Of.Interest.S02E07.BluRay.1080p.8bit.5.1.x265.HEVC-Qman[UTR].mkv - 701.48 MB
Person.Of.Interest.S02E08.BluRay.1080p.8bit.5.1.x265.HEVC-Qman[UTR].mkv - 696.17 MB
Person.Of.Interest.S02E09.BluRay.1080p.8bit.5.1.x265.HEVC-Qman[UTR].mkv - 737.77 MB
Person.Of.Interest.S02E10.BluRay.1080p.8bit.5.1.x265.HEVC-Qman[UTR].mkv - 574.19 MB
Person.Of.Interest.S02E11.BluRay.1080p.8bit.5.1.x265.HEVC-Qman[UTR].mkv - 560.49 MB
Person.Of.Interest.S02E12.BluRay.1080p.8bit.5.1.x265.HEVC-Qman[UTR].mkv - 643.81 MB
Person.Of.Interest.S02E13.BluRay.1080p.8bit.5.1.x265.HEVC-Qman[UTR].mkv - 553.37 MB
Person.Of.Interest.S02E14.BluRay.1080p.8bit.5.1.x265.HEVC-Qman[UTR].mkv - 610.06 MB
Person.Of.Interest.S02E15.BluRay.1080p.8bit.5.1.x265.HEVC-Qman[UTR].mkv - 566.83 MB
Person.Of.Interest.S02E16.BluRay.1080p.8bit.5.1.x265.HEVC-Qman[UTR].mkv - 510.43 MB
Person.Of.Interest.S02E17.BluRay.1080p.8bit.5.1.x265.HEVC-Qman[UTR].mkv - 546.47 MB
Person.Of.Interest.S02E18.BluRay.1080p.8bit.5.1.x265.HEVC-Qman[UTR].mkv - 579.71 MB
Person.Of.Interest.S02E19.BluRay.1080p.8bit.5.1.x265.HEVC-Qman[UTR].mkv - 582.01 MB
Person.Of.Interest.S02E20.BluRay.1080p.8bit.5.1.x265.HEVC-Qman[UTR].mkv - 629.55 MB
Person.Of.Interest.S02E21.BluRay.1080p.8bit.5.1.x265.HEVC-Qman[UTR].mkv - 716.53 MB
Person.Of.Interest.S02E22.BluRay.1080p.8bit.5.1.x265.HEVC-Qman[UTR].mkv - 697.88 MB

Mediainfo

General
Unique ID                                : 206553952640037325884408937646468359779 (0x9B64D820E7D324A1AC2DF4655C77E663)
Complete name                            : Person.Of.Interest.S02E01.BluRay.1080p.10bit.5.1.x265.HEVC-Qman[UTR].mkv
Format                                   : Matroska
Format version                           : Version 4 / Version 2
File size                                : 830 MiB
Duration                                 : 43 min 50 s
Overall bit rate                         : 2 646 kb/s
Movie name                               : Person of Intereset - S02E01 - "The Contingency"
Encoded date                             : UTC 2016-06-03 21:30:11
Writing application                      : mkvmerge v9.2.0 ('Photograph') 64bit
Writing library                          : libebml v1.3.3 + libmatroska v1.4.4

Video
ID                                       : 1
Format                                   : HEVC
Format/Info                              : High Efficiency Video Coding
Format profile                           : Main [email protected]@Main
Codec ID                                 : V_MPEGH/ISO/HEVC
Duration                                 : 43 min 48 s
Bit rate                                 : 2 437 kb/s
Width                                    : 1 920 pixels
Height                                   : 1 080 pixels
Display aspect ratio                     : 16:9
Frame rate mode                          : Constant
Frame rate                               : 23.976 (24000/1001) FPS
Color space                              : YUV
Chroma subsampling                       : 4:2:0
Bit depth                                : 10 bits
Bits/(Pixel*Frame)                       : 0.049
Stream size                              : 764 MiB (92%)
Writing library                          : x265 1.9+141-02d79be487d7:[Windows][MSVC 1900][64 bit] 10bit
Encoding settings                        : wpp / ctu=64 / min-cu-size=8 / max-tu-size=32 / tu-intra-depth=1 / tu-inter-depth=1 / me=3 / subme=3 / merange=57 / rect / no-amp / max-merge=3 / temporal-mvp / no-early-skip / rdpenalty=0 / no-tskip / no-tskip-fast / strong-intra-smoothing / no-lossless / no-cu-lossless / no-constrained-intra / no-fast-intra / open-gop / no-temporal-layers / interlace=0 / keyint=250 / min-keyint=23 / scenecut=40 / rc-lookahead=25 / lookahead-slices=4 / bframes=4 / bframe-bias=0 / b-adapt=2 / ref=4 / limit-refs=3 / limit-modes / weightp / no-weightb / aq-mode=3 / qg-size=32 / aq-strength=1.00 / cbqpoffs=0 / crqpoffs=0 / rd=4 / psy-rd=2.00 / rdoq-level=2 / psy-rdoq=1.00 / no-rd-refine / signhide / deblock=0:0 / sao / no-sao-non-deblock / b-pyramid / cutree / no-intra-refresh / rc=crf / crf=23.6 / qcomp=0.60 / qpmin=0 / qpmax=51 / qpstep=4 / ipratio=1.40 / pbratio=1.30
Language                                 : English
Default                                  : Yes
Forced                                   : No

Audio
ID                                       : 2
Format                                   : AAC
Format/Info                              : Advanced Audio Codec
Format profile                           : HE-AAC / LC
Codec ID                                 : A_AAC
Duration                                 : 43 min 50 s
Bit rate                                 : 192 kb/s
Channel(s)                               : 6 channels
Channel positions                        : Front: L C R, Side: L R, LFE
Sampling rate                            : 48.0 kHz / 24.0 kHz
Frame rate                               : 23.438 FPS (1024 spf)
Compression mode                         : Lossy
Delay relative to video                  : 34 ms
Stream size                              : 60.2 MiB (7%)
Language                                 : English
Default                                  : Yes
Forced                                   : No

Text
ID                                       : 3
Format                                   : PGS
Muxing mode                              : zlib
Codec ID                                 : S_HDMV/PGS
Codec ID/Info                            : Picture based subtitle format used on BDs/HD-DVDs
Duration                                 : 43 min 43 s
Bit rate                                 : 16.3 kb/s
Count of elements                        : 1216
Stream size                              : 5.10 MiB (1%)
Language                                 : English
Default                                  : Yes
Forced                                   : No

Menu
00:00:00.000                             : en:00:00:00.000
00:10:49.649                             : en:00:10:49.649
00:18:50.963                             : en:00:18:50.963
00:25:43.542                             : en:00:25:43.542
00:34:57.929                             : en:00:34:57.929
00:43:18.805                             : en:00:43:18.805

Download

Download: Google Drive (13.94 GB)

Season 3

Person Of Interest (2011) Season 03 (1080p BluRay x265 HEVC 10bit AAC 5.1 Qman) [UTR]

Files

Person.Of.Interest.2011.Season.03.BluRay.1080p.10bit.5.1.x265.HEVC-Qman[UTR]
Person.of.Interest.S03E01.BluRay.1080p.10bit.5.1.x265.HEVC-Qman[UTR].mkv - 586.64 MB
Person.of.Interest.S03E02.BluRay.1080p.10bit.5.1.x265.HEVC-Qman[UTR].mkv - 626.38 MB
Person.of.Interest.S03E03.BluRay.1080p.10bit.5.1.x265.HEVC-Qman[UTR].mkv - 590.8 MB
Person.of.Interest.S03E04.BluRay.1080p.10bit.5.1.x265.HEVC-Qman[UTR].mkv - 575.08 MB
Person.of.Interest.S03E05.BluRay.1080p.10bit.5.1.x265.HEVC-Qman[UTR].mkv - 570.95 MB
Person.of.Interest.S03E06.BluRay.1080p.10bit.5.1.x265.HEVC-Qman[UTR].mkv - 576.64 MB
Person.of.Interest.S03E07.BluRay.1080p.10bit.5.1.x265.HEVC-Qman[UTR].mkv - 539.72 MB
Person.of.Interest.S03E08.BluRay.1080p.10bit.5.1.x265.HEVC-Qman[UTR].mkv - 523.2 MB
Person.of.Interest.S03E09.BluRay.1080p.10bit.5.1.x265.HEVC-Qman[UTR].mkv - 562.18 MB
Person.of.Interest.S03E10.BluRay.1080p.10bit.5.1.x265.HEVC-Qman[UTR].mkv - 566.59 MB
Person.of.Interest.S03E11.BluRay.1080p.10bit.5.1.x265.HEVC-Qman[UTR].mkv - 552.64 MB
Person.of.Interest.S03E12.BluRay.1080p.10bit.5.1.x265.HEVC-Qman[UTR].mkv - 573.24 MB
Person.of.Interest.S03E13.BluRay.1080p.10bit.5.1.x265.HEVC-Qman[UTR].mkv - 529.48 MB
Person.of.Interest.S03E14.BluRay.1080p.10bit.5.1.x265.HEVC-Qman[UTR].mkv - 542.67 MB
Person.of.Interest.S03E15.BluRay.1080p.10bit.5.1.x265.HEVC-Qman[UTR].mkv - 557.83 MB
Person.of.Interest.S03E16.BluRay.1080p.10bit.5.1.x265.HEVC-Qman[UTR].mkv - 443.53 MB
Person.of.Interest.S03E17.BluRay.1080p.10bit.5.1.x265.HEVC-Qman[UTR].mkv - 678.2 MB
Person.of.Interest.S03E18.BluRay.1080p.10bit.5.1.x265.HEVC-Qman[UTR].mkv - 494.69 MB
Person.of.Interest.S03E19.BluRay.1080p.10bit.5.1.x265.HEVC-Qman[UTR].mkv - 551.32 MB
Person.of.Interest.S03E20.BluRay.1080p.10bit.5.1.x265.HEVC-Qman[UTR].mkv - 506.64 MB
Person.of.Interest.S03E21.BluRay.1080p.10bit.5.1.x265.HEVC-Qman[UTR].mkv - 527.81 MB
Person.of.Interest.S03E22.BluRay.1080p.10bit.5.1.x265.HEVC-Qman[UTR].mkv - 396.65 MB
Person.of.Interest.S03E23.BluRay.1080p.10bit.5.1.x265.HEVC-Qman[UTR].mkv - 419 MB

Mediainfo

General
Unique ID                                : 198008206593928593680297236378379265326 (0x94F6FE51849C4EC59D700F2325DEA52E)
Complete name                            : Person.of.Interest.S03E01.BluRay.1080p.10bit.5.1.x265.HEVC-Qman[UTR].mkv
Format                                   : Matroska
Format version                           : Version 4 / Version 2
File size                                : 587 MiB
Duration                                 : 43 min 42 s
Overall bit rate                         : 1 876 kb/s
Encoded date                             : UTC 2016-12-05 03:43:08
Writing application                      : mkvmerge v9.6.0 ('Slave To Your Mind') 64bit
Writing library                          : libebml v1.3.4 + libmatroska v1.4.5

Video
ID                                       : 1
Format                                   : HEVC
Format/Info                              : High Efficiency Video Coding
Format profile                           : Main [email protected]@Main
Codec ID                                 : V_MPEGH/ISO/HEVC
Duration                                 : 43 min 41 s
Bit rate                                 : 1 683 kb/s
Width                                    : 1 920 pixels
Height                                   : 1 080 pixels
Display aspect ratio                     : 16:9
Frame rate mode                          : Constant
Frame rate                               : 23.976 (24000/1001) FPS
Color space                              : YUV
Chroma subsampling                       : 4:2:0
Bit depth                                : 10 bits
Bits/(Pixel*Frame)                       : 0.034
Stream size                              : 526 MiB (90%)
Writing library                          : x265 2.0+55-d5a1c8b5bad1:[Windows][GCC 6.2.0][64 bit] 10bit
Encoding settings                        : wpp / ctu=64 / min-cu-size=8 / max-tu-size=32 / tu-intra-depth=1 / tu-inter-depth=1 / me=3 / subme=3 / merange=57 / rect / no-amp / max-merge=3 / temporal-mvp / no-early-skip / rskip / rdpenalty=0 / no-tskip / no-tskip-fast / strong-intra-smoothing / no-lossless / no-cu-lossless / no-constrained-intra / no-fast-intra / open-gop / no-temporal-layers / interlace=0 / keyint=250 / min-keyint=23 / scenecut=40 / rc-lookahead=25 / lookahead-slices=4 / bframes=4 / bframe-bias=0 / b-adapt=2 / ref=4 / limit-refs=3 / limit-modes / weightp / no-weightb / aq-mode=3 / qg-size=32 / aq-strength=1.00 / cbqpoffs=0 / crqpoffs=0 / rd=4 / psy-rd=2.00 / rdoq-level=2 / psy-rdoq=1.00 / log2-max-poc-lsb=8 / no-rd-refine / signhide / deblock=0:0 / sao / no-sao-non-deblock / b-pyramid / cutree / no-intra-refresh / rc=crf / crf=23.6 / qcomp=0.60 / qpmin=0 / qpmax=69 / qpstep=4 / ipratio=1.40 / pbratio=1.30
Language                                 : English
Default                                  : Yes
Forced                                   : No

Audio
ID                                       : 2
Format                                   : AAC
Format/Info                              : Advanced Audio Codec
Format profile                           : HE-AAC / LC
Codec ID                                 : A_AAC
Duration                                 : 43 min 42 s
Bit rate                                 : 192 kb/s
Channel(s)                               : 6 channels
Channel positions                        : Front: L C R, Side: L R, LFE
Sampling rate                            : 48.0 kHz / 24.0 kHz
Frame rate                               : 23.438 FPS (1024 spf)
Compression mode                         : Lossy
Delay relative to video                  : 34 ms
Stream size                              : 60.0 MiB (10%)
Language                                 : English
Default                                  : Yes
Forced                                   : No

Text
ID                                       : 3
Format                                   : UTF-8
Codec ID                                 : S_TEXT/UTF8
Codec ID/Info                            : UTF-8 Plain Text
Duration                                 : 43 min 33 s
Bit rate                                 : 76 b/s
Count of elements                        : 615
Stream size                              : 24.5 KiB (0%)
Language                                 : English
Default                                  : Yes
Forced                                   : No

Menu
00:00:00.000                             : en:00:00:00.000
00:00:40.082                             : en:00:00:40.082
00:08:38.601                             : en:00:08:38.601
00:16:48.466                             : en:00:16:48.466
00:24:45.776                             : en:00:24:45.776
00:32:08.218                             : en:00:32:08.218
00:43:12.590                             : en:00:43:12.590

Download

Download: Google Drive (12.20 GB)

Season 4

Person Of Interest (2011) Season 04 (1080p BluRay x265 HEVC 10bit AAC 5.1 Qman) [UTR]

Files

Person.Of.Interest.2011.Season.04.BluRay.1080p.10bit.5.1.x265.HEVC-Qman[UTR]
Person.of.Interest.S04E01.BluRay.1080p.10bit.5.1.x265.HEVC-Qman[UTR].mkv - 567.15 MB
Person.of.Interest.S04E02.BluRay.1080p.10bit.5.1.x265.HEVC-Qman[UTR].mkv - 558.82 MB
Person.of.Interest.S04E03.BluRay.1080p.10bit.5.1.x265.HEVC-Qman[UTR].mkv - 636.44 MB
Person.of.Interest.S04E04.BluRay.1080p.10bit.5.1.x265.HEVC-Qman[UTR].mkv - 567.79 MB
Person.of.Interest.S04E05.BluRay.1080p.10bit.5.1.x265.HEVC-Qman[UTR].mkv - 563.67 MB
Person.of.Interest.S04E06.BluRay.1080p.10bit.5.1.x265.HEVC-Qman[UTR].mkv - 621.11 MB
Person.of.Interest.S04E07.BluRay.1080p.10bit.5.1.x265.HEVC-Qman[UTR].mkv - 557.31 MB
Person.of.Interest.S04E08.BluRay.1080p.10bit.5.1.x265.HEVC-Qman[UTR].mkv - 567.72 MB
Person.of.Interest.S04E09.BluRay.1080p.10bit.5.1.x265.HEVC-Qman[UTR].mkv - 451.52 MB
Person.of.Interest.S04E10.BluRay.1080p.10bit.5.1.x265.HEVC-Qman[UTR].mkv - 602.67 MB
Person.of.Interest.S04E11.BluRay.1080p.10bit.5.1.x265.HEVC-Qman[UTR].mkv - 646.08 MB
Person.of.Interest.S04E12.BluRay.1080p.10bit.5.1.x265.HEVC-Qman[UTR].mkv - 567.57 MB
Person.of.Interest.S04E13.BluRay.1080p.10bit.5.1.x265.HEVC-Qman[UTR].mkv - 515.35 MB
Person.of.Interest.S04E14.BluRay.1080p.10bit.5.1.x265.HEVC-Qman[UTR].mkv - 454.65 MB
Person.of.Interest.S04E15.BluRay.1080p.10bit.5.1.x265.HEVC-Qman[UTR].mkv - 529.07 MB
Person.of.Interest.S04E16.BluRay.1080p.10bit.5.1.x265.HEVC-Qman[UTR].mkv - 545.46 MB
Person.of.Interest.S04E17.BluRay.1080p.10bit.5.1.x265.HEVC-Qman[UTR].mkv - 510.08 MB
Person.of.Interest.S04E18.BluRay.1080p.10bit.5.1.x265.HEVC-Qman[UTR].mkv - 521.26 MB
Person.of.Interest.S04E19.BluRay.1080p.10bit.5.1.x265.HEVC-Qman[UTR].mkv - 545.02 MB
Person.of.Interest.S04E20.BluRay.1080p.10bit.5.1.x265.HEVC-Qman[UTR].mkv - 294.41 MB
Person.of.Interest.S04E21.BluRay.1080p.10bit.5.1.x265.HEVC-Qman[UTR].mkv - 560.33 MB
Person.of.Interest.S04E22.BluRay.1080p.10bit.5.1.x265.HEVC-Qman[UTR].mkv - 521.23 MB

Mediainfo

General
Unique ID                                : 189794561054295551003524039593935276471 (0x8EC91A53D43D3433840C4910CC4C89B7)
Complete name                            : Person.of.Interest.S04E01.BluRay.1080p.10bit.5.1.x265.HEVC-Qman[UTR].mkv
Format                                   : Matroska
Format version                           : Version 4 / Version 2
File size                                : 567 MiB
Duration                                 : 43 min 44 s
Overall bit rate                         : 1 813 kb/s
Encoded date                             : UTC 2016-12-05 14:32:43
Writing application                      : mkvmerge v9.6.0 ('Slave To Your Mind') 64bit
Writing library                          : libebml v1.3.4 + libmatroska v1.4.5

Video
ID                                       : 1
Format                                   : HEVC
Format/Info                              : High Efficiency Video Coding
Format profile                           : Main [email protected]@Main
Codec ID                                 : V_MPEGH/ISO/HEVC
Duration                                 : 43 min 43 s
Bit rate                                 : 1 613 kb/s
Width                                    : 1 920 pixels
Height                                   : 1 080 pixels
Display aspect ratio                     : 16:9
Frame rate mode                          : Constant
Frame rate                               : 23.976 (24000/1001) FPS
Color space                              : YUV
Chroma subsampling                       : 4:2:0
Bit depth                                : 10 bits
Bits/(Pixel*Frame)                       : 0.032
Stream size                              : 504 MiB (89%)
Writing library                          : x265 2.1+47-a378efc939e3:[Windows][GCC 6.2.0][64 bit] 10bit
Encoding settings                        : wpp / ctu=64 / min-cu-size=8 / max-tu-size=32 / tu-intra-depth=1 / tu-inter-depth=1 / me=3 / subme=3 / merange=57 / rect / no-amp / max-merge=3 / temporal-mvp / no-early-skip / rskip / rdpenalty=0 / no-tskip / no-tskip-fast / strong-intra-smoothing / no-lossless / no-cu-lossless / no-constrained-intra / no-fast-intra / open-gop / no-temporal-layers / interlace=0 / keyint=250 / min-keyint=23 / scenecut=40 / scenecut-bias=0.05 / rc-lookahead=25 / lookahead-slices=4 / bframes=4 / bframe-bias=0 / b-adapt=2 / ref=4 / limit-refs=3 / limit-modes / weightp / no-weightb / aq-mode=3 / qg-size=32 / aq-strength=1.00 / cbqpoffs=0 / crqpoffs=0 / rd=4 / psy-rd=2.00 / rdoq-level=2 / psy-rdoq=1.00 / log2-max-poc-lsb=8 / limit-tu=0 / no-rd-refine / signhide / deblock=0:0 / sao / no-sao-non-deblock / b-pyramid / cutree / no-intra-refresh / rc=crf / crf=23.6 / qcomp=0.60 / qpmin=0 / qpmax=69 / qpstep=4 / ipratio=1.40 / pbratio=1.30
Language                                 : English
Default                                  : Yes
Forced                                   : No

Audio
ID                                       : 2
Format                                   : AAC
Format/Info                              : Advanced Audio Codec
Format profile                           : HE-AAC / LC
Codec ID                                 : A_AAC
Duration                                 : 43 min 44 s
Bit rate                                 : 192 kb/s
Channel(s)                               : 6 channels
Channel positions                        : Front: L C R, Side: L R, LFE
Sampling rate                            : 48.0 kHz / 24.0 kHz
Frame rate                               : 23.438 FPS (1024 spf)
Compression mode                         : Lossy
Delay relative to video                  : 34 ms
Stream size                              : 60.1 MiB (11%)
Language                                 : English
Default                                  : Yes
Forced                                   : No

Text
ID                                       : 3
Format                                   : VobSub
Muxing mode                              : zlib
Codec ID                                 : S_VOBSUB
Codec ID/Info                            : Picture based subtitle format used on DVDs
Duration                                 : 43 min 35 s
Bit rate                                 : 6 985 b/s
Count of elements                        : 625
Stream size                              : 2.18 MiB (0%)
Language                                 : English
Default                                  : Yes
Forced                                   : No

Menu
00:00:00.000                             : en:00:00:00.000
00:02:18.138                             : en:00:02:18.138
00:12:12.815                             : en:00:12:12.815
00:19:28.918                             : en:00:19:28.918
00:23:28.532                             : en:00:23:28.532
00:32:44.588                             : en:00:32:44.588
00:43:14.175                             : en:00:43:14.175

Download

Download: Google Drive (11.63 GB)

Season 5

Person Of Interest (2011) Season 05 (1080p BluRay x265 HEVC 10bit AAC 5.1 Qman) [UTR]

Files

Person.Of.Interest.2011.Season.05.BluRay.1080p.10bit.5.1.x265.HEVC-Qman[UTR]
Person.of.Interest.S05E01.B.S.O.D.mkv [875.62 MB]
Person.of.Interest.S05E02.SNAFU.mkv [1,022.11 MB]
Person.of.Interest.S05E03.Truth.Be.Told.mkv [843.48 MB]
Person.of.Interest.S05E04.6741.mkv [705.62 MB]
Person.of.Interest.S05E05.ShotSeeker.mkv [803.51 MB]
Person.of.Interest.S05E06.A.More.Perfect.Union.mkv [706.68 MB]
Person.of.Interest.S05E07.QSO.mkv [784.68 MB]
Person.of.Interest.S05E08.Reassortment.mkv [806.38 MB]
Person.of.Interest.S05E09.Sotto.Voce.mkv [774.98 MB]
Person.of.Interest.S05E10.The.Day.the.World.Went.Away.mkv [1,015.66 MB]
Person.of.Interest.S05E11.Synecdoche.mkv [926.42 MB]
Person.of.Interest.S05E12..exe.mkv [842.41 MB]
Person.of.Interest.S05E13.Return.0.mkv [924.05 MB]

Mediainfo

General
Unique ID                                : 219800626300968706992956836339377154107 (0xA55C0F9082C66BA8A06514168582A83B)
Complete name                            : Person.of.Interest.S05E01.B.S.O.D.mkv
Format                                   : Matroska
Format version                           : Version 4 / Version 2
File size                                : 876 MiB
Duration                                 : 43 min 48 s
Overall bit rate                         : 2 794 kb/s
Encoded date                             : UTC 2017-07-14 19:37:34
Writing application                      : mkvmerge v13.0.0 ('The Juggler') 64bit
Writing library                          : libebml v1.3.4 + libmatroska v1.4.5

Video
ID                                       : 1
Format                                   : HEVC
Format/Info                              : High Efficiency Video Coding
Format profile                           : Main [email protected]@Main
Codec ID                                 : V_MPEGH/ISO/HEVC
Duration                                 : 43 min 48 s
Bit rate                                 : 2 493 kb/s
Width                                    : 1 920 pixels
Height                                   : 1 080 pixels
Display aspect ratio                     : 16:9
Frame rate mode                          : Constant
Frame rate                               : 23.976 (24000/1001) FPS
Color space                              : YUV
Chroma subsampling                       : 4:2:0
Bit depth                                : 10 bits
Bits/(Pixel*Frame)                       : 0.050
Stream size                              : 781 MiB (89%)
Writing library                          : x265 2.4+98-06217c0e0f5f:[Windows][MSVC 1910][64 bit] 10bit
Encoding settings                        : cpuid=1173503 / frame-threads=2 / numa-pools=4 / wpp / no-pmode / no-pme / no-psnr / no-ssim / log-level=2 / input-csp=1 / input-res=1920x1080 / interlace=0 / total-frames=63021 / level-idc=0 / high-tier=1 / uhd-bd=0 / ref=4 / no-allow-non-conformance / no-repeat-headers / annexb / no-aud / no-hrd / info / hash=0 / no-temporal-layers / open-gop / min-keyint=23 / keyint=250 / bframes=4 / b-adapt=2 / b-pyramid / bframe-bias=0 / rc-lookahead=25 / lookahead-slices=4 / scenecut=40 / no-intra-refresh / ctu=64 / min-cu-size=8 / rect / no-amp / max-tu-size=32 / tu-inter-depth=1 / tu-intra-depth=1 / limit-tu=0 / rdoq-level=2 / dynamic-rd=0.00 / no-ssim-rd / signhide / no-tskip / nr-intra=0 / nr-inter=0 / no-constrained-intra / strong-intra-smoothing / max-merge=3 / limit-refs=3 / limit-modes / me=3 / subme=3 / merange=57 / temporal-mvp / weightp / no-weightb / no-analyze-src-pics / deblock=0:0 / sao / no-sao-non-deblock / rd=4 / no-early-skip / rskip / no-fast-intra / no-tskip-fast / no-cu-lossless / no-b-intra / rdpenalty=0 / psy-rd=2.00 / psy-rdoq=1.00 / no-rd-refine / analysis-reuse-mode=0 / no-lossless / cbqpoffs=0 / crqpoffs=0 / rc=crf / crf=23.6 / qcomp=0.60 / qpstep=4 / stats-write=0 / stats-read=0 / ipratio=1.40 / pbratio=1.30 / aq-mode=3 / aq-strength=1.00 / cutree / zone-count=0 / no-strict-cbr / qg-size=32 / no-rc-grain / qpmax=69 / qpmin=0 / no-const-vbv / sar=0 / overscan=0 / videoformat=5 / range=0 / colorprim=2 / transfer=2 / colormatrix=2 / chromaloc=0 / display-window=0 / max-cll=0,0 / min-luma=0 / max-luma=1023 / log2-max-poc-lsb=8 / vui-timing-info / vui-hrd-info / slices=1 / opt-qp-pps / opt-ref-list-length-pps / no-multi-pass-opt-rps / scenecut-bias=0.05 / no-opt-cu-delta-qp / no-aq-motion / no-hdr / no-hdr-opt / no-dhdr10-opt / analysis-reuse-level=5 / scale-factor=0 / refine-intra=0 / refine-inter=0 / refine-mv=0 / no-limit-sao / ctu-info=0
Language                                 : English
Default                                  : Yes
Forced                                   : No

Audio
ID                                       : 2
Format                                   : AAC
Format/Info                              : Advanced Audio Codec
Format profile                           : HE-AAC / LC
Codec ID                                 : A_AAC
Duration                                 : 43 min 48 s
Bit rate                                 : 192 kb/s
Channel(s)                               : 6 channels
Channel positions                        : Front: L C R, Side: L R, LFE
Sampling rate                            : 48.0 kHz / 24.0 kHz
Frame rate                               : 23.438 FPS (1024 spf)
Compression mode                         : Lossy
Delay relative to video                  : 34 ms
Stream size                              : 60.2 MiB (7%)
Language                                 : English
Default                                  : Yes
Forced                                   : No

Text #1
ID                                       : 3
Format                                   : PGS
Muxing mode                              : zlib
Codec ID                                 : S_HDMV/PGS
Codec ID/Info                            : Picture based subtitle format used on BDs/HD-DVDs
Duration                                 : 43 min 42 s
Bit rate                                 : 43.0 kb/s
Count of elements                        : 1262
Stream size                              : 13.4 MiB (2%)
Language                                 : English
Default                                  : Yes
Forced                                   : No

Text #2
ID                                       : 4
Format                                   : PGS
Muxing mode                              : zlib
Codec ID                                 : S_HDMV/PGS
Codec ID/Info                            : Picture based subtitle format used on BDs/HD-DVDs
Duration                                 : 43 min 31 s
Bit rate                                 : 41.2 kb/s
Count of elements                        : 1264
Stream size                              : 12.8 MiB (1%)
Language                                 : French
Default                                  : No
Forced                                   : No

Text #3
ID                                       : 5
Format                                   : PGS
Muxing mode                              : zlib
Codec ID                                 : S_HDMV/PGS
Codec ID/Info                            : Picture based subtitle format used on BDs/HD-DVDs
Duration                                 : 43 min 31 s
Bit rate                                 : 41.9 kb/s
Count of elements                        : 1234
Stream size                              : 13.0 MiB (1%)
Language                                 : Dutch
Default                                  : No
Forced                                   : No

Text #4
ID                                       : 6
Format                                   : PGS
Muxing mode                              : zlib
Codec ID                                 : S_HDMV/PGS
Codec ID/Info                            : Picture based subtitle format used on BDs/HD-DVDs
Duration                                 : 43 min 31 s
Bit rate                                 : 31.3 kb/s
Count of elements                        : 1300
Stream size                              : 9.73 MiB (1%)
Language                                 : Korean
Default                                  : No
Forced                                   : No

Text #5
ID                                       : 7
Format                                   : PGS
Muxing mode                              : zlib
Codec ID                                 : S_HDMV/PGS
Codec ID/Info                            : Picture based subtitle format used on BDs/HD-DVDs
Duration                                 : 43 min 31 s
Bit rate                                 : 44.3 kb/s
Count of elements                        : 1290
Stream size                              : 13.8 MiB (2%)
Language                                 : Spanish
Default                                  : No
Forced                                   : No

Text #6
ID                                       : 8
Format                                   : PGS
Muxing mode                              : zlib
Codec ID                                 : S_HDMV/PGS
Codec ID/Info                            : Picture based subtitle format used on BDs/HD-DVDs
Duration                                 : 43 min 31 s
Bit rate                                 : 40.9 kb/s
Count of elements                        : 1270
Stream size                              : 12.7 MiB (1%)
Language                                 : Danish
Default                                  : No
Forced                                   : No

Text #7
ID                                       : 9
Format                                   : PGS
Muxing mode                              : zlib
Codec ID                                 : S_HDMV/PGS
Codec ID/Info                            : Picture based subtitle format used on BDs/HD-DVDs
Duration                                 : 43 min 31 s
Bit rate                                 : 42.1 kb/s
Count of elements                        : 1286
Stream size                              : 13.1 MiB (1%)
Language                                 : Finnish
Default                                  : No
Forced                                   : No

Text #8
ID                                       : 10
Format                                   : PGS
Muxing mode                              : zlib
Codec ID                                 : S_HDMV/PGS
Codec ID/Info                            : Picture based subtitle format used on BDs/HD-DVDs
Duration                                 : 43 min 31 s
Bit rate                                 : 39.6 kb/s
Count of elements                        : 1282
Stream size                              : 12.3 MiB (1%)
Language                                 : Norwegian
Default                                  : No
Forced                                   : No

Text #9
ID                                       : 11
Format                                   : PGS
Muxing mode                              : zlib
Codec ID                                 : S_HDMV/PGS
Codec ID/Info                            : Picture based subtitle format used on BDs/HD-DVDs
Duration                                 : 43 min 31 s
Bit rate                                 : 41.7 kb/s
Count of elements                        : 1246
Stream size                              : 13.0 MiB (1%)
Language                                 : Swedish
Default                                  : No
Forced                                   : No

Menu
00:00:00.000                             : en:00:00:00.000
00:07:25.320                             : en:00:07:25.320
00:17:16.535                             : en:00:17:16.535
00:27:28.272                             : en:00:27:28.272
00:35:24.622                             : en:00:35:24.622
00:43:18.846                             : en:00:43:18.846

Download

Download: Google Drive (10.77 GB)

Leave a Reply

Your email address will not be published. Required fields are marked *