Peaky Blinders (2013) Season 1-4 (1080p BluRay x265 HEVC 10bit AAC 5.1 RCVR)

Summary: A gangster family epic set in 1919 Birmingham, England and centered on a gang who sew razor blades in the peaks of their caps, and their fierce boss Tommy Shelby, who means to move up in the world.

Season 01

Peaky Blinders (2013) Season 1 S01 (1080p Bluray x265 HEVC 10bit AAC 2.0 RCVR) 

Files

Peaky Blinders (2013) Season 1 S01 (1080p Bluray x265 HEVC 10bit AAC 2.0 RCVR) [UTR]
Peaky Blinders - S01E01 - Episode 1 (1080p Bluray x265 HEVC 10bit AAC 2.0 RCVR) [UTR].mkv - 1.8 GB
Peaky Blinders - S01E02 - Episode 2 (1080p Bluray x265 HEVC 10bit AAC 2.0 RCVR) [UTR].mkv - 1.73 GB
Peaky Blinders - S01E03 - Episode 3 (1080p Bluray x265 HEVC 10bit AAC 2.0 RCVR) [UTR].mkv - 1.98 GB
Peaky Blinders - S01E04 - Episode 4 (1080p Bluray x265 HEVC 10bit AAC 2.0 RCVR) [UTR].mkv - 1.33 GB
Peaky Blinders - S01E05 - Episode 5 (1080p Bluray x265 HEVC 10bit AAC 2.0 RCVR) [UTR].mkv - 1.56 GB
Peaky Blinders - S01E06 - Episode 6 (1080p Bluray x265 HEVC 10bit AAC 2.0 RCVR) [UTR].mkv - 1.48 GB

Mediainfo

General
Complete name                            : Peaky Blinders - S01E01 - Episode 1 (1080p Bluray x265 HEVC 10bit AAC 2.0 RCVR) [UTR].mkv
Format                                   : Matroska
Format version                           : Version 4 / Version 2
File size                                : 1.80 GiB
Duration                                 : 56 min 59 s
Overall bit rate                         : 4 511 kb/s
Encoded date                             : UTC 2017-07-16 10:50:10
Writing application                      : mkvmerge v12.0.0 ('Trust / Lust') 64bit
Writing library                          : libebml v1.3.4 + libmatroska v1.4.5
Cover                                    : Yes
Attachments                              : cover.jpg

Video
ID                                       : 1
Format                                   : HEVC
Format/Info                              : High Efficiency Video Coding
Format profile                           : Main [email protected]@Main
Codec ID                                 : V_MPEGH/ISO/HEVC
Duration                                 : 56 min 59 s
Bit rate                                 : 4 362 kb/s
Width                                    : 1 920 pixels
Height                                   : 1 040 pixels
Display aspect ratio                     : 1.85:1
Frame rate mode                          : Constant
Frame rate                               : 25.000 FPS
Color space                              : YUV
Chroma subsampling                       : 4:2:0
Bit depth                                : 10 bits
Bits/(Pixel*Frame)                       : 0.087
Stream size                              : 1.74 GiB (97%)
Writing library                          : x265 2.5+3-3f6841d271e3:[Windows][MSVC 1910][64 bit] 10bit
Encoding settings                        : cpuid=1173503 / frame-threads=3 / numa-pools=8 / wpp / no-pmode / no-pme / no-psnr / no-ssim / log-level=2 / input-csp=1 / input-res=1920x1040 / interlace=0 / total-frames=85476 / level-idc=0 / high-tier=1 / uhd-bd=0 / ref=5 / no-allow-non-conformance / no-repeat-headers / annexb / no-aud / no-hrd / info / hash=0 / no-temporal-layers / open-gop / min-keyint=25 / keyint=250 / bframes=8 / b-adapt=2 / b-pyramid / bframe-bias=0 / rc-lookahead=80 / lookahead-slices=4 / scenecut=40 / no-intra-refresh / ctu=64 / min-cu-size=8 / rect / no-amp / max-tu-size=32 / tu-inter-depth=1 / tu-intra-depth=1 / limit-tu=0 / rdoq-level=2 / dynamic-rd=0.00 / no-ssim-rd / signhide / no-tskip / nr-intra=0 / nr-inter=0 / no-constrained-intra / strong-intra-smoothing / max-merge=3 / limit-refs=3 / limit-modes / me=3 / subme=5 / merange=57 / temporal-mvp / weightp / weightb / no-analyze-src-pics / deblock=-3:-3 / no-sao / no-sao-non-deblock / rd=4 / no-early-skip / no-rskip / no-fast-intra / no-tskip-fast / no-cu-lossless / no-b-intra / rdpenalty=0 / psy-rd=1.00 / psy-rdoq=1.50 / no-rd-refine / analysis-reuse-mode=0 / no-lossless / cbqpoffs=0 / crqpoffs=0 / rc=crf / crf=20.0 / qcomp=0.60 / qpstep=4 / stats-write=0 / stats-read=0 / ipratio=1.40 / pbratio=1.30 / aq-mode=3 / aq-strength=1.00 / cutree / zone-count=0 / no-strict-cbr / qg-size=32 / no-rc-grain / qpmax=69 / qpmin=0 / no-const-vbv / sar=0 / overscan=0 / videoformat=5 / range=0 / colorprim=2 / transfer=2 / colormatrix=2 / chromaloc=0 / display-window=0 / max-cll=0,0 / min-luma=0 / max-luma=1023 / log2-max-poc-lsb=8 / vui-timing-info / vui-hrd-info / slices=1 / opt-qp-pps / opt-ref-list-length-pps / no-multi-pass-opt-rps / scenecut-bias=0.05 / no-opt-cu-delta-qp / no-aq-motion / no-hdr / no-hdr-opt / no-dhdr10-opt / analysis-reuse-level=5 / scale-factor=0 / refine-intra=0 / refine-inter=0 / refine-mv=0 / no-limit-sao / ctu-info=0
Default                                  : Yes
Forced                                   : No

Audio
ID                                       : 2
Format                                   : AAC
Format/Info                              : Advanced Audio Codec
Format profile                           : LC
Codec ID                                 : A_AAC
Duration                                 : 56 min 59 s
Bit rate                                 : 137 kb/s
Channel(s)                               : 2 channels
Channel positions                        : Front: L R
Sampling rate                            : 48.0 kHz
Frame rate                               : 46.875 FPS (1024 spf)
Compression mode                         : Lossy
Delay relative to video                  : 20 ms
Stream size                              : 55.7 MiB (3%)
Language                                 : English
Default                                  : Yes
Forced                                   : No

Text
ID                                       : 3
Format                                   : PGS
Muxing mode                              : zlib
Codec ID                                 : S_HDMV/PGS
Codec ID/Info                            : Picture based subtitle format used on BDs/HD-DVDs
Duration                                 : 56 min 44 s
Bit rate                                 : 9 962 b/s
Count of elements                        : 1384
Stream size                              : 4.04 MiB (0%)
Language                                 : English
Default                                  : No
Forced                                   : No

Menu
00:00:00.000                             : en:Chapter 1
00:09:46.600                             : en:Chapter 2
00:24:02.680                             : en:Chapter 3
00:34:29.920                             : en:Chapter 4
00:46:55.640                             : en:Chapter 5

Download

Download: Google Drive (9.88 GB)

Season 02

Peaky Blinders (2013) Season 2 S02 (1080p Bluray x265 HEVC 10bit AAC 2.0 RCVR)

Files

Peaky Blinders (2013) Season 2 S02 (1080p Bluray x265 HEVC 10bit AAC 2.0 RCVR) [UTR]
Peaky Blinders - S02E01 - Episode 1 (1080p Bluray x265 HEVC 10bit AAC 2.0 RCVR) [UTR].mkv - 1 GB
Peaky Blinders - S02E02 - Episode 2 (1080p Bluray x265 HEVC 10bit AAC 2.0 RCVR) [UTR].mkv - 1008.62 MB
Peaky Blinders - S02E03 - Episode 3 (1080p Bluray x265 HEVC 10bit AAC 2.0 RCVR) [UTR].mkv - 956.65 MB
Peaky Blinders - S02E04 - Episode 4 (1080p Bluray x265 HEVC 10bit AAC 2.0 RCVR) [UTR].mkv - 2.11 GB
Peaky Blinders - S02E05 - Episode 5 (1080p Bluray x265 HEVC 10bit AAC 2.0 RCVR) [UTR].mkv - 1.36 GB
Peaky Blinders - S02E06 - Episode 6 (1080p Bluray x265 HEVC 10bit AAC 2.0 RCVR) [UTR].mkv - 1.53 GB

Mediainfo

General
Complete name                            : Peaky Blinders - S02E01 - Episode 1 (1080p Bluray x265 HEVC 10bit AAC 2.0 RCVR) [UTR].mkv
Format                                   : Matroska
Format version                           : Version 4 / Version 2
File size                                : 1.00 GiB
Duration                                 : 58 min 55 s
Overall bit rate                         : 2 440 kb/s
Encoded date                             : UTC 2017-07-19 16:00:47
Writing application                      : mkvmerge v12.0.0 ('Trust / Lust') 64bit
Writing library                          : libebml v1.3.4 + libmatroska v1.4.5
Cover                                    : Yes
Attachments                              : cover.jpg

Video
ID                                       : 1
Format                                   : HEVC
Format/Info                              : High Efficiency Video Coding
Format profile                           : Main [email protected]@Main
Codec ID                                 : V_MPEGH/ISO/HEVC
Duration                                 : 58 min 55 s
Bit rate                                 : 2 296 kb/s
Width                                    : 1 920 pixels
Height                                   : 1 036 pixels
Display aspect ratio                     : 1.85:1
Frame rate mode                          : Constant
Frame rate                               : 25.000 FPS
Color space                              : YUV
Chroma subsampling                       : 4:2:0
Bit depth                                : 10 bits
Bits/(Pixel*Frame)                       : 0.046
Stream size                              : 967 MiB (94%)
Writing library                          : x265 2.5+3-3f6841d271e3:[Windows][MSVC 1910][64 bit] 10bit
Encoding settings                        : cpuid=1173503 / frame-threads=3 / numa-pools=8 / wpp / no-pmode / no-pme / no-psnr / no-ssim / log-level=2 / input-csp=1 / input-res=1920x1036 / interlace=0 / total-frames=88376 / level-idc=0 / high-tier=1 / uhd-bd=0 / ref=5 / no-allow-non-conformance / no-repeat-headers / annexb / no-aud / no-hrd / info / hash=0 / no-temporal-layers / open-gop / min-keyint=25 / keyint=250 / bframes=8 / b-adapt=2 / b-pyramid / bframe-bias=0 / rc-lookahead=80 / lookahead-slices=4 / scenecut=40 / no-intra-refresh / ctu=64 / min-cu-size=8 / rect / no-amp / max-tu-size=32 / tu-inter-depth=1 / tu-intra-depth=1 / limit-tu=0 / rdoq-level=2 / dynamic-rd=0.00 / no-ssim-rd / signhide / no-tskip / nr-intra=0 / nr-inter=0 / no-constrained-intra / strong-intra-smoothing / max-merge=3 / limit-refs=3 / limit-modes / me=3 / subme=5 / merange=57 / temporal-mvp / weightp / weightb / no-analyze-src-pics / deblock=-3:-3 / no-sao / no-sao-non-deblock / rd=4 / no-early-skip / no-rskip / no-fast-intra / no-tskip-fast / no-cu-lossless / no-b-intra / rdpenalty=0 / psy-rd=1.00 / psy-rdoq=1.50 / no-rd-refine / analysis-reuse-mode=0 / no-lossless / cbqpoffs=0 / crqpoffs=0 / rc=crf / crf=20.0 / qcomp=0.60 / qpstep=4 / stats-write=0 / stats-read=0 / ipratio=1.40 / pbratio=1.30 / aq-mode=3 / aq-strength=1.00 / cutree / zone-count=0 / no-strict-cbr / qg-size=32 / no-rc-grain / qpmax=69 / qpmin=0 / no-const-vbv / sar=0 / overscan=0 / videoformat=5 / range=0 / colorprim=2 / transfer=2 / colormatrix=2 / chromaloc=0 / display-window=0 / max-cll=0,0 / min-luma=0 / max-luma=1023 / log2-max-poc-lsb=8 / vui-timing-info / vui-hrd-info / slices=1 / opt-qp-pps / opt-ref-list-length-pps / no-multi-pass-opt-rps / scenecut-bias=0.05 / no-opt-cu-delta-qp / no-aq-motion / no-hdr / no-hdr-opt / no-dhdr10-opt / analysis-reuse-level=5 / scale-factor=0 / refine-intra=0 / refine-inter=0 / refine-mv=0 / no-limit-sao / ctu-info=0
Default                                  : Yes
Forced                                   : No

Audio
ID                                       : 2
Format                                   : AAC
Format/Info                              : Advanced Audio Codec
Format profile                           : LC
Codec ID                                 : A_AAC
Duration                                 : 58 min 55 s
Bit rate                                 : 132 kb/s
Channel(s)                               : 2 channels
Channel positions                        : Front: L R
Sampling rate                            : 48.0 kHz
Frame rate                               : 46.875 FPS (1024 spf)
Compression mode                         : Lossy
Delay relative to video                  : 20 ms
Stream size                              : 55.7 MiB (5%)
Language                                 : English
Default                                  : Yes
Forced                                   : No

Text
ID                                       : 3
Format                                   : PGS
Muxing mode                              : zlib
Codec ID                                 : S_HDMV/PGS
Codec ID/Info                            : Picture based subtitle format used on BDs/HD-DVDs
Duration                                 : 58 min 10 s
Bit rate                                 : 9 689 b/s
Count of elements                        : 1440
Stream size                              : 4.03 MiB (0%)
Language                                 : English
Default                                  : No
Forced                                   : No

Menu
00:00:00.000                             : en:Chapter 1
00:07:26.000                             : en:Chapter 2
00:14:37.120                             : en:Chapter 3
00:20:43.720                             : en:Chapter 4
00:29:04.880                             : en:Chapter 5
00:36:02.040                             : en:Chapter 6
00:42:06.440                             : en:Chapter 7
00:48:19.160                             : en:Chapter 8

Download

Download: Google Drive (7.92 GB)

Season 03

Peaky Blinders (2013) Season 3 S03 (1080p Bluray x265 HEVC 10bit AAC 5.1 RCVR)

Files

Peaky Blinders (2013) Season 3 S03 (1080p Bluray x265 HEVC 10bit AAC 5.1 RCVR) [UTR]
Peaky Blinders - S03E01 - Episode 1 (1080p Bluray x265 HEVC 10bit AAC 5.1 RCVR) [UTR].mkv - 1.1 GB
Peaky Blinders - S03E02 - Episode 2 (1080p Bluray x265 HEVC 10bit AAC 5.1 RCVR) [UTR].mkv - 1.25 GB
Peaky Blinders - S03E03 - Episode 3 (1080p Bluray x265 HEVC 10bit AAC 5.1 RCVR) [UTR].mkv - 1.09 GB
Peaky Blinders - S03E04 - Episode 4 (1080p Bluray x265 HEVC 10bit AAC 5.1 RCVR) [UTR].mkv - 1.23 GB
Peaky Blinders - S03E05 - Episode 5 (1080p Bluray x265 HEVC 10bit AAC 5.1 RCVR) [UTR].mkv - 1.17 GB
Peaky Blinders - S03E06 - Episode 6 (1080p Bluray x265 HEVC 10bit AAC 5.1 RCVR) [UTR].mkv - 1.02 GB

Mediainfo

General
Complete name                            : Peaky Blinders - S03E01 - Episode 1 (1080p Bluray x265 HEVC 10bit AAC 5.1 RCVR) [UTR].mkv
Format                                   : Matroska
Format version                           : Version 4 / Version 2
File size                                : 1.10 GiB
Duration                                 : 55 min 42 s
Overall bit rate                         : 2 817 kb/s
Encoded date                             : UTC 2017-07-22 17:36:16
Writing application                      : mkvmerge v12.0.0 ('Trust / Lust') 64bit
Writing library                          : libebml v1.3.4 + libmatroska v1.4.5
Cover                                    : Yes
Attachments                              : cover.jpg

Video
ID                                       : 1
Format                                   : HEVC
Format/Info                              : High Efficiency Video Coding
Format profile                           : Main [email protected]@Main
Codec ID                                 : V_MPEGH/ISO/HEVC
Duration                                 : 55 min 42 s
Bit rate                                 : 2 415 kb/s
Width                                    : 1 920 pixels
Height                                   : 1 036 pixels
Display aspect ratio                     : 1.85:1
Frame rate mode                          : Constant
Frame rate                               : 25.000 FPS
Color space                              : YUV
Chroma subsampling                       : 4:2:0
Bit depth                                : 10 bits
Bits/(Pixel*Frame)                       : 0.049
Stream size                              : 962 MiB (86%)
Writing library                          : x265 2.5+3-3f6841d271e3:[Windows][MSVC 1910][64 bit] 10bit
Encoding settings                        : cpuid=1173503 / frame-threads=3 / numa-pools=8 / wpp / no-pmode / no-pme / no-psnr / no-ssim / log-level=2 / input-csp=1 / input-res=1920x1036 / interlace=0 / total-frames=83551 / level-idc=0 / high-tier=1 / uhd-bd=0 / ref=5 / no-allow-non-conformance / no-repeat-headers / annexb / no-aud / no-hrd / info / hash=0 / no-temporal-layers / open-gop / min-keyint=25 / keyint=250 / bframes=8 / b-adapt=2 / b-pyramid / bframe-bias=0 / rc-lookahead=80 / lookahead-slices=4 / scenecut=40 / no-intra-refresh / ctu=64 / min-cu-size=8 / rect / no-amp / max-tu-size=32 / tu-inter-depth=1 / tu-intra-depth=1 / limit-tu=0 / rdoq-level=2 / dynamic-rd=0.00 / no-ssim-rd / signhide / no-tskip / nr-intra=0 / nr-inter=0 / no-constrained-intra / strong-intra-smoothing / max-merge=3 / limit-refs=3 / limit-modes / me=3 / subme=5 / merange=57 / temporal-mvp / weightp / weightb / no-analyze-src-pics / deblock=-3:-3 / no-sao / no-sao-non-deblock / rd=4 / no-early-skip / no-rskip / no-fast-intra / no-tskip-fast / no-cu-lossless / no-b-intra / rdpenalty=0 / psy-rd=1.00 / psy-rdoq=1.50 / no-rd-refine / analysis-reuse-mode=0 / no-lossless / cbqpoffs=0 / crqpoffs=0 / rc=crf / crf=20.0 / qcomp=0.60 / qpstep=4 / stats-write=0 / stats-read=0 / ipratio=1.40 / pbratio=1.30 / aq-mode=3 / aq-strength=1.00 / cutree / zone-count=0 / no-strict-cbr / qg-size=32 / no-rc-grain / qpmax=69 / qpmin=0 / no-const-vbv / sar=0 / overscan=0 / videoformat=5 / range=0 / colorprim=2 / transfer=2 / colormatrix=2 / chromaloc=0 / display-window=0 / max-cll=0,0 / min-luma=0 / max-luma=1023 / log2-max-poc-lsb=8 / vui-timing-info / vui-hrd-info / slices=1 / opt-qp-pps / opt-ref-list-length-pps / no-multi-pass-opt-rps / scenecut-bias=0.05 / no-opt-cu-delta-qp / no-aq-motion / no-hdr / no-hdr-opt / no-dhdr10-opt / analysis-reuse-level=5 / scale-factor=0 / refine-intra=0 / refine-inter=0 / refine-mv=0 / no-limit-sao / ctu-info=0
Default                                  : Yes
Forced                                   : No

Audio
ID                                       : 2
Format                                   : AAC
Format/Info                              : Advanced Audio Codec
Format profile                           : LC
Codec ID                                 : A_AAC
Duration                                 : 55 min 42 s
Bit rate                                 : 384 kb/s
Channel(s)                               : 6 channels
Channel positions                        : Front: L C R, Side: L R, LFE
Sampling rate                            : 48.0 kHz
Frame rate                               : 46.875 FPS (1024 spf)
Compression mode                         : Lossy
Delay relative to video                  : 20 ms
Stream size                              : 155 MiB (14%)
Language                                 : English
Default                                  : Yes
Forced                                   : No

Text
ID                                       : 3
Format                                   : PGS
Muxing mode                              : zlib
Codec ID                                 : S_HDMV/PGS
Codec ID/Info                            : Picture based subtitle format used on BDs/HD-DVDs
Duration                                 : 55 min 7 s
Bit rate                                 : 9 847 b/s
Count of elements                        : 1389
Stream size                              : 3.88 MiB (0%)
Language                                 : English
Default                                  : No
Forced                                   : No

Menu
00:00:00.000                             : en:Chapter 1
00:08:23.400                             : en:Chapter 2
00:19:11.120                             : en:Chapter 3
00:29:14.400                             : en:Chapter 4
00:40:48.640                             : en:Chapter 5
00:49:48.360                             : en:Chapter 6

Download

Download: Google Drive (6.86 GB)

Season 04

Peaky Blinders (2013) Season 4 S04 (1080p BluRay x265 HEVC 10bit AAC 5.1 RCVR)

Files

Peaky Blinders (2013) Season 4 S04 (1080p BluRay x265 HEVC 10bit AAC 5.1 RCVR)
Peaky Blinders (2013) - S04E01 - The Noose (1080p BluRay x265 RCVR).mkv (1.5 GB)
Peaky Blinders (2013) - S04E02 - Heathens (1080p BluRay x265 RCVR).mkv (1.2 GB)
Peaky Blinders (2013) - S04E03 - Blackbird (1080p BluRay x265 RCVR).mkv (1.3 GB)
Peaky Blinders (2013) - S04E04 - Dangerous (1080p BluRay x265 RCVR).mkv (1.2 GB)
Peaky Blinders (2013) - S04E05 - The Duel (1080p BluRay x265 RCVR).mkv (1.3 GB)
Peaky Blinders (2013) - S04E06 - The Company (1080p BluRay x265 RCVR).mkv (1.3 GB)

Mediainfo

General
Complete name                            : Peaky Blinders (2013) - S04E01 - The Noose (1080p BluRay x265 RCVR).mkv
Format                                   : Matroska
Format version                           : Version 4 / Version 2
File size                                : 1.47 GiB
Duration                                 : 57 min 54 s
Overall bit rate                         : 3 643 kb/s
Movie name                               : Peaky Blinders S4 D1
Encoded date                             : UTC 2018-03-04 03:20:44
Writing application                      : mkvmerge v12.0.0 ('Trust / Lust') 64bit
Writing library                          : libebml v1.3.4 + libmatroska v1.4.5
Cover                                    : Yes
Attachments                              : cover.jpg

Video
ID                                       : 1
Format                                   : HEVC
Format/Info                              : High Efficiency Video Coding
Format profile                           : Main [email protected]@Main
Codec ID                                 : V_MPEGH/ISO/HEVC
Duration                                 : 57 min 54 s
Bit rate                                 : 3 234 kb/s
Width                                    : 1 920 pixels
Height                                   : 1 036 pixels
Display aspect ratio                     : 1.85:1
Frame rate mode                          : Constant
Frame rate                               : 25.000 FPS
Color space                              : YUV
Chroma subsampling                       : 4:2:0
Bit depth                                : 10 bits
Bits/(Pixel*Frame)                       : 0.065
Stream size                              : 1.31 GiB (89%)
Writing library                          : x265 2.7+1-2aa737a99f51:[Windows][MSVC 1900][64 bit] 10bit
Encoding settings                        : cpuid=1173503 / frame-threads=3 / numa-pools=8 / wpp / no-pmode / no-pme / no-psnr / no-ssim / log-level=2 / input-csp=1 / input-res=1920x1036 / interlace=0 / total-frames=86851 / level-idc=0 / high-tier=1 / uhd-bd=0 / ref=5 / no-allow-non-conformance / no-repeat-headers / annexb / no-aud / no-hrd / info / hash=0 / no-temporal-layers / open-gop / min-keyint=25 / keyint=250 / gop-lookahead=0 / bframes=8 / b-adapt=2 / b-pyramid / bframe-bias=0 / rc-lookahead=80 / lookahead-slices=4 / scenecut=40 / radl=0 / no-intra-refresh / ctu=64 / min-cu-size=8 / rect / no-amp / max-tu-size=32 / tu-inter-depth=1 / tu-intra-depth=1 / limit-tu=0 / rdoq-level=2 / dynamic-rd=0.00 / no-ssim-rd / signhide / no-tskip / nr-intra=0 / nr-inter=0 / no-constrained-intra / no-strong-intra-smoothing / max-merge=4 / limit-refs=3 / limit-modes / me=3 / subme=5 / merange=57 / temporal-mvp / weightp / weightb / no-analyze-src-pics / deblock=-3:-3 / no-sao / no-sao-non-deblock / rd=4 / no-early-skip / no-rskip / no-fast-intra / no-tskip-fast / no-cu-lossless / no-b-intra / no-splitrd-skip / rdpenalty=0 / psy-rd=1.50 / psy-rdoq=2.00 / no-rd-refine / no-lossless / cbqpoffs=0 / crqpoffs=0 / rc=crf / crf=20.0 / qcomp=0.60 / qpstep=4 / stats-write=0 / stats-read=0 / ipratio=1.40 / pbratio=1.30 / aq-mode=3 / aq-strength=1.00 / cutree / zone-count=0 / no-strict-cbr / qg-size=32 / no-rc-grain / qpmax=69 / qpmin=0 / no-const-vbv / sar=0 / overscan=0 / videoformat=5 / range=0 / colorprim=2 / transfer=2 / colormatrix=2 / chromaloc=0 / display-window=0 / max-cll=0,0 / min-luma=0 / max-luma=1023 / log2-max-poc-lsb=8 / vui-timing-info / vui-hrd-info / slices=1 / no-opt-qp-pps / no-opt-ref-list-length-pps / no-multi-pass-opt-rps / scenecut-bias=0.05 / no-opt-cu-delta-qp / no-aq-motion / no-hdr / no-hdr-opt / no-dhdr10-opt / analysis-reuse-level=5 / scale-factor=0 / refine-intra=0 / refine-inter=0 / refine-mv=0 / no-limit-sao / ctu-info=0 / no-lowpass-dct / refine-mv-type=0 / copy-pic=1
Default                                  : Yes
Forced                                   : No

Audio
ID                                       : 2
Format                                   : AAC
Format/Info                              : Advanced Audio Codec
Format profile                           : LC
Codec ID                                 : A_AAC
Duration                                 : 57 min 54 s
Bit rate                                 : 395 kb/s
Channel(s)                               : 6 channels
Channel positions                        : Front: L C R, Side: L R, LFE
Sampling rate                            : 48.0 kHz
Frame rate                               : 46.875 FPS (1024 spf)
Compression mode                         : Lossy
Delay relative to video                  : 20 ms
Stream size                              : 163 MiB (11%)
Language                                 : English
Default                                  : Yes
Forced                                   : No

Text
ID                                       : 3
Format                                   : PGS
Muxing mode                              : zlib
Codec ID                                 : S_HDMV/PGS
Codec ID/Info                            : Picture based subtitle format used on BDs/HD-DVDs
Duration                                 : 57 min 13 s
Bit rate                                 : 10.8 kb/s
Count of elements                        : 1564
Stream size                              : 4.44 MiB (0%)
Language                                 : English
Default                                  : No
Forced                                   : No

Menu
00:00:00.000                             : en:Chapter 01
00:10:07.840                             : en:Chapter 02
00:19:53.600                             : en:Chapter 03
00:31:42.720                             : en:Chapter 04
00:40:09.400                             : en:Chapter 05
00:46:17.520                             : en:Chapter 06

Download

Download: Google Drive (7.75 GB)

Leave a Reply

Your email address will not be published. Required fields are marked *