Lost in Space (2018) Season 1 (1080p NF WEBRip x265 HEVC 10bit AAC 5.1 MONOLITH)

Info

Image result for Lost in Space (2018) poster

Plot: After crash-landing on an alien planet, the Robinson family fight against all odds to survive and escape, but they’re surrounded by hidden dangers.

Files

Lost in Space (2018) Season 1 S01 (1080p NF WEBRip x265 HEVC 10bit AAC 5.1 MONOLITH)
Lost in Space (2018) - S01E01 - Impact (1080p NF WEBRip x265 MONOLITH).mkv (2.1 GB)
Lost in Space (2018) - S01E02 - Diamonds in the Sky (1080p NF WEBRip x265 MONOLITH).mkv (2.0 GB)
Lost in Space (2018) - S01E03 - Infestation (1080p NF WEBRip x265 MONOLITH).mkv (1.5 GB)
Lost in Space (2018) - S01E04 - The Robinsons Were Here (1080p NF WEBRip x265 MONOLITH).mkv (1.7 GB)
Lost in Space (2018) - S01E05 - Transmission (1080p NF WEBRip x265 MONOLITH).mkv (1.0 GB)
Lost in Space (2018) - S01E06 - Eulogy (1080p NF WEBRip x265 MONOLITH).mkv (1.6 GB)
Lost in Space (2018) - S01E07 - Pressurized (1080p NF WEBRip x265 MONOLITH).mkv (1.6 GB)
Lost in Space (2018) - S01E08 - Trajectory (1080p NF WEBRip x265 MONOLITH).mkv (1.3 GB)
Lost in Space (2018) - S01E09 - Resurrection (1080p NF WEBRip x265 MONOLITH).mkv (1.1 GB)
Lost in Space (2018) - S01E10 - Danger, Will Robinson (1080p NF WEBRip x265 MONOLITH).mkv (1.2 GB)

Mediainfo

General 
Format : Matroska 
Format version : Version 4 / Version 2 
File size : 2.10 GiB 
Duration : 1 h 3 min 
Overall bit rate : 4 725 kb/s 
Encoded date : UTC 2018-10-28 16:09:15 
Writing application : mkvmerge v26.0.0 ('In The Game') 64-bit 
Writing library : libebml v1.3.6 + libmatroska v1.4.9 
Writing frontend : StaxRip v1.9.0.0 

Video 
ID : 1 
Format : HEVC 
Format/Info : High Efficiency Video Coding 
Format profile : Main [email protected]@Main 
Codec ID : V_MPEGH/ISO/HEVC 
Duration : 1 h 3 min 
Bit rate : 4 309 kb/s 
Width : 1 920 pixels 
Height : 960 pixels 
Display aspect ratio : 2.000 
Frame rate mode : Constant 
Frame rate : 23.976 (24000/1001) FPS 
Color space : YUV 
Chroma subsampling : 4:2:0 
Bit depth : 10 bits 
Bits/(Pixel*Frame) : 0.098 
Stream size : 1.91 GiB (91%) 
Title : Encoded by MONOLITH 
Writing library : x265 2.8+69-856f056d392e:[Windows][MSVC 1915][64 bit] 10bit 
Encoding settings : cpuid=1111039 / frame-threads=3 / numa-pools=12 / wpp / no-pmode / no-pme / no-psnr / no-ssim / log-level=2 / input-csp=1 / input-res=1920x960 / interlace=0 / total-frames=91497 / level-idc=0 / high-tier=1 / uhd-bd=0 / ref=4 / no-allow-non-conformance / no-repeat-headers / annexb / no-aud / no-hrd / info / hash=0 / no-temporal-layers / open-gop / min-keyint=23 / keyint=250 / gop-lookahead=0 / bframes=8 / b-adapt=2 / b-pyramid / bframe-bias=0 / rc-lookahead=80 / lookahead-slices=4 / scenecut=40 / radl=0 / no-intra-refresh / ctu=64 / min-cu-size=8 / rect / no-amp / max-tu-size=32 / tu-inter-depth=1 / tu-intra-depth=1 / limit-tu=0 / rdoq-level=2 / dynamic-rd=0.00 / no-ssim-rd / signhide / no-tskip / nr-intra=0 / nr-inter=0 / no-constrained-intra / no-strong-intra-smoothing / max-merge=3 / limit-refs=3 / limit-modes / me=3 / subme=3 / merange=57 / temporal-mvp / weightp / no-weightb / no-analyze-src-pics / deblock=-3:-3 / no-sao / no-sao-non-deblock / rd=4 / no-early-skip / rskip / no-fast-intra / no-tskip-fast / no-cu-lossless / no-b-intra / no-splitrd-skip / rdpenalty=0 / psy-rd=1.60 / psy-rdoq=1.50 / no-rd-refine / no-lossless / cbqpoffs=0 / crqpoffs=0 / rc=crf / crf=20.5 / qcomp=0.60 / qpstep=4 / stats-write=0 / stats-read=0 / ipratio=1.40 / pbratio=1.30 / aq-mode=3 / aq-strength=1.00 / cutree / zone-count=0 / no-strict-cbr / qg-size=32 / no-rc-grain / qpmax=69 / qpmin=0 / no-const-vbv / sar=0 / overscan=0 / videoformat=5 / range=0 / colorprim=2 / transfer=2 / colormatrix=2 / chromaloc=0 / display-window=0 / max-cll=0,0 / min-luma=0 / max-luma=1023 / log2-max-poc-lsb=8 / vui-timing-info / vui-hrd-info / slices=1 / no-opt-qp-pps / no-opt-ref-list-length-pps / no-multi-pass-opt-rps / scenecut-bias=0.05 / no-opt-cu-delta-qp / no-aq-motion / no-hdr / no-hdr-opt / no-dhdr10-opt / no-idr-recovery-sei / analysis-reuse-level=5 / scale-factor=0 / refine-intra=0 / refine-inter=0 / refine-mv=0 / no-limit-sao / ctu-info=0 / no-lowpass-dct / refine-mv-type=0 / copy-pic=1 / max-ausize-factor=1.0 / no-dynamic-refine / no-single-sei 
Default : Yes 
Forced : No 

Audio 
ID : 2 
Format : AAC 
Format/Info : Advanced Audio Codec 
Format profile : LC 
Codec ID : A_AAC 
Duration : 1 h 2 min 
Bit rate : 417 kb/s 
Channel(s) : 6 channels 
Channel positions : Front: L C R, Side: L R, LFE 
Sampling rate : 48.0 kHz 
Frame rate : 46.875 FPS (1024 spf) 
Compression mode : Lossy 
Delay relative to video : 20 ms 
Stream size : 187 MiB (9%) 
Language : English 
Default : No 
Forced : No 

Subtitle #1 
ID : 3 
Format : UTF-8 
Codec ID : S_TEXT/UTF8 
Codec ID/Info : UTF-8 Plain Text 
Duration : 59 min 45 s 
Bit rate : 45 b/s 
Count of elements : 649 
Stream size : 20.0 KiB (0%) 
Language : English 
Default : No 
Forced : No 

Subtitle #2 
ID : 4 
Format : UTF-8 
Codec ID : S_TEXT/UTF8 
Codec ID/Info : UTF-8 Plain Text 
Duration : 59 min 52 s 
Bit rate : 55 b/s 
Count of elements : 793 
Stream size : 24.2 KiB (0%) 
Title : SDH 
Language : English 
Default : No 
Forced : No 

Subtitle #3 
ID : 5 
Format : UTF-8 
Codec ID : S_TEXT/UTF8 
Codec ID/Info : UTF-8 Plain Text 
Duration : 59 min 49 s 
Bit rate : 69 b/s 
Count of elements : 656 
Stream size : 30.7 KiB (0%) 
Language : Arabic 
Default : No 
Forced : No 

Subtitle #4 
ID : 6 
Format : UTF-8 
Codec ID : S_TEXT/UTF8 
Codec ID/Info : UTF-8 Plain Text 
Duration : 59 min 49 s 
Bit rate : 38 b/s 
Count of elements : 608 
Stream size : 17.1 KiB (0%) 
Language : Danish 
Default : No 
Forced : No 

Subtitle #5 
ID : 7 
Format : UTF-8 
Codec ID : S_TEXT/UTF8 
Codec ID/Info : UTF-8 Plain Text 
Duration : 59 min 49 s 
Bit rate : 40 b/s 
Count of elements : 623 
Stream size : 18.0 KiB (0%) 
Language : German 
Default : No 
Forced : No 

Subtitle #6 
ID : 8 
Format : UTF-8 
Codec ID : S_TEXT/UTF8 
Codec ID/Info : UTF-8 Plain Text 
Duration : 59 min 48 s 
Bit rate : 72 b/s 
Count of elements : 687 
Stream size : 32.0 KiB (0%) 
Language : Greek 
Default : No 
Forced : No 

Subtitle #7 
ID : 9 
Format : UTF-8 
Codec ID : S_TEXT/UTF8 
Codec ID/Info : UTF-8 Plain Text 
Duration : 59 min 49 s 
Bit rate : 42 b/s 
Count of elements : 650 
Stream size : 18.4 KiB (0%) 
Title : European 
Language : Spanish 
Default : No 
Forced : No 

Subtitle #8 
ID : 10 
Format : UTF-8 
Codec ID : S_TEXT/UTF8 
Codec ID/Info : UTF-8 Plain Text 
Duration : 59 min 49 s 
Bit rate : 42 b/s 
Count of elements : 654 
Stream size : 18.7 KiB (0%) 
Language : Spanish 
Default : No 
Forced : No 

Subtitle #9 
ID : 11 
Format : UTF-8 
Codec ID : S_TEXT/UTF8 
Codec ID/Info : UTF-8 Plain Text 
Duration : 59 min 49 s 
Bit rate : 39 b/s 
Count of elements : 588 
Stream size : 17.1 KiB (0%) 
Language : Finnish 
Default : No 
Forced : No 

Subtitle #10 
ID : 12 
Format : UTF-8 
Codec ID : S_TEXT/UTF8 
Codec ID/Info : UTF-8 Plain Text 
Duration : 59 min 49 s 
Bit rate : 42 b/s 
Count of elements : 622 
Stream size : 18.6 KiB (0%) 
Language : French 
Default : No 
Forced : No 

Subtitle #11 
ID : 13 
Format : UTF-8 
Codec ID : S_TEXT/UTF8 
Codec ID/Info : UTF-8 Plain Text 
Duration : 59 min 49 s 
Bit rate : 64 b/s 
Count of elements : 647 
Stream size : 28.2 KiB (0%) 
Language : Hebrew 
Default : No 
Forced : No 

Subtitle #12 
ID : 14 
Format : UTF-8 
Codec ID : S_TEXT/UTF8 
Codec ID/Info : UTF-8 Plain Text 
Duration : 59 min 49 s 
Bit rate : 42 b/s 
Count of elements : 641 
Stream size : 18.5 KiB (0%) 
Language : Italian 
Default : No 
Forced : No 

Subtitle #13 
ID : 15 
Format : UTF-8 
Codec ID : S_TEXT/UTF8 
Codec ID/Info : UTF-8 Plain Text 
Duration : 59 min 49 s 
Bit rate : 36 b/s 
Count of elements : 729 
Stream size : 16.2 KiB (0%) 
Language : Japanese 
Default : No 
Forced : No 

Subtitle #14 
ID : 16 
Format : UTF-8 
Codec ID : S_TEXT/UTF8 
Codec ID/Info : UTF-8 Plain Text 
Duration : 59 min 49 s 
Bit rate : 44 b/s 
Count of elements : 651 
Stream size : 19.4 KiB (0%) 
Language : Korean 
Default : No 
Forced : No 

Subtitle #15 
ID : 17 
Format : UTF-8 
Codec ID : S_TEXT/UTF8 
Codec ID/Info : UTF-8 Plain Text 
Duration : 59 min 49 s 
Bit rate : 41 b/s 
Count of elements : 643 
Stream size : 18.0 KiB (0%) 
Language : Norwegian Bokmal 
Default : No 
Forced : No 

Subtitle #16 
ID : 18 
Format : UTF-8 
Codec ID : S_TEXT/UTF8 
Codec ID/Info : UTF-8 Plain Text 
Duration : 59 min 49 s 
Bit rate : 36 b/s 
Count of elements : 584 
Stream size : 16.0 KiB (0%) 
Language : Dutch 
Default : No 
Forced : No 

Subtitle #17 
ID : 19 
Format : UTF-8 
Codec ID : S_TEXT/UTF8 
Codec ID/Info : UTF-8 Plain Text 
Duration : 59 min 49 s 
Bit rate : 39 b/s 
Count of elements : 656 
Stream size : 17.5 KiB (0%) 
Language : Polish 
Default : No 
Forced : No 

Subtitle #18 
ID : 20 
Format : UTF-8 
Codec ID : S_TEXT/UTF8 
Codec ID/Info : UTF-8 Plain Text 
Duration : 59 min 49 s 
Bit rate : 41 b/s 
Count of elements : 651 
Stream size : 18.3 KiB (0%) 
Language : Portuguese 
Default : No 
Forced : No 

Subtitle #19 
ID : 21 
Format : UTF-8 
Codec ID : S_TEXT/UTF8 
Codec ID/Info : UTF-8 Plain Text 
Duration : 59 min 48 s 
Bit rate : 40 b/s 
Count of elements : 656 
Stream size : 17.6 KiB (0%) 
Title : Brazilian 
Language : Portuguese 
Default : No 
Forced : No 

Subtitle #20 
ID : 22 
Format : UTF-8 
Codec ID : S_TEXT/UTF8 
Codec ID/Info : UTF-8 Plain Text 
Duration : 59 min 48 s 
Bit rate : 42 b/s 
Count of elements : 641 
Stream size : 18.5 KiB (0%) 
Language : Romanian 
Default : No 
Forced : No 

Subtitle #21 
ID : 23 
Format : UTF-8 
Codec ID : S_TEXT/UTF8 
Codec ID/Info : UTF-8 Plain Text 
Duration : 59 min 49 s 
Bit rate : 40 b/s 
Count of elements : 618 
Stream size : 17.6 KiB (0%) 
Language : Swedish 
Default : No 
Forced : No 

Subtitle #22 
ID : 24 
Format : UTF-8 
Codec ID : S_TEXT/UTF8 
Codec ID/Info : UTF-8 Plain Text 
Duration : 59 min 49 s 
Bit rate : 109 b/s 
Count of elements : 656 
Stream size : 48.0 KiB (0%) 
Language : Thai 
Default : No 
Forced : No 

Subtitle #23 
ID : 25 
Format : UTF-8 
Codec ID : S_TEXT/UTF8 
Codec ID/Info : UTF-8 Plain Text 
Duration : 59 min 49 s 
Bit rate : 45 b/s 
Count of elements : 652 
Stream size : 19.8 KiB (0%) 
Language : Turkish 
Default : No 
Forced : No 

Subtitle #24 
ID : 26 
Format : UTF-8 
Codec ID : S_TEXT/UTF8 
Codec ID/Info : UTF-8 Plain Text 
Duration : 59 min 49 s 
Bit rate : 41 b/s 
Count of elements : 660 
Stream size : 18.1 KiB (0%) 
Title : Simplified 
Language : Chinese 
Default : No 
Forced : No 

Subtitle #25 
ID : 27 
Format : UTF-8 
Codec ID : S_TEXT/UTF8 
Codec ID/Info : UTF-8 Plain Text 
Duration : 59 min 49 s 
Bit rate : 38 b/s 
Count of elements : 656 
Stream size : 17.0 KiB (0%) 
Title : Traditional 
Language : Chinese 
Default : No 
Forced : No

Screencaps

Download

Download: Google Drive (15.21 GB)

Leave a Reply

Your email address will not be published. Required fields are marked *