Killing Eve (2018) Season 1 (1080p BluRay x265 HEVC 10bit AAC 5.1 Silence)

Info

Plot: When a top international assassin murders an influential politician, she comes up against an equally relentless MI5 intelligence analyst who is determined to bring her to justice.

Files

Killing Eve (2018) Season 1 S01 + Extras (1080p BluRay x265 HEVC 10bit AAC 5.1 Silence)
Killing Eve (2018) - S01E01 - Nice Face (1080p BluRay x265 Silence).mkv (991.8 MB)
Killing Eve (2018) - S01E02 - I'll Deal with Him Later (1080p BluRay x265 Silence).mkv (1.0 GB)
Killing Eve (2018) - S01E03 - Don't I Know You (1080p BluRay x265 Silence).mkv (1.1 GB)
Killing Eve (2018) - S01E04 - Sorry Baby (1080p BluRay x265 Silence).mkv (1.5 GB)
Killing Eve (2018) - S01E05 - I Have a Thing About Bathrooms (1080p BluRay x265 Silence).mkv (1.2 GB)
Killing Eve (2018) - S01E06 - Take Me to the Hole! (1080p BluRay x265 Silence).mkv (811.8 MB)
Killing Eve (2018) - S01E07 - I Don’t Want to Be Free (1080p BluRay x265 Silence).mkv (833.2 MB)
Killing Eve (2018) - S01E08 - God, I'm Tired (1080p BluRay x265 Silence).mkv (1.2 GB)

Featurettes
Art of The Kill.mkv (20.1 MB)
Creating The Show.mkv (31.8 MB)
Creating Villanelle's World.mkv (30.2 MB)
Eve & Villanelle.mkv (24.2 MB)
Eve's Obsession.mkv (25.6 MB)
Menu Art.mkv (4.2 MB)
The Locations.mkv (34.4 MB)
The MI6 Team.mkv (21.1 MB)
Villanelle's First Hit In Tuscany.mkv (40.8 MB)

Mediainfo

General 
Format : Matroska 
Format version : Version 4 / Version 2 
File size : 992 MiB 
Duration : 42 min 31 s 
Overall bit rate : 3 261 kb/s 
Encoded date : UTC 2018-10-11 02:11:43 
Writing application : mkvmerge v20.0.0 ('I Am The Sun') 64-bit 
Writing library : libebml v1.3.5 + libmatroska v1.4.8 
Writing frontend : StaxRip v1.7.0.6 

Video 
ID : 1 
Format : HEVC 
Format/Info : High Efficiency Video Coding 
Format profile : Main [email protected]@Main 
Codec ID : V_MPEGH/ISO/HEVC 
Duration : 42 min 31 s 
Bit rate : 2 991 kb/s 
Width : 1 920 pixels 
Height : 1 080 pixels 
Display aspect ratio : 16:9 
Frame rate mode : Constant 
Frame rate : 23.976 (24000/1001) FPS 
Color space : YUV 
Chroma subsampling : 4:2:0 
Bit depth : 10 bits 
Bits/(Pixel*Frame) : 0.060 
Stream size : 910 MiB (92%) 
Writing library : x265 2.9+1-169e76b6bbcc:[Windows][MSVC 1900][64 bit] 10bit 
Encoding settings : cpuid=1111039 / frame-threads=3 / numa-pools=8 / wpp / no-pmode / no-pme / no-psnr / no-ssim / log-level=2 / input-csp=1 / input-res=1920x1080 / interlace=0 / total-frames=61163 / level-idc=0 / high-tier=1 / uhd-bd=0 / ref=5 / no-allow-non-conformance / no-repeat-headers / annexb / no-aud / no-hrd / info / hash=0 / no-temporal-layers / open-gop / min-keyint=23 / keyint=250 / gop-lookahead=0 / bframes=8 / b-adapt=2 / b-pyramid / bframe-bias=0 / rc-lookahead=80 / lookahead-slices=4 / scenecut=40 / radl=0 / no-intra-refresh / ctu=64 / min-cu-size=8 / no-rect / no-amp / max-tu-size=32 / tu-inter-depth=1 / tu-intra-depth=1 / limit-tu=0 / rdoq-level=2 / dynamic-rd=0.00 / no-ssim-rd / signhide / no-tskip / nr-intra=0 / nr-inter=0 / no-constrained-intra / no-strong-intra-smoothing / max-merge=3 / limit-refs=3 / limit-modes / me=3 / subme=5 / merange=57 / temporal-mvp / weightp / weightb / no-analyze-src-pics / deblock=-3:-3 / no-sao / no-sao-non-deblock / rd=4 / no-early-skip / rskip / no-fast-intra / no-tskip-fast / no-cu-lossless / b-intra / no-splitrd-skip / rdpenalty=0 / psy-rd=1.50 / psy-rdoq=2.00 / no-rd-refine / no-lossless / cbqpoffs=0 / crqpoffs=0 / rc=crf / crf=19.0 / qcomp=0.60 / qpstep=4 / stats-write=0 / stats-read=0 / ipratio=1.40 / pbratio=1.30 / aq-mode=3 / aq-strength=1.00 / cutree / zone-count=0 / no-strict-cbr / qg-size=32 / no-rc-grain / qpmax=69 / qpmin=0 / no-const-vbv / sar=0 / overscan=0 / videoformat=5 / range=0 / colorprim=2 / transfer=2 / colormatrix=2 / chromaloc=0 / display-window=0 / max-cll=0,0 / min-luma=0 / max-luma=1023 / log2-max-poc-lsb=8 / vui-timing-info / vui-hrd-info / slices=1 / no-opt-qp-pps / no-opt-ref-list-length-pps / no-multi-pass-opt-rps / scenecut-bias=0.05 / no-opt-cu-delta-qp / no-aq-motion / no-hdr / no-hdr-opt / no-dhdr10-opt / no-idr-recovery-sei / analysis-reuse-level=5 / scale-factor=0 / refine-intra=0 / refine-inter=0 / refine-mv=0 / no-limit-sao / ctu-info=0 / no-lowpass-dct / refine-mv-type=0 / copy-pic=1 / max-ausize-factor=1.0 / no-dynamic-refine / no-single-sei 
Default : Yes 
Forced : No 

Audio 
ID : 2 
Format : AAC 
Format/Info : Advanced Audio Codec 
Format profile : LC 
Codec ID : A_AAC 
Duration : 42 min 31 s 
Bit rate : 254 kb/s 
Channel(s) : 6 channels 
Channel positions : Front: L C R, Side: L R, LFE 
Sampling rate : 48.0 kHz 
Frame rate : 46.875 FPS (1024 spf) 
Compression mode : Lossy 
Delay relative to video : 20 ms 
Stream size : 77.1 MiB (8%) 
Language : English 
Default : Yes 
Forced : No 

Subtitle 
ID : 3 
Format : PGS 
Muxing mode : zlib 
Codec ID : S_HDMV/PGS 
Codec ID/Info : Picture based subtitle format used on BDs/HD-DVDs 
Duration : 41 min 49 s 
Bit rate : 45.0 kb/s 
Count of elements : 882 
Stream size : 13.5 MiB (1%) 
Language : English 
Default : No 
Forced : No 

Menu 
00:00:00.000 : :Chapter 1 
00:07:06.176 : :Chapter 2 
00:14:27.575 : :Chapter 3 
00:20:35.776 : :Chapter 4 
00:27:09.628 : :Chapter 5 
00:32:41.376 : :Chapter 6 
00:39:06.469 : :Chapter 7 
00:41:59.434 : :Chapter 8

Screencaps

Download

Download: Google Drive (8.77 GB)

Leave a Reply

Your email address will not be published. Required fields are marked *