Game of Thrones (2011) Season 01-07 (1080p Bluray x265 HEVC 10bit AAC 7.1 Tigole)

Season 1:
Game of Thrones 2011 Season 1 in 1080p, encoded with x265 in HEVC and AAC 7.1 English, with subtitles!
Encoded using the time consuming 2 pass, 10 bit color at 2500 kbps, from a Blu-ray source, for the highest quality possible

Mediainfo

General 
Format : Matroska 
Format version : Version 4 / Version 2 
File size : 1.31 GiB 
Duration : 1 h 1 min 
Overall bit rate : 3 030 kb/s 
Encoded date : UTC 2016-09-09 16:14:19 
Writing application : mkvmerge v9.2.0 ('Photograph') 64bit 
Writing library : libebml v1.3.3 + libmatroska v1.4.4 

Video 
ID : 1 
Format : HEVC 
Format/Info : High Efficiency Video Coding 
Format profile : Main [email protected]@Main 
Codec ID : V_MPEGH/ISO/HEVC 
Duration : 1 h 1 min 
Bit rate : 2 512 kb/s 
Width : 1 920 pixels 
Height : 1 080 pixels 
Display aspect ratio : 16:9 
Frame rate mode : Constant 
Frame rate : 23.976 (24000/1001) FPS 
Color space : YUV 
Chroma subsampling : 4:2:0 
Bit depth : 10 bits 
Bits/(Pixel*Frame) : 0.051 
Stream size : 1.08 GiB (83%) 
Writing library : x265 2.0+16-215eedc9ecc0:[Windows][GCC 6.1.0][64 bit] 10bit 
Encoding settings : wpp / ctu=64 / min-cu-size=8 / max-tu-size=32 / tu-intra-depth=1 / tu-inter-depth=1 / me=1 / subme=2 / merange=57 / no-rect / no-amp / max-merge=2 / temporal-mvp / no-early-skip / rskip / rdpenalty=0 / no-tskip / no-tskip-fast / strong-intra-smoothing / no-lossless / no-cu-lossless / no-constrained-intra / no-fast-intra / open-gop / no-temporal-layers / interlace=0 / keyint=250 / min-keyint=23 / scenecut=40 / rc-lookahead=20 / lookahead-slices=6 / bframes=4 / bframe-bias=0 / b-adapt=2 / ref=3 / limit-refs=3 / no-limit-modes / weightp / no-weightb / aq-mode=1 / qg-size=32 / aq-strength=1.00 / cbqpoffs=0 / crqpoffs=0 / rd=3 / psy-rd=2.00 / rdoq-level=0 / psy-rdoq=0.00 / log2-max-poc-lsb=8 / no-rd-refine / signhide / deblock=0:0 / sao / no-sao-non-deblock / b-pyramid / cutree / no-intra-refresh / rc=2 / pass / bitrate=2507 / qcomp=0.60 / qpmin=0 / qpmax=69 / qpstep=4 / cplxblur=20.0 / qblur=0.5 / ipratio=1.40 / pbratio=1.30 
Default : Yes 
Forced : No 

Audio #1 
ID : 2 
Format : AAC 
Format/Info : Advanced Audio Codec 
Format profile : LC 
Codec ID : A_AAC 
Duration : 1 h 1 min 
Bit rate : 412 kb/s 
Channel(s) : 8 channels 
Channel positions : Front: L C R, Side: L R, Back: L R, LFE 
Sampling rate : 48.0 kHz 
Frame rate : 46.875 FPS (1024 spf) 
Compression mode : Lossy 
Delay relative to video : 20 ms 
Stream size : 182 MiB (14%) 
Language : English 
Default : Yes 
Forced : No 

Audio #2 
ID : 3 
Format : AAC 
Format/Info : Advanced Audio Codec 
Format profile : HE-AAC / LC 
Codec ID : A_AAC 
Duration : 1 h 1 min 
Bit rate : 59.1 kb/s 
Channel(s) : 2 channels 
Channel positions : Front: L R 
Sampling rate : 48.0 kHz / 24.0 kHz 
Frame rate : 23.438 FPS (1024 spf) 
Compression mode : Lossy 
Delay relative to video : 31 ms 
Stream size : 26.1 MiB (2%) 
Language : English 
Default : No 
Forced : No 

Text #1 
ID : 4 
Format : VobSub 
Muxing mode : zlib 
Codec ID : S_VOBSUB 
Codec ID/Info : Picture based subtitle format used on DVDs 
Duration : 1 h 0 min 
Bit rate : 4 562 b/s 
Count of elements : 645 
Stream size : 1.97 MiB (0%) 
Language : English 
Default : No 
Forced : No 

Text #2 
ID : 5 
Format : VobSub 
Muxing mode : zlib 
Codec ID : S_VOBSUB 
Codec ID/Info : Picture based subtitle format used on DVDs 
Duration : 58 min 29 s 
Bit rate : 4 351 b/s 
Count of elements : 551 
Stream size : 1.82 MiB (0%) 
Language : French 
Default : No 
Forced : No 

Text #3 
ID : 6 
Format : VobSub 
Muxing mode : zlib 
Codec ID : S_VOBSUB 
Codec ID/Info : Picture based subtitle format used on DVDs 
Duration : 58 min 29 s 
Bit rate : 4 317 b/s 
Count of elements : 552 
Stream size : 1.81 MiB (0%) 
Language : Spanish 
Default : No 
Forced : No 

Text #4 
ID : 7 
Format : VobSub 
Muxing mode : zlib 
Codec ID : S_VOBSUB 
Codec ID/Info : Picture based subtitle format used on DVDs 
Duration : 58 min 29 s 
Bit rate : 4 958 b/s 
Count of elements : 551 
Stream size : 2.07 MiB (0%) 
Language : German 
Default : No 
Forced : No 

Text #5 
ID : 8 
Format : VobSub 
Muxing mode : zlib 
Codec ID : S_VOBSUB 
Codec ID/Info : Picture based subtitle format used on DVDs 
Duration : 15 min 6 s 
Bit rate : 88 b/s 
Count of elements : 2 
Stream size : 9.76 KiB (0%) 
Title : Forced 
Language : German 
Default : No 
Forced : No 

Text #6 
ID : 9 
Format : VobSub 
Muxing mode : zlib 
Codec ID : S_VOBSUB 
Codec ID/Info : Picture based subtitle format used on DVDs 
Duration : 1 h 0 min 
Bit rate : 4 401 b/s 
Count of elements : 648 
Stream size : 1.90 MiB (0%) 
Language : Italian 
Default : No 
Forced : No 

Text #7 
ID : 10 
Format : VobSub 
Muxing mode : zlib 
Codec ID : S_VOBSUB 
Codec ID/Info : Picture based subtitle format used on DVDs 
Duration : 58 min 29 s 
Bit rate : 4 011 b/s 
Count of elements : 551 
Stream size : 1.68 MiB (0%) 
Language : Portuguese 
Default : No 
Forced : No 

Text #8 
ID : 11 
Format : VobSub 
Muxing mode : zlib 
Codec ID : S_VOBSUB 
Codec ID/Info : Picture based subtitle format used on DVDs 
Duration : 58 min 29 s 
Bit rate : 3 969 b/s 
Count of elements : 538 
Stream size : 1.66 MiB (0%) 
Language : Dutch 
Default : No 
Forced : No 

Text #9 
ID : 12 
Format : VobSub 
Muxing mode : zlib 
Codec ID : S_VOBSUB 
Codec ID/Info : Picture based subtitle format used on DVDs 
Duration : 58 min 29 s 
Bit rate : 4 257 b/s 
Count of elements : 551 
Stream size : 1.78 MiB (0%) 
Language : Danish 
Default : No 
Forced : No 

Text #10 
ID : 13 
Format : VobSub 
Muxing mode : zlib 
Codec ID : S_VOBSUB 
Codec ID/Info : Picture based subtitle format used on DVDs 
Duration : 58 min 29 s 
Bit rate : 3 556 b/s 
Count of elements : 552 
Stream size : 1.49 MiB (0%) 
Language : Finnish 
Default : No 
Forced : No 

Text #11 
ID : 14 
Format : VobSub 
Muxing mode : zlib 
Codec ID : S_VOBSUB 
Codec ID/Info : Picture based subtitle format used on DVDs 
Duration : 58 min 29 s 
Bit rate : 4 017 b/s 
Count of elements : 552 
Stream size : 1.68 MiB (0%) 
Language : Norwegian Bokmal 
Default : No 
Forced : No 

Text #12 
ID : 15 
Format : VobSub 
Muxing mode : zlib 
Codec ID : S_VOBSUB 
Codec ID/Info : Picture based subtitle format used on DVDs 
Duration : 58 min 29 s 
Bit rate : 3 977 b/s 
Count of elements : 552 
Stream size : 1.66 MiB (0%) 
Language : Swedish 
Default : No 
Forced : No 

Menu 
00:00:00.000 : en:Chapter 01 
00:00:08.508 : en:Chapter 02 
00:07:18.688 : en:Chapter 03 
00:08:58.412 : en:Chapter 04 
00:18:16.512 : en:Chapter 05 
00:28:48.560 : en:Chapter 06 
00:39:37.583 : en:Chapter 07 
00:50:02.040 : en:Chapter 08 
01:00:34.547 : en:Chapter 09 

[collapse]
Download: Google Drive


Season 2:
Game of Thrones 2011 Season 2 in 1080p, encoded with x265 in HEVC and AAC 7.1 English, with subtitles!
Encoded using the time consuming 2 pass, 10 bit color at 2500 kbps, from a Blu-ray source, for the highest quality possible.

Mediainfo

General 
Format : Matroska 
Format version : Version 4 / Version 2 
File size : 1.13 GiB 
Duration : 52 min 43 s 
Overall bit rate : 3 065 kb/s 
Encoded date : UTC 2016-09-19 23:46:47 
Writing application : mkvmerge v9.2.0 ('Photograph') 64bit 
Writing library : libebml v1.3.3 + libmatroska v1.4.4 

Video 
ID : 1 
Format : HEVC 
Format/Info : High Efficiency Video Coding 
Format profile : Main [email protected]@Main 
Codec ID : V_MPEGH/ISO/HEVC 
Duration : 52 min 43 s 
Bit rate : 2 535 kb/s 
Width : 1 920 pixels 
Height : 1 080 pixels 
Display aspect ratio : 16:9 
Frame rate mode : Constant 
Frame rate : 23.976 (24000/1001) FPS 
Color space : YUV 
Chroma subsampling : 4:2:0 
Bit depth : 10 bits 
Bits/(Pixel*Frame) : 0.051 
Stream size : 956 MiB (83%) 
Writing library : x265 2.0+54-e5ca9b210223:[Windows][GCC 6.1.0][64 bit] 10bit 
Encoding settings : wpp / ctu=64 / min-cu-size=8 / max-tu-size=32 / tu-intra-depth=1 / tu-inter-depth=1 / me=1 / subme=2 / merange=57 / no-rect / no-amp / max-merge=2 / temporal-mvp / no-early-skip / rskip / rdpenalty=0 / no-tskip / no-tskip-fast / strong-intra-smoothing / no-lossless / no-cu-lossless / no-constrained-intra / no-fast-intra / open-gop / no-temporal-layers / interlace=0 / keyint=250 / min-keyint=23 / scenecut=40 / rc-lookahead=20 / lookahead-slices=6 / bframes=4 / bframe-bias=0 / b-adapt=2 / ref=3 / limit-refs=3 / no-limit-modes / weightp / no-weightb / aq-mode=1 / qg-size=32 / aq-strength=1.00 / cbqpoffs=0 / crqpoffs=0 / rd=3 / psy-rd=2.00 / rdoq-level=0 / psy-rdoq=0.00 / log2-max-poc-lsb=8 / no-rd-refine / signhide / deblock=0:0 / sao / no-sao-non-deblock / b-pyramid / cutree / no-intra-refresh / rc=2 / pass / bitrate=2527 / qcomp=0.60 / qpmin=0 / qpmax=69 / qpstep=4 / cplxblur=20.0 / qblur=0.5 / ipratio=1.40 / pbratio=1.30 
Default : Yes 
Forced : No 

Audio #1 
ID : 2 
Format : AAC 
Format/Info : Advanced Audio Codec 
Format profile : LC 
Codec ID : A_AAC 
Duration : 52 min 43 s 
Bit rate : 395 kb/s 
Channel(s) : 8 channels 
Channel positions : Front: L C R, Side: L R, Back: L R, LFE 
Sampling rate : 48.0 kHz 
Frame rate : 46.875 FPS (1024 spf) 
Compression mode : Lossy 
Delay relative to video : 20 ms 
Stream size : 149 MiB (13%) 
Language : English 
Default : Yes 
Forced : No 

Audio #2 
ID : 3 
Format : AAC 
Format/Info : Advanced Audio Codec 
Format profile : HE-AAC / LC 
Codec ID : A_AAC 
Duration : 52 min 43 s 
Bit rate : 57.0 kb/s 
Channel(s) : 2 channels 
Channel positions : Front: L R 
Sampling rate : 48.0 kHz / 24.0 kHz 
Frame rate : 23.438 FPS (1024 spf) 
Compression mode : Lossy 
Delay relative to video : 31 ms 
Stream size : 21.5 MiB (2%) 
Language : English 
Default : No 
Forced : No 

Text #1 
ID : 4 
Format : VobSub 
Muxing mode : zlib 
Codec ID : S_VOBSUB 
Codec ID/Info : Picture based subtitle format used on DVDs 
Duration : 48 min 52 s 
Bit rate : 7 729 b/s 
Count of elements : 740 
Stream size : 2.70 MiB (0%) 
Language : English 
Default : No 
Forced : No 

Text #2 
ID : 5 
Format : VobSub 
Muxing mode : zlib 
Codec ID : S_VOBSUB 
Codec ID/Info : Picture based subtitle format used on DVDs 
Duration : 44 s 158 ms 
Bit rate : 7 589 b/s 
Count of elements : 7 
Stream size : 40.9 KiB (0%) 
Language : English 
Default : No 
Forced : Yes 

Text #3 
ID : 6 
Format : VobSub 
Muxing mode : zlib 
Codec ID : S_VOBSUB 
Codec ID/Info : Picture based subtitle format used on DVDs 
Duration : 48 min 35 s 
Bit rate : 7 399 b/s 
Count of elements : 697 
Stream size : 2.57 MiB (0%) 
Language : French 
Default : No 
Forced : No 

Text #4 
ID : 7 
Format : VobSub 
Muxing mode : zlib 
Codec ID : S_VOBSUB 
Codec ID/Info : Picture based subtitle format used on DVDs 
Duration : 48 min 35 s 
Bit rate : 7 665 b/s 
Count of elements : 697 
Stream size : 2.66 MiB (0%) 
Language : Spanish 
Default : No 
Forced : No 

Text #5 
ID : 8 
Format : VobSub 
Muxing mode : zlib 
Codec ID : S_VOBSUB 
Codec ID/Info : Picture based subtitle format used on DVDs 
Duration : 48 min 35 s 
Bit rate : 7 484 b/s 
Count of elements : 690 
Stream size : 2.60 MiB (0%) 
Language : German 
Default : No 
Forced : No 

Text #6 
ID : 9 
Format : VobSub 
Muxing mode : zlib 
Codec ID : S_VOBSUB 
Codec ID/Info : Picture based subtitle format used on DVDs 
Duration : 44 s 124 ms 
Bit rate : 8 039 b/s 
Count of elements : 8 
Stream size : 43.3 KiB (0%) 
Title : Forced 
Language : German 
Default : No 
Forced : No 

Text #7 
ID : 10 
Format : VobSub 
Muxing mode : zlib 
Codec ID : S_VOBSUB 
Codec ID/Info : Picture based subtitle format used on DVDs 
Duration : 49 min 24 s 
Bit rate : 7 447 b/s 
Count of elements : 725 
Stream size : 2.63 MiB (0%) 
Language : Italian 
Default : No 
Forced : No 

Text #8 
ID : 11 
Format : VobSub 
Muxing mode : zlib 
Codec ID : S_VOBSUB 
Codec ID/Info : Picture based subtitle format used on DVDs 
Duration : 48 min 35 s 
Bit rate : 7 460 b/s 
Count of elements : 698 
Stream size : 2.59 MiB (0%) 
Language : Portuguese 
Default : No 
Forced : No 

Text #9 
ID : 12 
Format : VobSub 
Muxing mode : zlib 
Codec ID : S_VOBSUB 
Codec ID/Info : Picture based subtitle format used on DVDs 
Duration : 48 min 35 s 
Bit rate : 7 696 b/s 
Count of elements : 697 
Stream size : 2.67 MiB (0%) 
Language : Dutch 
Default : No 
Forced : No 

Text #10 
ID : 13 
Format : VobSub 
Muxing mode : zlib 
Codec ID : S_VOBSUB 
Codec ID/Info : Picture based subtitle format used on DVDs 
Duration : 48 min 35 s 
Bit rate : 7 180 b/s 
Count of elements : 697 
Stream size : 2.50 MiB (0%) 
Language : Danish 
Default : No 
Forced : No 

Text #11 
ID : 14 
Format : VobSub 
Muxing mode : zlib 
Codec ID : S_VOBSUB 
Codec ID/Info : Picture based subtitle format used on DVDs 
Duration : 48 min 35 s 
Bit rate : 6 602 b/s 
Count of elements : 697 
Stream size : 2.29 MiB (0%) 
Language : Finnish 
Default : No 
Forced : No 

Text #12 
ID : 15 
Format : VobSub 
Muxing mode : zlib 
Codec ID : S_VOBSUB 
Codec ID/Info : Picture based subtitle format used on DVDs 
Duration : 48 min 35 s 
Bit rate : 6 795 b/s 
Count of elements : 697 
Stream size : 2.36 MiB (0%) 
Language : Norwegian Bokmal 
Default : No 
Forced : No 

Text #13 
ID : 16 
Format : VobSub 
Muxing mode : zlib 
Codec ID : S_VOBSUB 
Codec ID/Info : Picture based subtitle format used on DVDs 
Duration : 48 min 35 s 
Bit rate : 6 949 b/s 
Count of elements : 697 
Stream size : 2.42 MiB (0%) 
Language : Swedish 
Default : No 
Forced : No 

Menu 
00:00:00.000 : en:Chapter 01 
00:01:56.658 : en:Chapter 02 
00:10:18.200 : en:Chapter 03 
00:18:17.930 : en:Chapter 04 
00:24:29.259 : en:Chapter 05 
00:31:41.733 : en:Chapter 06 
00:41:05.713 : en:Chapter 07 
00:51:24.247 : en:Chapter 08

[collapse]

Download: Google Drive


Season 3:
Game of Thrones 2011 Season 3 in 1080p, encoded with x265 in HEVC and AAC 7.1 English, with subtitles!
Encoded using the time consuming 2 pass, 10 bit color at 2500 kbps, from a Blu-ray source, for the highest quality possible.

Mediainfo

General 
Format : Matroska 
Format version : Version 4 / Version 2 
File size : 1.14 GiB 
Duration : 54 min 33 s 
Overall bit rate : 2 989 kb/s 
Encoded date : UTC 2016-10-06 02:32:21 
Writing application : mkvmerge v9.2.0 ('Photograph') 64bit 
Writing library : libebml v1.3.3 + libmatroska v1.4.4 

Video 
ID : 1 
Format : HEVC 
Format/Info : High Efficiency Video Coding 
Format profile : Main [email protected]@Main 
Codec ID : V_MPEGH/ISO/HEVC 
Duration : 54 min 33 s 
Bit rate : 2 524 kb/s 
Width : 1 920 pixels 
Height : 1 080 pixels 
Display aspect ratio : 16:9 
Frame rate mode : Constant 
Frame rate : 23.976 (24000/1001) FPS 
Color space : YUV 
Chroma subsampling : 4:2:0 
Bit depth : 10 bits 
Bits/(Pixel*Frame) : 0.051 
Stream size : 985 MiB (84%) 
Writing library : x265 2.1+2-c0d91c2b4048:[Windows][GCC 6.2.0][64 bit] 10bit 
Encoding settings : wpp / ctu=64 / min-cu-size=8 / max-tu-size=32 / tu-intra-depth=1 / tu-inter-depth=1 / me=1 / subme=2 / merange=57 / no-rect / no-amp / max-merge=2 / temporal-mvp / no-early-skip / rskip / rdpenalty=0 / no-tskip / no-tskip-fast / strong-intra-smoothing / no-lossless / no-cu-lossless / no-constrained-intra / no-fast-intra / open-gop / no-temporal-layers / interlace=0 / keyint=250 / min-keyint=23 / scenecut=40 / rc-lookahead=20 / lookahead-slices=6 / bframes=4 / bframe-bias=0 / b-adapt=2 / ref=3 / limit-refs=3 / no-limit-modes / weightp / no-weightb / aq-mode=1 / qg-size=32 / aq-strength=1.00 / cbqpoffs=0 / crqpoffs=0 / rd=3 / psy-rd=2.00 / rdoq-level=0 / psy-rdoq=0.00 / log2-max-poc-lsb=8 / no-rd-refine / signhide / deblock=0:0 / sao / no-sao-non-deblock / b-pyramid / cutree / no-intra-refresh / rc=2 / pass / bitrate=2517 / qcomp=0.60 / qpmin=0 / qpmax=69 / qpstep=4 / cplxblur=20.0 / qblur=0.5 / ipratio=1.40 / pbratio=1.30 
Default : Yes 
Forced : No 

Audio 
ID : 2 
Format : AAC 
Format/Info : Advanced Audio Codec 
Format profile : LC 
Codec ID : A_AAC 
Duration : 54 min 33 s 
Bit rate : 397 kb/s 
Channel(s) : 8 channels 
Channel positions : Front: L C R, Side: L R, Back: L R, LFE 
Sampling rate : 48.0 kHz 
Frame rate : 46.875 FPS (1024 spf) 
Compression mode : Lossy 
Delay relative to video : 20 ms 
Stream size : 155 MiB (13%) 
Language : English 
Default : Yes 
Forced : No 

Text #1 
ID : 3 
Format : VobSub 
Muxing mode : zlib 
Codec ID : S_VOBSUB 
Codec ID/Info : Picture based subtitle format used on DVDs 
Duration : 52 min 50 s 
Bit rate : 6 600 b/s 
Count of elements : 710 
Stream size : 2.49 MiB (0%) 
Language : English 
Default : No 
Forced : No 

Text #2 
ID : 4 
Format : VobSub 
Muxing mode : zlib 
Codec ID : S_VOBSUB 
Codec ID/Info : Picture based subtitle format used on DVDs 
Duration : 3 min 9 s 
Bit rate : 3 404 b/s 
Count of elements : 21 
Stream size : 78.9 KiB (0%) 
Language : English 
Default : No 
Forced : Yes 

Text #3 
ID : 5 
Format : VobSub 
Muxing mode : zlib 
Codec ID : S_VOBSUB 
Codec ID/Info : Picture based subtitle format used on DVDs 
Duration : 51 min 56 s 
Bit rate : 5 492 b/s 
Count of elements : 655 
Stream size : 2.04 MiB (0%) 
Language : French 
Default : No 
Forced : No 

Text #4 
ID : 6 
Format : VobSub 
Muxing mode : zlib 
Codec ID : S_VOBSUB 
Codec ID/Info : Picture based subtitle format used on DVDs 
Duration : 52 min 44 s 
Bit rate : 6 107 b/s 
Count of elements : 587 
Stream size : 2.30 MiB (0%) 
Language : Spanish 
Default : No 
Forced : No 

Text #5 
ID : 7 
Format : VobSub 
Muxing mode : zlib 
Codec ID : S_VOBSUB 
Codec ID/Info : Picture based subtitle format used on DVDs 
Duration : 52 min 45 s 
Bit rate : 6 141 b/s 
Count of elements : 556 
Stream size : 2.32 MiB (0%) 
Language : German 
Default : No 
Forced : No 

Text #6 
ID : 8 
Format : VobSub 
Muxing mode : zlib 
Codec ID : S_VOBSUB 
Codec ID/Info : Picture based subtitle format used on DVDs 
Duration : 3 min 9 s 
Bit rate : 3 241 b/s 
Count of elements : 22 
Stream size : 75.2 KiB (0%) 
Title : Forced 
Language : German 
Default : No 
Forced : No 

Text #7 
ID : 9 
Format : VobSub 
Muxing mode : zlib 
Codec ID : S_VOBSUB 
Codec ID/Info : Picture based subtitle format used on DVDs 
Duration : 54 min 18 s 
Bit rate : 7 112 b/s 
Count of elements : 715 
Stream size : 2.76 MiB (0%) 
Language : Italian 
Default : No 
Forced : No 

Text #8 
ID : 10 
Format : VobSub 
Muxing mode : zlib 
Codec ID : S_VOBSUB 
Codec ID/Info : Picture based subtitle format used on DVDs 
Duration : 52 min 58 s 
Bit rate : 6 296 b/s 
Count of elements : 616 
Stream size : 2.39 MiB (0%) 
Language : Portuguese 
Default : No 
Forced : No 

Text #9 
ID : 11 
Format : VobSub 
Muxing mode : zlib 
Codec ID : S_VOBSUB 
Codec ID/Info : Picture based subtitle format used on DVDs 
Duration : 52 min 44 s 
Bit rate : 5 970 b/s 
Count of elements : 583 
Stream size : 2.25 MiB (0%) 
Language : Dutch 
Default : No 
Forced : No 

Text #10 
ID : 12 
Format : VobSub 
Muxing mode : zlib 
Codec ID : S_VOBSUB 
Codec ID/Info : Picture based subtitle format used on DVDs 
Duration : 52 min 44 s 
Bit rate : 5 989 b/s 
Count of elements : 583 
Stream size : 2.26 MiB (0%) 
Language : Danish 
Default : No 
Forced : No 

Text #11 
ID : 13 
Format : VobSub 
Muxing mode : zlib 
Codec ID : S_VOBSUB 
Codec ID/Info : Picture based subtitle format used on DVDs 
Duration : 52 min 44 s 
Bit rate : 5 352 b/s 
Count of elements : 583 
Stream size : 2.02 MiB (0%) 
Language : Finnish 
Default : No 
Forced : No 

Text #12 
ID : 14 
Format : VobSub 
Muxing mode : zlib 
Codec ID : S_VOBSUB 
Codec ID/Info : Picture based subtitle format used on DVDs 
Duration : 52 min 44 s 
Bit rate : 5 394 b/s 
Count of elements : 583 
Stream size : 2.04 MiB (0%) 
Language : Norwegian Bokmal 
Default : No 
Forced : No 

Text #13 
ID : 15 
Format : VobSub 
Muxing mode : zlib 
Codec ID : S_VOBSUB 
Codec ID/Info : Picture based subtitle format used on DVDs 
Duration : 52 min 44 s 
Bit rate : 5 780 b/s 
Count of elements : 583 
Stream size : 2.18 MiB (0%) 
Language : Swedish 
Default : No 
Forced : No 

Menu 
00:00:00.000 : en:Chapter 01 
00:00:08.466 : en:Chapter 02 
00:05:08.558 : en:Chapter 03 
00:12:30.249 : en:Chapter 04 
00:18:53.549 : en:Chapter 05 
00:26:47.856 : en:Chapter 06 
00:35:26.374 : en:Chapter 07 
00:43:20.306 : en:Chapter 08 
00:53:14.024 : en:Chapter 09

[collapse]

Download: Google Drive


Season 4:
Game of Thrones 2011 Season 4 in 1080p, encoded with x265 in HEVC and AAC 7.1 English, with subtitles!
Encoded using the time consuming 2 pass, 10 bit color at 2500 kbps, from a Blu-ray source, for the highest quality possible.

Mediainfo

General 
Format : Matroska 
Format version : Version 4 / Version 2 
File size : 1.24 GiB 
Duration : 58 min 15 s 
Overall bit rate : 3 058 kb/s 
Encoded date : UTC 2016-11-05 03:15:22 
Writing application : mkvmerge v9.4.0 ('Knurl') 64bit 
Writing library : libebml v1.3.4 + libmatroska v1.4.5 

Video 
ID : 1 
Format : HEVC 
Format/Info : High Efficiency Video Coding 
Format profile : Main [email protected]@Main 
Codec ID : V_MPEGH/ISO/HEVC 
Duration : 58 min 15 s 
Bit rate : 2 530 kb/s 
Width : 1 920 pixels 
Height : 1 080 pixels 
Display aspect ratio : 16:9 
Frame rate mode : Constant 
Frame rate : 23.976 (24000/1001) FPS 
Color space : YUV 
Chroma subsampling : 4:2:0 
Bit depth : 10 bits 
Bits/(Pixel*Frame) : 0.051 
Stream size : 1.03 GiB (83%) 
Writing library : x265 2.1+36-d216cb9b3b47:[Windows][GCC 6.2.0][64 bit] 10bit 
Encoding settings : wpp / ctu=64 / min-cu-size=8 / max-tu-size=32 / tu-intra-depth=1 / tu-inter-depth=1 / me=1 / subme=2 / merange=57 / no-rect / no-amp / max-merge=2 / temporal-mvp / no-early-skip / rskip / rdpenalty=0 / no-tskip / no-tskip-fast / strong-intra-smoothing / no-lossless / no-cu-lossless / no-constrained-intra / no-fast-intra / open-gop / no-temporal-layers / interlace=0 / keyint=250 / min-keyint=23 / scenecut=40 / bias-for-scenecut=0.05 / rc-lookahead=20 / lookahead-slices=6 / bframes=4 / bframe-bias=0 / b-adapt=2 / ref=3 / limit-refs=3 / no-limit-modes / weightp / no-weightb / aq-mode=1 / qg-size=32 / aq-strength=1.00 / cbqpoffs=0 / crqpoffs=0 / rd=3 / psy-rd=2.00 / rdoq-level=0 / psy-rdoq=0.00 / log2-max-poc-lsb=8 / limit-tu=0 / no-rd-refine / signhide / deblock=0:0 / sao / no-sao-non-deblock / b-pyramid / cutree / no-intra-refresh / rc=2 / pass / bitrate=2522 / qcomp=0.60 / qpmin=0 / qpmax=69 / qpstep=4 / cplxblur=20.0 / qblur=0.5 / ipratio=1.40 / pbratio=1.30 
Default : Yes 
Forced : No 

Audio #1 
ID : 2 
Format : AAC 
Format/Info : Advanced Audio Codec 
Format profile : LC 
Codec ID : A_AAC 
Duration : 58 min 15 s 
Bit rate : 384 kb/s 
Channel(s) : 8 channels 
Channel positions : Front: L C R, Side: 4, LFE 
Sampling rate : 48.0 kHz 
Frame rate : 46.875 FPS (1024 spf) 
Compression mode : Lossy 
Delay relative to video : 20 ms 
Stream size : 162 MiB (13%) 
Language : English 
Default : Yes 
Forced : No 

Audio #2 
ID : 3 
Format : AAC 
Format/Info : Advanced Audio Codec 
Format profile : HE-AAC / LC 
Codec ID : A_AAC 
Duration : 58 min 15 s 
Bit rate : 66.2 kb/s 
Channel(s) : 2 channels 
Channel positions : Front: L R 
Sampling rate : 48.0 kHz / 24.0 kHz 
Frame rate : 23.438 FPS (1024 spf) 
Compression mode : Lossy 
Delay relative to video : 40 ms 
Stream size : 27.5 MiB (2%) 
Title : Commentary 
Language : English 
Default : No 
Forced : No 

Text #1 
ID : 4 
Format : VobSub 
Muxing mode : zlib 
Codec ID : S_VOBSUB 
Codec ID/Info : Picture based subtitle format used on DVDs 
Duration : 56 min 5 s 
Bit rate : 7 340 b/s 
Count of elements : 832 
Stream size : 2.95 MiB (0%) 
Language : English 
Default : No 
Forced : No 

Text #2 
ID : 5 
Format : VobSub 
Muxing mode : zlib 
Codec ID : S_VOBSUB 
Codec ID/Info : Picture based subtitle format used on DVDs 
Duration : 11 s 870 ms 
Bit rate : 8 726 b/s 
Count of elements : 5 
Stream size : 12.6 KiB (0%) 
Language : English 
Default : No 
Forced : Yes 

Text #3 
ID : 6 
Format : VobSub 
Muxing mode : zlib 
Codec ID : S_VOBSUB 
Codec ID/Info : Picture based subtitle format used on DVDs 
Duration : 54 min 18 s 
Bit rate : 6 090 b/s 
Count of elements : 814 
Stream size : 2.37 MiB (0%) 
Language : French 
Default : No 
Forced : No 

Text #4 
ID : 7 
Format : VobSub 
Muxing mode : zlib 
Codec ID : S_VOBSUB 
Codec ID/Info : Picture based subtitle format used on DVDs 
Duration : 52 min 13 s 
Bit rate : 7 312 b/s 
Count of elements : 814 
Stream size : 2.73 MiB (0%) 
Language : Spanish 
Default : No 
Forced : No 

Text #5 
ID : 8 
Format : VobSub 
Muxing mode : zlib 
Codec ID : S_VOBSUB 
Codec ID/Info : Picture based subtitle format used on DVDs 
Duration : 52 min 13 s 
Bit rate : 7 386 b/s 
Count of elements : 687 
Stream size : 2.76 MiB (0%) 
Language : German 
Default : No 
Forced : No 

Text #6 
ID : 9 
Format : VobSub 
Muxing mode : zlib 
Codec ID : S_VOBSUB 
Codec ID/Info : Picture based subtitle format used on DVDs 
Duration : 11 s 839 ms 
Bit rate : 8 599 b/s 
Count of elements : 4 
Stream size : 12.4 KiB (0%) 
Title : Forced 
Language : German 
Default : No 
Forced : No 

Text #7 
ID : 10 
Format : VobSub 
Muxing mode : zlib 
Codec ID : S_VOBSUB 
Codec ID/Info : Picture based subtitle format used on DVDs 
Duration : 56 min 14 s 
Bit rate : 7 116 b/s 
Count of elements : 747 
Stream size : 2.86 MiB (0%) 
Language : Italian 
Default : No 
Forced : No 

Text #8 
ID : 11 
Format : VobSub 
Muxing mode : zlib 
Codec ID : S_VOBSUB 
Codec ID/Info : Picture based subtitle format used on DVDs 
Duration : 52 min 13 s 
Bit rate : 7 596 b/s 
Count of elements : 749 
Stream size : 2.84 MiB (0%) 
Language : Portuguese 
Default : No 
Forced : No 

Text #9 
ID : 12 
Format : VobSub 
Muxing mode : zlib 
Codec ID : S_VOBSUB 
Codec ID/Info : Picture based subtitle format used on DVDs 
Duration : 52 min 13 s 
Bit rate : 7 162 b/s 
Count of elements : 751 
Stream size : 2.68 MiB (0%) 
Language : Dutch 
Default : No 
Forced : No 

Text #10 
ID : 13 
Format : VobSub 
Muxing mode : zlib 
Codec ID : S_VOBSUB 
Codec ID/Info : Picture based subtitle format used on DVDs 
Duration : 52 min 13 s 
Bit rate : 7 161 b/s 
Count of elements : 751 
Stream size : 2.68 MiB (0%) 
Language : Danish 
Default : No 
Forced : No 

Text #11 
ID : 14 
Format : VobSub 
Muxing mode : zlib 
Codec ID : S_VOBSUB 
Codec ID/Info : Picture based subtitle format used on DVDs 
Duration : 52 min 13 s 
Bit rate : 5 960 b/s 
Count of elements : 751 
Stream size : 2.23 MiB (0%) 
Language : Finnish 
Default : No 
Forced : No 

Text #12 
ID : 15 
Format : VobSub 
Muxing mode : zlib 
Codec ID : S_VOBSUB 
Codec ID/Info : Picture based subtitle format used on DVDs 
Duration : 52 min 13 s 
Bit rate : 6 861 b/s 
Count of elements : 751 
Stream size : 2.56 MiB (0%) 
Language : Norwegian Bokmal 
Default : No 
Forced : No 

Text #13 
ID : 16 
Format : VobSub 
Muxing mode : zlib 
Codec ID : S_VOBSUB 
Codec ID/Info : Picture based subtitle format used on DVDs 
Duration : 52 min 13 s 
Bit rate : 6 914 b/s 
Count of elements : 751 
Stream size : 2.58 MiB (0%) 
Language : Swedish 
Default : No 
Forced : No 

Menu 
00:00:00.000 : en:Chapter 01 
00:00:09.426 : en:Chapter 02 
00:01:52.487 : en:Chapter 03 
00:03:40.762 : en:Chapter 04 
00:09:29.777 : en:Chapter 05 
00:17:03.981 : en:Chapter 06 
00:25:18.266 : en:Chapter 07 
00:36:19.844 : en:Chapter 08 
00:46:38.253 : en:Chapter 09 
00:56:53.326 : en:Chapter 10

[collapse]

Download: Google Drive


Season 5:
Game of Thrones 2011 Season 5 in 1080p, encoded with x265 in HEVC and AAC 7.1 English, with subtitles!
Encoded using the time consuming 2 pass, 10 bit color at 2500 kbps, from a Blu-ray source, for the highest quality possible.

Mediainfo

General 
Format : Matroska 
Format version : Version 4 / Version 2 
File size : 1.12 GiB 
Duration : 52 min 11 s 
Overall bit rate : 3 064 kb/s 
Encoded date : UTC 2016-10-18 05:22:22 
Writing application : mkvmerge v9.4.0 ('Knurl') 64bit 
Writing library : libebml v1.3.4 + libmatroska v1.4.5 

Video 
ID : 1 
Format : HEVC 
Format/Info : High Efficiency Video Coding 
Format profile : Main [email protected]@Main 
Codec ID : V_MPEGH/ISO/HEVC 
Duration : 52 min 11 s 
Bit rate : 2 544 kb/s 
Width : 1 920 pixels 
Height : 1 080 pixels 
Display aspect ratio : 16:9 
Frame rate mode : Constant 
Frame rate : 23.976 (24000/1001) FPS 
Color space : YUV 
Chroma subsampling : 4:2:0 
Bit depth : 10 bits 
Bits/(Pixel*Frame) : 0.051 
Stream size : 950 MiB (83%) 
Writing library : x265 2.1+2-c0d91c2b4048:[Windows][GCC 6.2.0][64 bit] 10bit 
Encoding settings : wpp / ctu=64 / min-cu-size=8 / max-tu-size=32 / tu-intra-depth=1 / tu-inter-depth=1 / me=1 / subme=2 / merange=57 / no-rect / no-amp / max-merge=2 / temporal-mvp / no-early-skip / rskip / rdpenalty=0 / no-tskip / no-tskip-fast / strong-intra-smoothing / no-lossless / no-cu-lossless / no-constrained-intra / no-fast-intra / open-gop / no-temporal-layers / interlace=0 / keyint=250 / min-keyint=23 / scenecut=40 / rc-lookahead=20 / lookahead-slices=6 / bframes=4 / bframe-bias=0 / b-adapt=2 / ref=3 / limit-refs=3 / no-limit-modes / weightp / no-weightb / aq-mode=1 / qg-size=32 / aq-strength=1.00 / cbqpoffs=0 / crqpoffs=0 / rd=3 / psy-rd=2.00 / rdoq-level=0 / psy-rdoq=0.00 / log2-max-poc-lsb=8 / no-rd-refine / signhide / deblock=0:0 / sao / no-sao-non-deblock / b-pyramid / cutree / no-intra-refresh / rc=2 / pass / bitrate=2534 / qcomp=0.60 / qpmin=0 / qpmax=69 / qpstep=4 / cplxblur=20.0 / qblur=0.5 / ipratio=1.40 / pbratio=1.30 
Default : Yes 
Forced : No 

Audio #1 
ID : 2 
Format : AAC 
Format/Info : Advanced Audio Codec 
Format profile : LC 
Codec ID : A_AAC 
Duration : 52 min 11 s 
Bit rate : 384 kb/s 
Channel(s) : 8 channels 
Channel positions : Front: L C R, Side: L R, Back: L R, LFE 
Sampling rate : 48.0 kHz 
Frame rate : 46.875 FPS (1024 spf) 
Compression mode : Lossy 
Delay relative to video : 20 ms 
Stream size : 145 MiB (13%) 
Language : English 
Default : Yes 
Forced : No 

Audio #2 
ID : 3 
Format : AAC 
Format/Info : Advanced Audio Codec 
Format profile : HE-AAC / LC 
Codec ID : A_AAC 
Duration : 52 min 11 s 
Bit rate : 55.8 kb/s 
Channel(s) : 2 channels 
Channel positions : Front: L R 
Sampling rate : 48.0 kHz / 24.0 kHz 
Frame rate : 23.438 FPS (1024 spf) 
Compression mode : Lossy 
Delay relative to video : 31 ms 
Stream size : 20.8 MiB (2%) 
Title : Commentary 
Language : English 
Default : No 
Forced : No 

Text #1 
ID : 4 
Format : VobSub 
Muxing mode : zlib 
Codec ID : S_VOBSUB 
Codec ID/Info : Picture based subtitle format used on DVDs 
Duration : 48 min 18 s 
Bit rate : 6 326 b/s 
Count of elements : 626 
Stream size : 2.19 MiB (0%) 
Language : English 
Default : No 
Forced : No 

Text #2 
ID : 5 
Format : VobSub 
Muxing mode : zlib 
Codec ID : S_VOBSUB 
Codec ID/Info : Picture based subtitle format used on DVDs 
Duration : 1 min 35 s 
Bit rate : 1 552 b/s 
Count of elements : 7 
Stream size : 18.1 KiB (0%) 
Language : English 
Default : No 
Forced : Yes 

Text #3 
ID : 6 
Format : VobSub 
Muxing mode : zlib 
Codec ID : S_VOBSUB 
Codec ID/Info : Picture based subtitle format used on DVDs 
Duration : 49 min 57 s 
Bit rate : 5 126 b/s 
Count of elements : 599 
Stream size : 1.83 MiB (0%) 
Language : French 
Default : No 
Forced : No 

Text #4 
ID : 7 
Format : VobSub 
Muxing mode : zlib 
Codec ID : S_VOBSUB 
Codec ID/Info : Picture based subtitle format used on DVDs 
Duration : 46 min 49 s 
Bit rate : 6 314 b/s 
Count of elements : 561 
Stream size : 2.11 MiB (0%) 
Language : Spanish 
Default : No 
Forced : No 

Text #5 
ID : 8 
Format : VobSub 
Muxing mode : zlib 
Codec ID : S_VOBSUB 
Codec ID/Info : Picture based subtitle format used on DVDs 
Duration : 46 min 49 s 
Bit rate : 6 271 b/s 
Count of elements : 529 
Stream size : 2.10 MiB (0%) 
Language : German 
Default : No 
Forced : No 

Text #6 
ID : 9 
Format : VobSub 
Muxing mode : zlib 
Codec ID : S_VOBSUB 
Codec ID/Info : Picture based subtitle format used on DVDs 
Duration : 1 min 36 s 
Bit rate : 1 736 b/s 
Count of elements : 7 
Stream size : 20.4 KiB (0%) 
Title : Forced 
Language : German 
Default : No 
Forced : No 

Text #7 
ID : 10 
Format : VobSub 
Muxing mode : zlib 
Codec ID : S_VOBSUB 
Codec ID/Info : Picture based subtitle format used on DVDs 
Duration : 47 min 13 s 
Bit rate : 6 069 b/s 
Count of elements : 506 
Stream size : 2.05 MiB (0%) 
Language : Czech 
Default : No 
Forced : No 

Text #8 
ID : 11 
Format : VobSub 
Muxing mode : zlib 
Codec ID : S_VOBSUB 
Codec ID/Info : Picture based subtitle format used on DVDs 
Duration : 51 min 54 s 
Bit rate : 4 502 b/s 
Count of elements : 471 
Stream size : 1.67 MiB (0%) 
Language : Polish 
Default : No 
Forced : No 

Text #9 
ID : 12 
Format : VobSub 
Muxing mode : zlib 
Codec ID : S_VOBSUB 
Codec ID/Info : Picture based subtitle format used on DVDs 
Duration : 46 min 49 s 
Bit rate : 6 392 b/s 
Count of elements : 582 
Stream size : 2.14 MiB (0%) 
Language : Portuguese 
Default : No 
Forced : No 

Text #10 
ID : 13 
Format : VobSub 
Muxing mode : zlib 
Codec ID : S_VOBSUB 
Codec ID/Info : Picture based subtitle format used on DVDs 
Duration : 46 min 49 s 
Bit rate : 6 196 b/s 
Count of elements : 586 
Stream size : 2.08 MiB (0%) 
Language : Dutch 
Default : No 
Forced : No 

Text #11 
ID : 14 
Format : VobSub 
Muxing mode : zlib 
Codec ID : S_VOBSUB 
Codec ID/Info : Picture based subtitle format used on DVDs 
Duration : 46 min 49 s 
Bit rate : 6 017 b/s 
Count of elements : 584 
Stream size : 2.02 MiB (0%) 
Language : Danish 
Default : No 
Forced : No 

Text #12 
ID : 15 
Format : VobSub 
Muxing mode : zlib 
Codec ID : S_VOBSUB 
Codec ID/Info : Picture based subtitle format used on DVDs 
Duration : 46 min 49 s 
Bit rate : 5 452 b/s 
Count of elements : 580 
Stream size : 1.83 MiB (0%) 
Language : Finnish 
Default : No 
Forced : No 

Text #13 
ID : 16 
Format : VobSub 
Muxing mode : zlib 
Codec ID : S_VOBSUB 
Codec ID/Info : Picture based subtitle format used on DVDs 
Duration : 46 min 49 s 
Bit rate : 5 809 b/s 
Count of elements : 586 
Stream size : 1.95 MiB (0%) 
Language : Norwegian Bokmal 
Default : No 
Forced : No 

Text #14 
ID : 17 
Format : VobSub 
Muxing mode : zlib 
Codec ID : S_VOBSUB 
Codec ID/Info : Picture based subtitle format used on DVDs 
Duration : 46 min 49 s 
Bit rate : 6 017 b/s 
Count of elements : 586 
Stream size : 2.02 MiB (0%) 
Language : Swedish 
Default : No 
Forced : No 

Text #15 
ID : 18 
Format : VobSub 
Muxing mode : zlib 
Codec ID : S_VOBSUB 
Codec ID/Info : Picture based subtitle format used on DVDs 
Duration : 49 min 58 s 
Bit rate : 6 802 b/s 
Count of elements : 599 
Stream size : 2.43 MiB (0%) 
Language : Greek 
Default : No 
Forced : No 

Menu 
00:00:00.000 : en:Chapter 01 
00:01:55.740 : en:Chapter 02 
00:09:25.022 : en:Chapter 03 
00:18:00.662 : en:Chapter 04 
00:24:16.913 : en:Chapter 05 
00:32:26.819 : en:Chapter 06 
00:41:24.106 : en:Chapter 07 
00:50:52.507 : en:Chapter 08

[collapse]

Download: Google Drive


Season 6:
Game of Thrones 2011 Season 6 in 1080p, encoded with x265 in HEVC and AAC 7.1 English, with subtitles!
Encoded using the time consuming 2 pass, 10 bit color at 2500 kbps, from a Blu-ray source, for the highest quality possible.

Mediainfo

General 
Format : Matroska 
Format version : Version 4 / Version 2 
File size : 1.06 GiB 
Duration : 50 min 4 s 
Overall bit rate : 3 027 kb/s 
Encoded date : UTC 2016-11-05 22:09:54 
Writing application : mkvmerge v9.4.0 ('Knurl') 64bit 
Writing library : libebml v1.3.4 + libmatroska v1.4.5 

Video 
ID : 1 
Format : HEVC 
Format/Info : High Efficiency Video Coding 
Format profile : Main [email protected]@Main 
Codec ID : V_MPEGH/ISO/HEVC 
Duration : 50 min 4 s 
Bit rate : 2 518 kb/s 
Width : 1 920 pixels 
Height : 1 080 pixels 
Display aspect ratio : 16:9 
Frame rate mode : Constant 
Frame rate : 23.976 (24000/1001) FPS 
Color space : YUV 
Chroma subsampling : 4:2:0 
Bit depth : 10 bits 
Bits/(Pixel*Frame) : 0.051 
Stream size : 902 MiB (83%) 
Writing library : x265 2.1+36-d216cb9b3b47:[Windows][GCC 6.2.0][64 bit] 10bit 
Encoding settings : wpp / ctu=64 / min-cu-size=8 / max-tu-size=32 / tu-intra-depth=1 / tu-inter-depth=1 / me=1 / subme=2 / merange=57 / no-rect / no-amp / max-merge=2 / temporal-mvp / no-early-skip / rskip / rdpenalty=0 / no-tskip / no-tskip-fast / strong-intra-smoothing / no-lossless / no-cu-lossless / no-constrained-intra / no-fast-intra / open-gop / no-temporal-layers / interlace=0 / keyint=250 / min-keyint=23 / scenecut=40 / bias-for-scenecut=0.05 / rc-lookahead=20 / lookahead-slices=6 / bframes=4 / bframe-bias=0 / b-adapt=2 / ref=3 / limit-refs=3 / no-limit-modes / weightp / no-weightb / aq-mode=2 / qg-size=32 / aq-strength=1.00 / cbqpoffs=0 / crqpoffs=0 / rd=3 / psy-rd=2.00 / rdoq-level=0 / psy-rdoq=0.00 / log2-max-poc-lsb=8 / limit-tu=0 / no-rd-refine / signhide / deblock=0:0 / sao / no-sao-non-deblock / b-pyramid / cutree / no-intra-refresh / rc=2 / pass / bitrate=2516 / qcomp=0.60 / qpmin=0 / qpmax=69 / qpstep=4 / cplxblur=20.0 / qblur=0.5 / ipratio=1.40 / pbratio=1.30 
Default : Yes 
Forced : No 

Audio #1 
ID : 2 
Format : AAC 
Format/Info : Advanced Audio Codec 
Format profile : LC 
Codec ID : A_AAC 
Duration : 50 min 4 s 
Bit rate : 395 kb/s 
Channel(s) : 8 channels 
Channel positions : Front: L C R, Side: 4, LFE 
Sampling rate : 48.0 kHz 
Frame rate : 46.875 FPS (1024 spf) 
Compression mode : Lossy 
Delay relative to video : 20 ms 
Stream size : 141 MiB (13%) 
Language : English 
Default : Yes 
Forced : No 

Audio #2 
ID : 3 
Format : AAC 
Format/Info : Advanced Audio Codec 
Format profile : HE-AAC / LC 
Codec ID : A_AAC 
Duration : 50 min 4 s 
Bit rate : 66.2 kb/s 
Channel(s) : 2 channels 
Channel positions : Front: L R 
Sampling rate : 48.0 kHz / 24.0 kHz 
Frame rate : 23.438 FPS (1024 spf) 
Compression mode : Lossy 
Delay relative to video : 40 ms 
Stream size : 23.6 MiB (2%) 
Title : Commentary 
Language : English 
Default : No 
Forced : No 

Text #1 
ID : 4 
Format : VobSub 
Muxing mode : zlib 
Codec ID : S_VOBSUB 
Codec ID/Info : Picture based subtitle format used on DVDs 
Duration : 43 min 58 s 
Bit rate : 5 826 b/s 
Count of elements : 544 
Stream size : 1.83 MiB (0%) 
Language : English 
Default : No 
Forced : No 

Text #2 
ID : 5 
Format : VobSub 
Muxing mode : zlib 
Codec ID : S_VOBSUB 
Codec ID/Info : Picture based subtitle format used on DVDs 
Duration : 11 min 31 s 
Bit rate : 3 576 b/s 
Count of elements : 83 
Stream size : 302 KiB (0%) 
Language : English 
Default : No 
Forced : Yes 

Text #3 
ID : 6 
Format : VobSub 
Muxing mode : zlib 
Codec ID : S_VOBSUB 
Codec ID/Info : Picture based subtitle format used on DVDs 
Duration : 46 min 28 s 
Bit rate : 4 171 b/s 
Count of elements : 476 
Stream size : 1.39 MiB (0%) 
Language : French 
Default : No 
Forced : No 

Text #4 
ID : 7 
Format : VobSub 
Muxing mode : zlib 
Codec ID : S_VOBSUB 
Codec ID/Info : Picture based subtitle format used on DVDs 
Duration : 42 min 27 s 
Bit rate : 5 202 b/s 
Count of elements : 453 
Stream size : 1.58 MiB (0%) 
Language : Spanish 
Default : No 
Forced : No 

Text #5 
ID : 8 
Format : VobSub 
Muxing mode : zlib 
Codec ID : S_VOBSUB 
Codec ID/Info : Picture based subtitle format used on DVDs 
Duration : 42 min 27 s 
Bit rate : 5 431 b/s 
Count of elements : 416 
Stream size : 1.65 MiB (0%) 
Language : German 
Default : No 
Forced : No 

Text #6 
ID : 9 
Format : VobSub 
Muxing mode : zlib 
Codec ID : S_VOBSUB 
Codec ID/Info : Picture based subtitle format used on DVDs 
Duration : 37 min 31 s 
Bit rate : 1 221 b/s 
Count of elements : 76 
Stream size : 336 KiB (0%) 
Title : Forced 
Language : German 
Default : No 
Forced : No 

Text #7 
ID : 10 
Format : VobSub 
Muxing mode : zlib 
Codec ID : S_VOBSUB 
Codec ID/Info : Picture based subtitle format used on DVDs 
Duration : 42 min 27 s 
Bit rate : 5 182 b/s 
Count of elements : 448 
Stream size : 1.57 MiB (0%) 
Language : Portuguese 
Default : No 
Forced : No 

Text #8 
ID : 11 
Format : VobSub 
Muxing mode : zlib 
Codec ID : S_VOBSUB 
Codec ID/Info : Picture based subtitle format used on DVDs 
Duration : 42 min 27 s 
Bit rate : 5 198 b/s 
Count of elements : 455 
Stream size : 1.58 MiB (0%) 
Language : Dutch 
Default : No 
Forced : No 

Text #9 
ID : 12 
Format : VobSub 
Muxing mode : zlib 
Codec ID : S_VOBSUB 
Codec ID/Info : Picture based subtitle format used on DVDs 
Duration : 42 min 27 s 
Bit rate : 5 115 b/s 
Count of elements : 454 
Stream size : 1.55 MiB (0%) 
Language : Danish 
Default : No 
Forced : No 

Text #10 
ID : 13 
Format : VobSub 
Muxing mode : zlib 
Codec ID : S_VOBSUB 
Codec ID/Info : Picture based subtitle format used on DVDs 
Duration : 42 min 27 s 
Bit rate : 4 636 b/s 
Count of elements : 455 
Stream size : 1.41 MiB (0%) 
Language : Finnish 
Default : No 
Forced : No 

Text #11 
ID : 14 
Format : VobSub 
Muxing mode : zlib 
Codec ID : S_VOBSUB 
Codec ID/Info : Picture based subtitle format used on DVDs 
Duration : 42 min 27 s 
Bit rate : 4 901 b/s 
Count of elements : 455 
Stream size : 1.49 MiB (0%) 
Language : Norwegian Bokmal 
Default : No 
Forced : No 

Text #12 
ID : 15 
Format : VobSub 
Muxing mode : zlib 
Codec ID : S_VOBSUB 
Codec ID/Info : Picture based subtitle format used on DVDs 
Duration : 42 min 27 s 
Bit rate : 4 990 b/s 
Count of elements : 455 
Stream size : 1.52 MiB (0%) 
Language : Swedish 
Default : No 
Forced : No 

Menu 
00:00:00.000 : en:Chapter 01 
00:01:55.740 : en:Chapter 02 
00:09:34.615 : en:Chapter 03 
00:19:05.602 : en:Chapter 04 
00:29:02.365 : en:Chapter 05 
00:35:32.463 : en:Chapter 06 
00:41:22.062 : en:Chapter 07 
00:48:42.169 : en:Chapter 08 
00:50:01.623 : en:Chapter 09

[collapse]

Download: Google Drive


Season 7:
Game of Thrones 2011 Season 7 in 1080p, encoded with x265 in HEVC and AAC 7.1 English, with subtitles!
Encoded using the time consuming 2 pass, 10 bit color at 3000-4250 kbps, from a Blu-ray source, for the highest quality possible.

Mediainfo

General 
Format : Matroska 
Format version : Version 4 / Version 2 
File size : 1.63 GiB 
Duration : 58 min 40 s 
Overall bit rate : 3 975 kb/s 
Encoded date : UTC 2017-12-05 11:29:30 
Writing application : mkvmerge v14.0.0 ('Flow') 64bit 
Writing library : libebml v1.3.4 + libmatroska v1.4.5 

Video 
ID : 1 
Format : HEVC 
Format/Info : High Efficiency Video Coding 
Format profile : Main [email protected]@Main 
Codec ID : V_MPEGH/ISO/HEVC 
Duration : 58 min 40 s 
Bit rate : 3 353 kb/s 
Width : 1 920 pixels 
Height : 1 080 pixels 
Display aspect ratio : 16:9 
Frame rate mode : Constant 
Frame rate : 23.976 (24000/1001) FPS 
Color space : YUV 
Chroma subsampling : 4:2:0 
Bit depth : 10 bits 
Bits/(Pixel*Frame) : 0.067 
Stream size : 1.37 GiB (84%) 
Writing library : x265 2.5+66-dae558b40d99:[Windows][GCC 7.2.0][64 bit] 10bit 
Encoding settings : cpuid=1173503 / frame-threads=3 / numa-pools=8 / wpp / no-pmode / no-pme / no-psnr / no-ssim / log-level=2 / input-csp=1 / input-res=1920x1080 / interlace=0 / total-frames=84400 / level-idc=0 / high-tier=1 / uhd-bd=0 / ref=4 / no-allow-non-conformance / no-repeat-headers / annexb / no-aud / no-hrd / info / hash=0 / no-temporal-layers / open-gop / min-keyint=23 / keyint=250 / bframes=4 / b-adapt=2 / b-pyramid / bframe-bias=0 / rc-lookahead=25 / lookahead-slices=4 / scenecut=40 / no-intra-refresh / ctu=64 / min-cu-size=8 / rect / no-amp / max-tu-size=32 / tu-inter-depth=1 / tu-intra-depth=1 / limit-tu=0 / rdoq-level=2 / dynamic-rd=0.00 / no-ssim-rd / signhide / no-tskip / nr-intra=0 / nr-inter=0 / no-constrained-intra / strong-intra-smoothing / max-merge=3 / limit-refs=3 / limit-modes / me=3 / subme=3 / merange=57 / temporal-mvp / weightp / no-weightb / no-analyze-src-pics / deblock=0:0 / sao / no-sao-non-deblock / rd=4 / no-early-skip / rskip / no-fast-intra / no-tskip-fast / no-cu-lossless / no-b-intra / no-splitrd-skip / rdpenalty=0 / psy-rd=2.00 / psy-rdoq=1.00 / no-rd-refine / analysis-reuse-mode=0 / no-lossless / cbqpoffs=0 / crqpoffs=0 / rc=abr / bitrate=3350 / qcomp=0.60 / qpstep=4 / stats-write=0 / stats-read=2 / cplxblur=20.0 / qblur=0.5 / ipratio=1.40 / pbratio=1.30 / aq-mode=3 / aq-strength=1.00 / cutree / zone-count=0 / no-strict-cbr / qg-size=32 / no-rc-grain / qpmax=69 / qpmin=0 / no-const-vbv / sar=0 / overscan=0 / videoformat=5 / range=0 / colorprim=2 / transfer=2 / colormatrix=2 / chromaloc=0 / display-window=0 / max-cll=0,0 / min-luma=0 / max-luma=1023 / log2-max-poc-lsb=8 / vui-timing-info / vui-hrd-info / slices=1 / no-opt-qp-pps / no-opt-ref-list-length-pps / no-multi-pass-opt-rps / scenecut-bias=0.05 / no-opt-cu-delta-qp / no-aq-motion / no-hdr / no-hdr-opt / no-dhdr10-opt / analysis-reuse-level=5 / scale-factor=0 / refine-intra=0 / refine-inter=0 / refine-mv=0 / no-limit-sao / ctu-info=0 / no-lowpass-dct / refine-mv-type=0 / copy-pic=1 
Default : Yes 
Forced : No 

Audio #1 
ID : 2 
Format : AAC 
Format/Info : Advanced Audio Codec 
Format profile : LC 
Codec ID : A_AAC 
Duration : 58 min 40 s 
Bit rate : 503 kb/s 
Channel(s) : 8 channels 
Channel positions : Front: L C R, Side: 4, LFE 
Sampling rate : 48.0 kHz 
Frame rate : 46.875 FPS (1024 spf) 
Compression mode : Lossy 
Delay relative to video : 20 ms 
Stream size : 211 MiB (13%) 
Language : English 
Default : Yes 
Forced : No 

Audio #2 
ID : 3 
Format : AAC 
Format/Info : Advanced Audio Codec 
Format profile : HE-AAC / LC 
Codec ID : A_AAC 
Duration : 58 min 40 s 
Bit rate : 66.2 kb/s 
Channel(s) : 2 channels 
Channel positions : Front: L R 
Sampling rate : 48.0 kHz / 24.0 kHz 
Frame rate : 23.438 FPS (1024 spf) 
Compression mode : Lossy 
Delay relative to video : 40 ms 
Stream size : 27.8 MiB (2%) 
Title : Commentary 
Language : English 
Default : No 
Forced : No 

Text #1 
ID : 4 
Format : VobSub 
Muxing mode : zlib 
Codec ID : S_VOBSUB 
Codec ID/Info : Picture based subtitle format used on DVDs 
Duration : 57 min 10 s 
Bit rate : 9 892 b/s 
Count of elements : 727 
Stream size : 4.05 MiB (0%) 
Language : English 
Default : No 
Forced : No 

Text #2 
ID : 5 
Format : VobSub 
Muxing mode : zlib 
Codec ID : S_VOBSUB 
Codec ID/Info : Picture based subtitle format used on DVDs 
Duration : 56 min 47 s 
Bit rate : 6 380 b/s 
Count of elements : 648 
Stream size : 2.59 MiB (0%) 
Language : Danish 
Default : No 
Forced : No 

Text #3 
ID : 6 
Format : VobSub 
Muxing mode : zlib 
Codec ID : S_VOBSUB 
Codec ID/Info : Picture based subtitle format used on DVDs 
Duration : 56 min 47 s 
Bit rate : 8 247 b/s 
Count of elements : 635 
Stream size : 3.35 MiB (0%) 
Language : Dutch 
Default : No 
Forced : No 

Text #4 
ID : 7 
Format : VobSub 
Muxing mode : zlib 
Codec ID : S_VOBSUB 
Codec ID/Info : Picture based subtitle format used on DVDs 
Duration : 56 min 47 s 
Bit rate : 7 532 b/s 
Count of elements : 648 
Stream size : 3.06 MiB (0%) 
Language : Finnish 
Default : No 
Forced : No 

Text #5 
ID : 8 
Format : VobSub 
Muxing mode : zlib 
Codec ID : S_VOBSUB 
Codec ID/Info : Picture based subtitle format used on DVDs 
Duration : 58 min 3 s 
Bit rate : 7 345 b/s 
Count of elements : 622 
Stream size : 3.05 MiB (0%) 
Language : French 
Default : No 
Forced : No 

Text #6 
ID : 9 
Format : VobSub 
Muxing mode : zlib 
Codec ID : S_VOBSUB 
Codec ID/Info : Picture based subtitle format used on DVDs 
Duration : 56 min 47 s 
Bit rate : 8 964 b/s 
Count of elements : 528 
Stream size : 3.64 MiB (0%) 
Language : German 
Default : No 
Forced : No 

Text #7 
ID : 10 
Format : VobSub 
Muxing mode : zlib 
Codec ID : S_VOBSUB 
Codec ID/Info : Picture based subtitle format used on DVDs 
Duration : 17 min 33 s 
Bit rate : 608 b/s 
Count of elements : 15 
Stream size : 78.2 KiB (0%) 
Title : Forced 
Language : German 
Default : No 
Forced : No 

Text #8 
ID : 11 
Format : VobSub 
Muxing mode : zlib 
Codec ID : S_VOBSUB 
Codec ID/Info : Picture based subtitle format used on DVDs 
Duration : 56 min 47 s 
Bit rate : 8 026 b/s 
Count of elements : 648 
Stream size : 3.26 MiB (0%) 
Language : Norwegian Bokmal 
Default : No 
Forced : No 

Text #9 
ID : 12 
Format : VobSub 
Muxing mode : zlib 
Codec ID : S_VOBSUB 
Codec ID/Info : Picture based subtitle format used on DVDs 
Duration : 56 min 47 s 
Bit rate : 8 865 b/s 
Count of elements : 646 
Stream size : 3.60 MiB (0%) 
Language : Portuguese 
Default : No 
Forced : No 

Text #10 
ID : 13 
Format : VobSub 
Muxing mode : zlib 
Codec ID : S_VOBSUB 
Codec ID/Info : Picture based subtitle format used on DVDs 
Duration : 56 min 47 s 
Bit rate : 8 762 b/s 
Count of elements : 647 
Stream size : 3.56 MiB (0%) 
Language : Spanish 
Default : No 
Forced : No 

Text #11 
ID : 14 
Format : VobSub 
Muxing mode : zlib 
Codec ID : S_VOBSUB 
Codec ID/Info : Picture based subtitle format used on DVDs 
Duration : 56 min 47 s 
Bit rate : 8 275 b/s 
Count of elements : 648 
Stream size : 3.36 MiB (0%) 
Language : Swedish 
Default : No 
Forced : No 

Menu 
00:00:00.000 : en:Chapter 01 
00:05:47.680 : en:Chapter 02 
00:17:05.357 : en:Chapter 03 
00:26:41.099 : en:Chapter 04 
00:35:42.765 : en:Chapter 05 
00:46:41.840 : en:Chapter 06 
00:51:45.477 : en:Chapter 07 
00:57:20.061 : en:Chapter 08

[collapse]

Download: Google Drive

7 thoughts on “Game of Thrones (2011) Season 01-07 (1080p Bluray x265 HEVC 10bit AAC 7.1 Tigole)

Leave a Reply

Your email address will not be published. Required fields are marked *