Forever (2014) Season 1 (1080p AMZN WEB-DL x265 HEVC 10bit AAC 5.1 MONOLITH)

Info

Image result for forever 2014 tv poster

Plot: Dr. Henry Morgan is New York City’s star medical examiner, but what no one knows is Henry studies the dead for a reason: He is immortal. With the help of detective Jo Martinez, the show peels back the layers of Henry’s colorful and long life through their cases.

Files

Forever.2014.Season.1.S01.1080p.AMZN.WEBRip.AAC.5.1.x265.10bit.HEVC-MONOLITH
Forever.2014.S01E01.Pilot.1080p.AMZN.WEBRip.AAC.5.1.x265.10bit.HEVC-MONOLITH.mkv (813.1 MB)
Forever.2014.S01E02.Look.Before.You.Leap.1080p.AMZN.WEBRip.AAC.5.1.x265.10bit.HEVC-MONOLITH.mkv (705.7 MB)
Forever.2014.S01E03.Fountain.of.Youth.1080p.AMZN.WEBRip.AAC.5.1.x265.10bit.HEVC-MONOLITH.mkv (893.5 MB)
Forever.2014.S01E04.The.Art.of.Murder.1080p.AMZN.WEBRip.AAC.5.1.x265.10bit.HEVC-MONOLITH.mkv (907.7 MB)
Forever.2014.S01E05.The.Pugilist.Break.1080p.AMZN.WEBRip.AAC.5.1.x265.10bit.HEVC-MONOLITH.mkv (829.6 MB)
Forever.2014.S01E06.The.Frustrating.Thing.about.Psychopaths.1080p.AMZN.WEBRip.AAC.5.1.x265.10bit.HEVC-MONOLITH.mkv (694.5 MB)
Forever.2014.S01E07.New.York.Kids.1080p.AMZN.WEBRip.AAC.5.1.x265.10bit.HEVC-MONOLITH.mkv (896.1 MB)
Forever.2014.S01E08.The.Ecstasy.of.Agony.1080p.AMZN.WEBRip.AAC.5.1.x265.10bit.HEVC-MONOLITH.mkv (879.1 MB)
Forever.2014.S01E09.6.A.M.1080p.AMZN.WEBRip.AAC.5.1.x265.10bit.HEVC-MONOLITH.mkv (982.6 MB)
Forever.2014.S01E10.The.Man.in.the.Killer.Suit.1080p.AMZN.WEBRip.AAC.5.1.x265.10bit.HEVC-MONOLITH.mkv (809.1 MB)
Forever.2014.S01E11.Skinny.Dipper.1080p.AMZN.WEBRip.AAC.5.1.x265.10bit.HEVC-MONOLITH.mkv (746.9 MB)
Forever.2014.S01E12.The.Wolves.of.Deep.Brooklyn.1080p.AMZN.WEBRip.AAC.5.1.x265.10bit.HEVC-MONOLITH.mkv (756.7 MB)
Forever.2014.S01E13.Diamonds.Are.Forever.1080p.AMZN.WEBRip.AAC.5.1.x265.10bit.HEVC-MONOLITH.mkv (861.1 MB)
Forever.2014.S01E14.Hitler.on.the.Half-Shell.1080p.AMZN.WEBRip.AAC.5.1.x265.10bit.HEVC-MONOLITH.mkv (709.4 MB)
Forever.2014.S01E15.The.King.of.Columbus.Circle.1080p.AMZN.WEBRip.AAC.5.1.x265.10bit.HEVC-MONOLITH.mkv (1,009.2 MB)
Forever.2014.S01E16.Memories.of.Murder.1080p.AMZN.WEBRip.AAC.5.1.x265.10bit.HEVC-MONOLITH.mkv (823.1 MB)
Forever.2014.S01E17.Social.Engineering.1080p.AMZN.WEBRip.AAC.5.1.x265.10bit.HEVC-MONOLITH.mkv (910.0 MB)
Forever.2014.S01E18.Dead.Men.Tell.Long.Tales.1080p.AMZN.WEBRip.AAC.5.1.x265.10bit.HEVC-MONOLITH.mkv (669.3 MB)
Forever.2014.S01E19.Punk.is.Dead.1080p.AMZN.WEBRip.AAC.5.1.x265.10bit.HEVC-MONOLITH.mkv (888.3 MB)
Forever.2014.S01E20.Best.Foot.Forward.1080p.AMZN.WEBRip.AAC.5.1.x265.10bit.HEVC-MONOLITH.mkv (879.4 MB)
Forever.2014.S01E21.The.Night.in.Question.1080p.AMZN.WEBRip.AAC.5.1.x265.10bit.HEVC-MONOLITH.mkv (867.0 MB)
Forever.2014.S01E22.The.Last.Death.of.Henry.Morgan.1080p.AMZN.WEBRip.AAC.5.1.x265.10bit.HEVC-MONOLITH.mkv (712.8 MB)

Mediainfo

General
Unique ID                                : 229976885810859484417612036513451642055 (0xAD03EFE52170726EA37EC504793E8CC7)
Complete name                            : Forever.2014.S01E01.Pilot.1080p.AMZN.WEBRip.AAC.5.1.x265.10bit.HEVC-MONOLITH.mkv
Format                                   : Matroska
Format version                           : Version 4 / Version 2
File size                                : 813 MiB
Duration                                 : 43 min 9 s
Overall bit rate                         : 2 634 kb/s
Movie name                               : Forever.S01E01.Pilot.1080p.AMZN.WEBRip.DD5.1.x264-CasStudio
Encoded date                             : UTC 2018-06-19 05:01:33
Writing application                      : mkvmerge v15.0.0 ('Duel with the Devil') 64-bit
Writing library                          : libebml v1.3.5 + libmatroska v1.4.5
Writing frontend                         : StaxRip v1.7.0.0

Video
ID                                       : 1
Format                                   : HEVC
Format/Info                              : High Efficiency Video Coding
Format profile                           : Main [email protected]@Main
Codec ID                                 : V_MPEGH/ISO/HEVC
Duration                                 : 43 min 9 s
Bit rate                                 : 2 172 kb/s
Width                                    : 1 920 pixels
Height                                   : 1 080 pixels
Display aspect ratio                     : 16:9
Frame rate mode                          : Constant
Frame rate                               : 23.976 (24000/1001) FPS
Color space                              : YUV
Chroma subsampling                       : 4:2:0
Bit depth                                : 10 bits
Bits/(Pixel*Frame)                       : 0.044
Stream size                              : 671 MiB (82%)
Writing library                          : x265 2.5+14-2718cb5dd67f:[Windows][GCC 7.1.0][64 bit] 10bit
Encoding settings                        : cpuid=1173503 / frame-threads=3 / numa-pools=8 / wpp / no-pmode / no-pme / no-psnr / no-ssim / log-level=2 / input-csp=1 / input-res=1920x1080 / interlace=0 / total-frames=62094 / level-idc=0 / high-tier=1 / uhd-bd=0 / ref=4 / no-allow-non-conformance / no-repeat-headers / annexb / no-aud / no-hrd / info / hash=0 / no-temporal-layers / open-gop / min-keyint=23 / keyint=250 / bframes=8 / b-adapt=2 / b-pyramid / bframe-bias=0 / rc-lookahead=60 / lookahead-slices=4 / scenecut=40 / no-intra-refresh / ctu=64 / min-cu-size=8 / rect / no-amp / max-tu-size=32 / tu-inter-depth=1 / tu-intra-depth=1 / limit-tu=0 / rdoq-level=2 / dynamic-rd=0.00 / no-ssim-rd / signhide / no-tskip / nr-intra=0 / nr-inter=0 / no-constrained-intra / no-strong-intra-smoothing / max-merge=3 / limit-refs=3 / limit-modes / me=3 / subme=3 / merange=57 / temporal-mvp / weightp / no-weightb / no-analyze-src-pics / deblock=-3:-3 / no-sao / no-sao-non-deblock / rd=4 / no-early-skip / rskip / no-fast-intra / no-tskip-fast / no-cu-lossless / no-b-intra / no-splitrd-skip / rdpenalty=0 / psy-rd=1.40 / psy-rdoq=1.50 / no-rd-refine / analysis-reuse-mode=0 / no-lossless / cbqpoffs=0 / crqpoffs=0 / rc=crf / crf=22.0 / qcomp=0.60 / qpstep=4 / stats-write=0 / stats-read=0 / ipratio=1.40 / pbratio=1.30 / aq-mode=3 / aq-strength=0.80 / cutree / zone-count=0 / no-strict-cbr / qg-size=32 / no-rc-grain / qpmax=69 / qpmin=0 / no-const-vbv / sar=0 / overscan=0 / videoformat=5 / range=0 / colorprim=2 / transfer=2 / colormatrix=2 / chromaloc=0 / display-window=0 / max-cll=0,0 / min-luma=0 / max-luma=1023 / log2-max-poc-lsb=8 / vui-timing-info / vui-hrd-info / slices=1 / opt-qp-pps / opt-ref-list-length-pps / no-multi-pass-opt-rps / scenecut-bias=0.05 / no-opt-cu-delta-qp / no-aq-motion / no-hdr / no-hdr-opt / no-dhdr10-opt / analysis-reuse-level=5 / scale-factor=0 / refine-intra=0 / refine-inter=0 / refine-mv=0 / no-limit-sao / ctu-info=0
Default                                  : Yes
Forced                                   : No

Audio
ID                                       : 2
Format                                   : AAC
Format/Info                              : Advanced Audio Codec
Format profile                           : LC
Codec ID                                 : A_AAC
Duration                                 : 43 min 9 s
Bit rate                                 : 460 kb/s
Channel(s)                               : 6 channels
Channel positions                        : Front: L C R, Side: L R, LFE
Sampling rate                            : 48.0 kHz
Frame rate                               : 46.875 FPS (1024 spf)
Compression mode                         : Lossy
Delay relative to video                  : 20 ms
Stream size                              : 142 MiB (17%)
Language                                 : English
Default                                  : No
Forced                                   : No

Text
ID                                       : 3
Format                                   : UTF-8
Codec ID                                 : S_TEXT/UTF8
Codec ID/Info                            : UTF-8 Plain Text
Duration                                 : 42 min 34 s
Bit rate                                 : 79 b/s
Count of elements                        : 816
Stream size                              : 24.8 KiB (0%)
Language                                 : English
Default                                  : No
Forced                                   : No

Screencaps

Download

Download: Google Drive (17.82 GB)

Leave a Reply

Your email address will not be published. Required fields are marked *