Community (2009) Season 1-6 (1080p BluRay x265 HEVC 10bit AAC 5.1 RCVR)

Summary: A former lawyer attends a community college when it is discovered he faked his bachelor degree. In an attempt to get with a student in his Spanish class he forms a Spanish study group. To his surprise more people attend the study group and the group of misfits form an unlikely community.

Season 1

Community (2009) Season 1 S01 + Extras (1080p BluRay x265 HEVC 10bit AAC 5.1 RCVR)

Files

Community (2009) - S01E01 - Pilot (1080p BluRay x265 RCVR).mkv (1.4 GB)
Community (2009) - S01E02 - Spanish 101 (1080p BluRay x265 RCVR).mkv (716.1 MB)
Community (2009) - S01E03 - Introduction to Film (1080p BluRay x265 RCVR).mkv (714.7 MB)
Community (2009) - S01E04 - Social Psychology (1080p BluRay x265 RCVR).mkv (829.5 MB)
Community (2009) - S01E05 - Advanced Criminal Law (1080p BluRay x265 RCVR).mkv (731.1 MB)
Community (2009) - S01E06 - Football, Feminism and You (1080p BluRay x265 RCVR).mkv (707.1 MB)
Community (2009) - S01E07 - Introduction to Statistics (1080p BluRay x265 RCVR).mkv (705.4 MB)
Community (2009) - S01E08 - Home Economics (1080p BluRay x265 RCVR).mkv (806.3 MB)
Community (2009) - S01E09 - Debate 109 (1080p BluRay x265 RCVR).mkv (775.2 MB)
Community (2009) - S01E10 - Environmental Science (1080p BluRay x265 RCVR).mkv (773.5 MB)
Community (2009) - S01E11 - The Politics of Human Sexuality (1080p BluRay x265 RCVR).mkv (731.7 MB)
Community (2009) - S01E12 - Comparative Religion (1080p BluRay x265 RCVR).mkv (845.4 MB)
Community (2009) - S01E13 - Investigative Journalism (1080p BluRay x265 RCVR).mkv (619.5 MB)
Community (2009) - S01E14 - Interpretive Dance (1080p BluRay x265 RCVR).mkv (560.9 MB)
Community (2009) - S01E15 - Romantic Expressionism (1080p BluRay x265 RCVR).mkv (701.3 MB)
Community (2009) - S01E16 - Communication Studies (1080p BluRay x265 RCVR).mkv (720.8 MB)
Community (2009) - S01E17 - Physical Education (1080p BluRay x265 RCVR).mkv (699.0 MB)
Community (2009) - S01E18 - Basic Genealogy (1080p BluRay x265 RCVR).mkv (623.5 MB)
Community (2009) - S01E19 - Beginner Pottery (1080p BluRay x265 RCVR).mkv (662.7 MB)
Community (2009) - S01E20 - The Science of Illusion (1080p BluRay x265 RCVR).mkv (700.8 MB)
Community (2009) - S01E21 - Contemporary American Poultry (1080p BluRay x265 RCVR).mkv (603.3 MB)
Community (2009) - S01E22 - The Art of Discourse (1080p BluRay x265 RCVR).mkv (711.9 MB)
Community (2009) - S01E23 - Modern Warfare (1080p BluRay x265 RCVR).mkv (674.2 MB)
Community (2009) - S01E24 - English as a Second Language (1080p BluRay x265 RCVR).mkv (549.4 MB)
Community (2009) - S01E25 - Pascal's Triangle Revisited (1080p BluRay x265 RCVR).mkv (644.5 MB)

Featurettes
Alternate Scene - Advanced Criminal Law.mkv (15.4 MB)
Creative Compromises.mkv (22.5 MB)
Extended Producer's Cut - Communication Studies.mkv (142.0 MB)

Mini Episodes
Study Break - Generation Gap.mkv (7.4 MB)
Study Break - Stop Using Your Brain.mkv (7.4 MB)
Study Break - Truth or Dare.mkv (7.5 MB)
More Outtakes Disk 1.mkv (34.9 MB)
More Outtakes - Disk 2.mkv (32.9 MB)
Outtakes - Disk 1.mkv (31.3 MB)
Outtakes - Disk 2.mkv (37.5 MB)
Season One Cast Evaluations.mkv (59.7 MB)

Mediainfo

General 
Format : Matroska 
Format version : Version 4 / Version 2 
File size : 1.41 GiB 
Duration : 25 min 25 s 
Overall bit rate : 7 949 kb/s 
Encoded date : UTC 2018-12-09 23:16:34 
Writing application : mkvmerge v20.0.0 ('I Am The Sun') 64-bit 
Writing library : libebml v1.3.5 + libmatroska v1.4.8 
Cover : Yes 
Attachments : cover.jpg 
Writing frontend : StaxRip v1.7.0.6 

Video 
ID : 1 
Format : HEVC 
Format/Info : High Efficiency Video Coding 
Format profile : Main [email protected]@Main 
Codec ID : V_MPEGH/ISO/HEVC 
Duration : 25 min 25 s 
Bit rate : 7 417 kb/s 
Width : 1 920 pixels 
Height : 1 080 pixels 
Display aspect ratio : 16:9 
Frame rate mode : Constant 
Frame rate : 23.976 (24000/1001) FPS 
Color space : YUV 
Chroma subsampling : 4:2:0 
Bit depth : 10 bits 
Bits/(Pixel*Frame) : 0.149 
Stream size : 1.32 GiB (93%) 
Writing library : x265 2.9+9-f74003e88622:[Windows][MSVC 1900][64 bit] 10bit 
Encoding settings : cpuid=1111039 / frame-threads=3 / numa-pools=8 / wpp / no-pmode / no-pme / no-psnr / no-ssim / log-level=2 / input-csp=1 / input-res=1920x1080 / interlace=0 / total-frames=36584 / level-idc=0 / high-tier=1 / uhd-bd=0 / ref=5 / no-allow-non-conformance / no-repeat-headers / annexb / no-aud / no-hrd / info / hash=0 / no-temporal-layers / open-gop / min-keyint=23 / keyint=250 / gop-lookahead=0 / bframes=8 / b-adapt=2 / b-pyramid / bframe-bias=0 / rc-lookahead=80 / lookahead-slices=4 / scenecut=40 / radl=0 / no-intra-refresh / ctu=64 / min-cu-size=8 / rect / no-amp / max-tu-size=32 / tu-inter-depth=1 / tu-intra-depth=1 / limit-tu=0 / rdoq-level=2 / dynamic-rd=0.00 / no-ssim-rd / signhide / no-tskip / nr-intra=0 / nr-inter=0 / no-constrained-intra / no-strong-intra-smoothing / max-merge=4 / limit-refs=3 / limit-modes / me=3 / subme=5 / merange=57 / temporal-mvp / weightp / weightb / no-analyze-src-pics / deblock=-3:-3 / no-sao / no-sao-non-deblock / rd=4 / no-early-skip / no-rskip / no-fast-intra / no-tskip-fast / no-cu-lossless / no-b-intra / no-splitrd-skip / rdpenalty=0 / psy-rd=1.40 / psy-rdoq=1.70 / no-rd-refine / no-lossless / cbqpoffs=0 / crqpoffs=0 / rc=crf / crf=22.0 / qcomp=0.60 / qpstep=4 / stats-write=0 / stats-read=0 / ipratio=1.40 / pbratio=1.30 / aq-mode=3 / aq-strength=1.00 / cutree / zone-count=0 / no-strict-cbr / qg-size=32 / no-rc-grain / qpmax=69 / qpmin=0 / no-const-vbv / sar=0 / overscan=0 / videoformat=5 / range=0 / colorprim=2 / transfer=2 / colormatrix=2 / chromaloc=0 / display-window=0 / max-cll=0,0 / min-luma=0 / max-luma=1023 / log2-max-poc-lsb=8 / vui-timing-info / vui-hrd-info / slices=1 / no-opt-qp-pps / no-opt-ref-list-length-pps / no-multi-pass-opt-rps / scenecut-bias=0.05 / no-opt-cu-delta-qp / no-aq-motion / no-hdr / no-hdr-opt / no-dhdr10-opt / no-idr-recovery-sei / analysis-reuse-level=5 / scale-factor=0 / refine-intra=0 / refine-inter=0 / refine-mv=0 / no-limit-sao / ctu-info=0 / no-lowpass-dct / refine-mv-type=0 / copy-pic=1 / max-ausize-factor=1.0 / no-dynamic-refine / no-single-sei 
Default : Yes 
Forced : No 

Audio #1 
ID : 2 
Format : AAC 
Format/Info : Advanced Audio Codec 
Format profile : LC 
Codec ID : A_AAC 
Duration : 25 min 25 s 
Bit rate : 439 kb/s 
Channel(s) : 6 channels 
Channel positions : Front: L C R, Side: L R, LFE 
Sampling rate : 48.0 kHz 
Frame rate : 46.875 FPS (1024 spf) 
Compression mode : Lossy 
Delay relative to video : 20 ms 
Stream size : 79.8 MiB (6%) 
Language : English 
Default : No 
Forced : No 

Audio #2 
ID : 3 
Format : AAC 
Format/Info : Advanced Audio Codec 
Format profile : HE-AAC / LC 
Codec ID : A_AAC 
Duration : 25 min 25 s 
Bit rate : 80.0 kb/s 
Channel(s) : 2 channels 
Channel positions : Front: L R 
Sampling rate : 48.0 kHz / 24.0 kHz 
Frame rate : 23.438 FPS (1024 spf) 
Compression mode : Lossy 
Delay relative to video : 40 ms 
Stream size : 14.6 MiB (1%) 
Title : Commentary 
Language : English 
Default : No 
Forced : No 

Subtitle 
ID : 4 
Format : VobSub 
Muxing mode : zlib 
Codec ID : S_VOBSUB 
Codec ID/Info : Picture based subtitle format used on DVDs 
Duration : 24 min 44 s 
Bit rate : 17.2 kb/s 
Count of elements : 569 
Stream size : 3.04 MiB (0%) 
Language : English 
Default : No 
Forced : No 

Menu 
00:00:00.000 : en:Chapter 01 
00:02:11.131 : en:Chapter 02 
00:04:05.995 : en:Chapter 03 
00:10:54.278 : en:Chapter 04 
00:16:45.212 : en:Chapter 05 
00:24:47.277 : en:Chapter 06

Screens

Download

Download: Google Drive (18.22 GB)

Season 2

Community (2009) Season 2 S02 + Extras (1080p BluRay x265 HEVC 10bit AAC 5.1 RCVR)

Files

Community (2009) - S02E01 - Anthropology 101 (1080p BluRay x265 RCVR).mkv (664.4 MB)
Community (2009) - S02E02 - Accounting for Lawyers (1080p BluRay x265 RCVR).mkv (695.1 MB)
Community (2009) - S02E03 - The Psychology of Letting Go (1080p BluRay x265 RCVR).mkv (696.0 MB)
Community (2009) - S02E04 - Basic Rocket Science (1080p BluRay x265 RCVR).mkv (641.7 MB)
Community (2009) - S02E05 - Messianic Myths and Ancient Peoples (1080p BluRay x265 RCVR).mkv (691.5 MB)
Community (2009) - S02E06 - Epidemiology (1080p BluRay x265 RCVR).mkv (614.0 MB)
Community (2009) - S02E07 - Aerodynamics of Gender (1080p BluRay x265 RCVR).mkv (702.5 MB)
Community (2009) - S02E08 - Cooperative Calligraphy (1080p BluRay x265 RCVR).mkv (684.9 MB)
Community (2009) - S02E09 - Conspiracy Theories and Interior Design (1080p BluRay x265 RCVR).mkv (669.6 MB)
Community (2009) - S02E10 - Mixology Certification (1080p BluRay x265 RCVR).mkv (540.0 MB)
Community (2009) - S02E11 - Abed's Uncontrollable Christmas (1080p BluRay x265 RCVR).mkv (575.6 MB)
Community (2009) - S02E12 - Asian Population Studies (1080p BluRay x265 RCVR).mkv (838.5 MB)
Community (2009) - S02E13 - Celebrity Pharmacology (1080p BluRay x265 RCVR).mkv (824.9 MB)
Community (2009) - S02E14 - Advanced Dungeons & Dragons (1080p BluRay x265 RCVR).mkv (946.2 MB)
Community (2009) - S02E15 - Early 21st Century Romanticism (1080p BluRay x265 RCVR).mkv (965.0 MB)
Community (2009) - S02E16 - Intermediate Documentary Filmmaking (1080p BluRay x265 RCVR).mkv (673.8 MB)
Community (2009) - S02E17 - Intro to Political Science (1080p BluRay x265 RCVR).mkv (864.0 MB)
Community (2009) - S02E18 - Custody Law and Eastern European Diplomacy (1080p BluRay x265 RCVR).mkv (688.9 MB)
Community (2009) - S02E19 - Critical Film Studies (1080p BluRay x265 RCVR).mkv (692.6 MB)
Community (2009) - S02E20 - Competitive Wine Tasting (1080p BluRay x265 RCVR).mkv (741.7 MB)
Community (2009) - S02E21 - Paradigms of Human Memory (1080p BluRay x265 RCVR).mkv (779.5 MB)
Community (2009) - S02E22 - Applied Anthropology and Culinary Arts (1080p BluRay x265 RCVR).mkv (907.9 MB)
Community (2009) - S02E23 - A Fistful of Paintballs (1) (1080p BluRay x265 RCVR).mkv (575.1 MB)
Community (2009) - S02E24 - For a Few Paintballs More (2) (1080p BluRay x265 RCVR).mkv (792.5 MB)

Featurettes
DJ Steve Porter Remixes Season One.mkv (9.7 MB)

Deleted Scenes
Are You Trying to Shoot Yourself.mkv (4.4 MB)
He's a Real Giver.mkv (2.0 MB)
I'm a Vegetarian Anarchist.mkv (2.8 MB)
Spirits of the Elders.mkv (3.9 MB)
The Excrement of Strangers.mkv (2.5 MB)
This Won't Be Very Effective.mkv (2.4 MB)
What's the Worst That Can Happen with Chang.mkv (1.5 MB)
Where's the Party.mkv (2.4 MB)
More Outtakes - Disk 1.mkv (32.0 MB)
More Outtakes - Disk 2.mkv (24.5 MB)
Outtakes - Disk 1.mkv (25.5 MB)
Outtakes - Disk 2.mkv (28.3 MB)
Season Two Cast Evaluations.mkv (45.4 MB)

Mediainfo

General 
Format : Matroska 
Format version : Version 4 / Version 2 
File size : 664 MiB 
Duration : 21 min 9 s 
Overall bit rate : 4 391 kb/s 
Encoded date : UTC 2018-12-04 17:16:46 
Writing application : mkvmerge v12.0.0 ('Trust / Lust') 64bit 
Writing library : libebml v1.3.4 + libmatroska v1.4.5 
Cover : Yes 
Attachments : cover.jpg 

Video 
ID : 1 
Format : HEVC 
Format/Info : High Efficiency Video Coding 
Format profile : Main [email protected]@Main 
Codec ID : V_MPEGH/ISO/HEVC 
Duration : 21 min 9 s 
Bit rate : 3 879 kb/s 
Width : 1 920 pixels 
Height : 1 080 pixels 
Display aspect ratio : 16:9 
Frame rate mode : Constant 
Frame rate : 23.976 (24000/1001) FPS 
Color space : YUV 
Chroma subsampling : 4:2:0 
Bit depth : 10 bits 
Bits/(Pixel*Frame) : 0.078 
Stream size : 587 MiB (88%) 
Writing library : x265 2.9+9-f74003e88622:[Windows][MSVC 1900][64 bit] 10bit 
Encoding settings : cpuid=1111039 / frame-threads=3 / numa-pools=8 / wpp / no-pmode / no-pme / no-psnr / no-ssim / log-level=2 / input-csp=1 / input-res=1920x1080 / interlace=0 / total-frames=30432 / level-idc=0 / high-tier=1 / uhd-bd=0 / ref=5 / no-allow-non-conformance / no-repeat-headers / annexb / no-aud / no-hrd / info / hash=0 / no-temporal-layers / open-gop / min-keyint=23 / keyint=250 / gop-lookahead=0 / bframes=8 / b-adapt=2 / b-pyramid / bframe-bias=0 / rc-lookahead=80 / lookahead-slices=4 / scenecut=40 / radl=0 / no-intra-refresh / ctu=64 / min-cu-size=8 / rect / no-amp / max-tu-size=32 / tu-inter-depth=1 / tu-intra-depth=1 / limit-tu=0 / rdoq-level=2 / dynamic-rd=0.00 / no-ssim-rd / signhide / no-tskip / nr-intra=0 / nr-inter=0 / no-constrained-intra / no-strong-intra-smoothing / max-merge=4 / limit-refs=3 / limit-modes / me=3 / subme=5 / merange=57 / temporal-mvp / weightp / weightb / no-analyze-src-pics / deblock=-3:-3 / no-sao / no-sao-non-deblock / rd=4 / no-early-skip / no-rskip / no-fast-intra / no-tskip-fast / no-cu-lossless / no-b-intra / no-splitrd-skip / rdpenalty=0 / psy-rd=1.40 / psy-rdoq=1.70 / no-rd-refine / no-lossless / cbqpoffs=0 / crqpoffs=0 / rc=crf / crf=22.0 / qcomp=0.60 / qpstep=4 / stats-write=0 / stats-read=0 / ipratio=1.40 / pbratio=1.30 / aq-mode=3 / aq-strength=1.00 / cutree / zone-count=0 / no-strict-cbr / qg-size=32 / no-rc-grain / qpmax=69 / qpmin=0 / no-const-vbv / sar=0 / overscan=0 / videoformat=5 / range=0 / colorprim=2 / transfer=2 / colormatrix=2 / chromaloc=0 / display-window=0 / max-cll=0,0 / min-luma=0 / max-luma=1023 / log2-max-poc-lsb=8 / vui-timing-info / vui-hrd-info / slices=1 / no-opt-qp-pps / no-opt-ref-list-length-pps / no-multi-pass-opt-rps / scenecut-bias=0.05 / no-opt-cu-delta-qp / no-aq-motion / no-hdr / no-hdr-opt / no-dhdr10-opt / no-idr-recovery-sei / analysis-reuse-level=5 / scale-factor=0 / refine-intra=0 / refine-inter=0 / refine-mv=0 / no-limit-sao / ctu-info=0 / no-lowpass-dct / refine-mv-type=0 / copy-pic=1 / max-ausize-factor=1.0 / no-dynamic-refine / no-single-sei 
Default : Yes 
Forced : No 

Audio #1 
ID : 2 
Format : AAC 
Format/Info : Advanced Audio Codec 
Format profile : LC 
Codec ID : A_AAC 
Duration : 21 min 9 s 
Bit rate : 418 kb/s 
Channel(s) : 6 channels 
Channel positions : Front: L C R, Side: L R, LFE 
Sampling rate : 48.0 kHz 
Frame rate : 46.875 FPS (1024 spf) 
Compression mode : Lossy 
Delay relative to video : 20 ms 
Stream size : 63.3 MiB (10%) 
Language : English 
Default : Yes 
Forced : No 

Audio #2 
ID : 3 
Format : AAC 
Format/Info : Advanced Audio Codec 
Format profile : HE-AAC / LC 
Codec ID : A_AAC 
Duration : 21 min 9 s 
Bit rate : 80.0 kb/s 
Channel(s) : 2 channels 
Channel positions : Front: L R 
Sampling rate : 48.0 kHz / 24.0 kHz 
Frame rate : 23.438 FPS (1024 spf) 
Compression mode : Lossy 
Delay relative to video : 40 ms 
Stream size : 12.1 MiB (2%) 
Language : English 
Default : No 
Forced : No 

Subtitle 
ID : 4 
Format : PGS 
Muxing mode : zlib 
Codec ID : S_HDMV/PGS 
Codec ID/Info : Picture based subtitle format used on BDs/HD-DVDs 
Duration : 21 min 1 s 
Bit rate : 9 836 b/s 
Count of elements : 975 
Stream size : 1.48 MiB (0%) 
Language : English 
Default : No 
Forced : No 

Menu 
00:00:00.000 : en:Chapter 01 
00:04:38.027 : en:Chapter 02 
00:10:27.376 : en:Chapter 03 
00:15:35.976 : en:Chapter 04 
00:20:13.128 : en:Chapter 05

Screens

Download

Download: Google Drive (17.24 GB)

Season 3

Community (2009) Season 3 S03 + Extras (1080p BluRay x265 HEVC 10bit AAC 5.1 RCVR)

Files

Community (2009) - S03E01 - Biology 101 (1080p BluRay x265 RCVR).mkv (985.1 MB)
Community (2009) - S03E02 - Geography of Global Conflict (1080p BluRay x265 RCVR).mkv (649.0 MB)
Community (2009) - S03E03 - Competitive Ecology (1080p BluRay x265 RCVR).mkv (604.5 MB)
Community (2009) - S03E04 - Remedial Chaos Theory (1080p BluRay x265 RCVR).mkv (714.0 MB)
Community (2009) - S03E05 - Horror Fiction in Seven Spooky Steps (1080p BluRay x265 RCVR).mkv (725.1 MB)
Community (2009) - S03E06 - Advanced Gay (1080p BluRay x265 RCVR).mkv (669.3 MB)
Community (2009) - S03E07 - Studies in Modern Movement (1080p BluRay x265 RCVR).mkv (673.8 MB)
Community (2009) - S03E08 - Documentary Filmmaking Redux (1080p BluRay x265 RCVR).mkv (887.5 MB)
Community (2009) - S03E09 - Foosball and Nocturnal Vigilantism (1080p BluRay x265 RCVR).mkv (707.3 MB)
Community (2009) - S03E10 - Regional Holiday Music (1080p BluRay x265 RCVR).mkv (832.8 MB)
Community (2009) - S03E11 - Urban Matrimony and the Sandwich Arts (1080p BluRay x265 RCVR).mkv (745.0 MB)
Community (2009) - S03E12 - Contemporary Impressionists (1080p BluRay x265 RCVR).mkv (716.8 MB)
Community (2009) - S03E13 - Digital Exploration of Interior Design (1) (1080p BluRay x265 RCVR).mkv (647.7 MB)
Community (2009) - S03E14 - Pillows and Blankets (2) (1080p BluRay x265 RCVR).mkv (762.2 MB)
Community (2009) - S03E15 - Origins of Vampire Mythology (1080p BluRay x265 RCVR).mkv (650.1 MB)
Community (2009) - S03E16 - Virtual Systems Analysis (1080p BluRay x265 RCVR).mkv (645.7 MB)
Community (2009) - S03E17 - Basic Lupine Urology (1080p BluRay x265 RCVR).mkv (616.5 MB)
Community (2009) - S03E18 - Course Listing Unavailable (1080p BluRay x265 RCVR).mkv (615.9 MB)
Community (2009) - S03E19 - Curriculum Unavailable (1080p BluRay x265 RCVR).mkv (761.3 MB)
Community (2009) - S03E20 - Digital Estate Planning (1080p BluRay x265 RCVR).mkv (464.4 MB)
Community (2009) - S03E21 - The First Chang Dynasty (1080p BluRay x265 RCVR).mkv (803.8 MB)
Community (2009) - S03E22 - Introduction to Finality (1080p BluRay x265 RCVR).mkv (720.2 MB)

Featurettes
A Glee-ful Community Christmas.mkv (174.8 MB)

Deleted Scenes
Advanced Gay.mkv (6.4 MB)
Basic Lupine Urology.mkv (3.0 MB)
Biology 101.mkv (10.5 MB)
Competitive Ecology.mkv (11.3 MB)
Course Listing Unavailable.mkv (29.4 MB)
Digital Exploration of Interior Design.mkv (11.1 MB)
Documentary Filmmaking - Redux.mkv (104.5 MB)
Geography of Global Conflict.mkv (3.5 MB)
Introduction to Finality.mkv (31.1 MB)
Pillow and Blankets.mkv (27.8 MB)
Remedial Chaos Theory.mkv (6.3 MB)
Urban Matrimony and the Sandwich Arts.mkv (12.8 MB)
More Outtakes (Disk 1).mkv (171.2 MB)
More Outtakes (Disk 2).mkv (45.7 MB)
Outtakes (Disk 1).mkv (139.7 MB)
Outtakes (Disk 2).mkv (105.9 MB)
This Is War - Pillows Vs. Blankets.mkv (301.5 MB)

Mediainfo

General 
Format                                   : Matroska 
Format version                           : Version 4 / Version 2 
File size                                : 985 MiB 
Duration                                 : 21 min 23 s 
Overall bit rate                         : 6 436 kb/s 
Encoded date                             : UTC 2018-11-25 22:17:32 
Writing application                      : mkvmerge v12.0.0 ('Trust / Lust') 64bit 
Writing library                          : libebml v1.3.4 + libmatroska v1.4.5 
Cover                                    : Yes 
Attachments                              : cover.jpg 

Video 
ID                                       : 1 
Format                                   : HEVC 
Format/Info                              : High Efficiency Video Coding 
Format profile                           : Main [email protected]@Main 
Codec ID                                 : V_MPEGH/ISO/HEVC 
Duration                                 : 21 min 23 s 
Bit rate                                 : 5 955 kb/s 
Width                                    : 1 920 pixels 
Height                                   : 1 080 pixels 
Display aspect ratio                     : 16:9 
Frame rate mode                          : Constant 
Frame rate                               : 23.976 (24000/1001) FPS 
Color space                              : YUV 
Chroma subsampling                       : 4:2:0 
Bit depth                                : 10 bits 
Bits/(Pixel*Frame)                       : 0.120 
Stream size                              : 911 MiB (92%) 
Writing library                          : x265 2.9+8-27d8424c799d:[Windows][MSVC 1900][64 bit] 10bit 
Encoding settings                        : cpuid=1111039 / frame-threads=3 / numa-pools=8 / wpp / no-pmode / no-pme / no-psnr / no-ssim / log-level=2 / input-csp=1 / input-res=1920x1080 / interlace=0 / total-frames=30769 / level-idc=0 / high-tier=1 / uhd-bd=0 / ref=5 / no-allow-non-conformance / no-repeat-headers / annexb / no-aud / no-hrd / info / hash=0 / no-temporal-layers / open-gop / min-keyint=23 / keyint=250 / gop-lookahead=0 / bframes=8 / b-adapt=2 / b-pyramid / bframe-bias=0 / rc-lookahead=80 / lookahead-slices=4 / scenecut=40 / radl=0 / no-intra-refresh / ctu=64 / min-cu-size=8 / rect / no-amp / max-tu-size=32 / tu-inter-depth=1 / tu-intra-depth=1 / limit-tu=0 / rdoq-level=2 / dynamic-rd=0.00 / no-ssim-rd / signhide / no-tskip / nr-intra=0 / nr-inter=0 / no-constrained-intra / no-strong-intra-smoothing / max-merge=4 / limit-refs=3 / limit-modes / me=3 / subme=5 / merange=57 / temporal-mvp / weightp / weightb / no-analyze-src-pics / deblock=-3:-3 / no-sao / no-sao-non-deblock / rd=4 / no-early-skip / no-rskip / no-fast-intra / no-tskip-fast / no-cu-lossless / no-b-intra / no-splitrd-skip / rdpenalty=0 / psy-rd=1.20 / psy-rdoq=1.50 / no-rd-refine / no-lossless / cbqpoffs=0 / crqpoffs=0 / rc=crf / crf=22.0 / qcomp=0.60 / qpstep=4 / stats-write=0 / stats-read=0 / ipratio=1.40 / pbratio=1.30 / aq-mode=3 / aq-strength=1.00 / cutree / zone-count=0 / no-strict-cbr / qg-size=32 / no-rc-grain / qpmax=69 / qpmin=0 / no-const-vbv / sar=0 / overscan=0 / videoformat=5 / range=0 / colorprim=2 / transfer=2 / colormatrix=2 / chromaloc=0 / display-window=0 / max-cll=0,0 / min-luma=0 / max-luma=1023 / log2-max-poc-lsb=8 / vui-timing-info / vui-hrd-info / slices=1 / no-opt-qp-pps / no-opt-ref-list-length-pps / no-multi-pass-opt-rps / scenecut-bias=0.05 / no-opt-cu-delta-qp / no-aq-motion / no-hdr / no-hdr-opt / no-dhdr10-opt / no-idr-recovery-sei / analysis-reuse-level=5 / scale-factor=0 / refine-intra=0 / refine-inter=0 / refine-mv=0 / no-limit-sao / ctu-info=0 / no-lowpass-dct / refine-mv-type=0 / copy-pic=1 / max-ausize-factor=1.0 / no-dynamic-refine / no-single-sei 
Default                                  : Yes 
Forced                                   : No 

Audio #1 
ID                                       : 2 
Format                                   : AAC 
Format/Info                              : Advanced Audio Codec 
Format profile                           : LC 
Codec ID                                 : A_AAC 
Duration                                 : 21 min 23 s 
Bit rate                                 : 384 kb/s 
Channel(s)                               : 6 channels 
Channel positions                        : Front: L C R, Side: L R, LFE 
Sampling rate                            : 48.0 kHz 
Frame rate                               : 46.875 FPS (1024 spf) 
Compression mode                         : Lossy 
Delay relative to video                  : 20 ms 
Stream size                              : 59.7 MiB (6%) 
Language                                 : English 
Default                                  : Yes 
Forced                                   : No 

Audio #2 
ID                                       : 3 
Format                                   : AAC 
Format/Info                              : Advanced Audio Codec 
Format profile                           : HE-AAC / LC 
Codec ID                                 : A_AAC 
Duration                                 : 21 min 23 s 
Bit rate                                 : 80.0 kb/s 
Channel(s)                               : 2 channels 
Channel positions                        : Front: L R 
Sampling rate                            : 48.0 kHz / 24.0 kHz 
Frame rate                               : 23.438 FPS (1024 spf) 
Compression mode                         : Lossy 
Delay relative to video                  : 40 ms 
Stream size                              : 12.2 MiB (1%) 
Title                                    : Commentary 
Language                                 : English 
Default                                  : No 
Forced                                   : No 

Subtitle 
ID                                       : 4 
Format                                   : PGS 
Muxing mode                              : zlib 
Codec ID                                 : S_HDMV/PGS 
Codec ID/Info                            : Picture based subtitle format used on BDs/HD-DVDs 
Duration                                 : 21 min 23 s 
Bit rate                                 : 9 118 b/s 
Count of elements                        : 893 
Stream size                              : 1.40 MiB (0%) 
Language                                 : English 
Default                                  : No 
Forced                                   : No 

Menu 
00:00:00.000                             : :Chapter 01 
00:04:08.665                             : :Chapter 02 
00:09:04.794                             : :Chapter 03 
00:17:29.048                             : :Chapter 04 
00:20:37.486                             : :Chapter 05

Screens

Download

Download: Google Drive (16.40 GB)

Season 4

Community (2009) Season 4 S04 + Extras (1080p BluRay x265 HEVC 10bit AAC 5.1 RCVR)

Files

Community (2009) - S04E01 - History 101 (1080p BluRay x265 RCVR).mkv (1,003.4 MB)
Community (2009) - S04E02 - Paranormal Parentage (1080p BluRay x265 RCVR).mkv (500.4 MB)
Community (2009) - S04E03 - Conventions of Space and Time (1080p BluRay x265 RCVR).mkv (729.3 MB)
Community (2009) - S04E04 - Alternative History of the German Invasion (1080p BluRay x265 RCVR).mkv (667.7 MB)
Community (2009) - S04E05 - Cooperative Escapism in Familial Relations (1080p BluRay x265 RCVR).mkv (765.9 MB)
Community (2009) - S04E06 - Advanced Documentary Filmmaking (1080p BluRay x265 RCVR).mkv (778.9 MB)
Community (2009) - S04E07 - Economics of Marine Biology (1080p BluRay x265 RCVR).mkv (715.3 MB)
Community (2009) - S04E08 - Herstory of Dance (1080p BluRay x265 RCVR).mkv (654.9 MB)
Community (2009) - S04E09 - Intro to Felt Surrogacy (1080p BluRay x265 RCVR).mkv (717.3 MB)
Community (2009) - S04E10 - Intro to Knots (1080p BluRay x265 RCVR).mkv (664.6 MB)
Community (2009) - S04E11 - Basic Human Anatomy (1080p BluRay x265 RCVR).mkv (716.5 MB)
Community (2009) - S04E12 - Heroic Origins (1080p BluRay x265 RCVR).mkv (661.1 MB)
Community (2009) - S04E13 - Advanced Introduction to Finality (1080p BluRay x265 RCVR).mkv (681.3 MB)

Featurettes
Adventures in Advanced Puppetry.mkv (476.0 MB)

Deleted Scenes
Annie's Appletini.mkv (7.3 MB)
Boy, You're Good at That.mkv (4.3 MB)
Bring on Summer Winter.mkv (12.7 MB)
Dinner Roll Therapy.mkv (12.9 MB)
Fake a Heart Attack.mkv (14.9 MB)
I Haven't Slept in Three Days.mkv (22.1 MB)
I Really Blasted Him.mkv (3.4 MB)
Little Annie Adderall.mkv (8.8 MB)
Reading My Pun Book.mkv (26.7 MB)
Sleep Like A Baby.mkv (5.6 MB)
There's Another Cloud.mkv (16.4 MB)
This is Your Legacy.mkv (31.5 MB)
Why So Sour Kraut.mkv (7.6 MB)
Inspector Spacetime - Inspection.mkv (315.2 MB)
Season 4 - Outtakes.mkv (127.0 MB)

Mediainfo

General 
Format: Matroska 
File Size: 1 003 MiB 
Duration: 21 min 26 s 
Overall Bit Rate: 6,542 kb/s 

Video 
Format: HEVC 
Format Profile: Main [email protected]@Main 
Bit Rate: 6,037 kb/s 
Dimensions: 1,920 x 1,080 pixels 
Display Aspect Ratio: 16:9 
Frame Rate: 23.976 (24000/1001) FPS 
Writing Library: x265 2.9+9-f74003e88622:[Windows][MSVC 1900][64 bit] 10bit 
Encoding Settings: cpuid=1111039 / frame-threads=2 / numa-pools=4 / wpp / no-pmode / no-pme / no-psnr / no-ssim / log-level=2 / input-csp=1 / input-res=1920x1080 / interlace=0 / total-frames=30845 / level-idc=0 / high-tier=1 / uhd-bd=0 / ref=5 / no-allow-non-conformance / no-repeat-headers / annexb / no-aud / no-hrd / info / hash=0 / no-temporal-layers / open-gop / min-keyint=23 / keyint=250 / gop-lookahead=0 / bframes=8 / b-adapt=2 / b-pyramid / bframe-bias=0 / rc-lookahead=80 / lookahead-slices=4 / scenecut=40 / radl=0 / no-intra-refresh / ctu=64 / min-cu-size=8 / rect / no-amp / max-tu-size=32 / tu-inter-depth=1 / tu-intra-depth=1 / limit-tu=0 / rdoq-level=2 / dynamic-rd=0.00 / no-ssim-rd / signhide / no-tskip / nr-intra=0 / nr-inter=0 / no-constrained-intra / no-strong-intra-smoothing / max-merge=4 / limit-refs=3 / limit-modes / me=3 / subme=5 / merange=57 / temporal-mvp / weightp / weightb / no-analyze-src-pics / deblock=-3:-3 / no-sao / no-sao-non-deblock / rd=4 / no-early-skip / no-rskip / no-fast-intra / no-tskip-fast / no-cu-lossless / no-b-intra / no-splitrd-skip / rdpenalty=0 / psy-rd=1.20 / psy-rdoq=1.50 / no-rd-refine / no-lossless / cbqpoffs=0 / crqpoffs=0 / rc=crf / crf=22.0 / qcomp=0.60 / qpstep=4 / stats-write=0 / stats-read=0 / ipratio=1.40 / pbratio=1.30 / aq-mode=3 / aq-strength=1.00 / cutree / zone-count=0 / no-strict-cbr / qg-size=32 / no-rc-grain / qpmax=69 / qpmin=0 / no-const-vbv / sar=0 / overscan=0 / videoformat=5 / range=0 / colorprim=2 / transfer=2 / colormatrix=2 / chromaloc=0 / display-window=0 / max-cll=0,0 / min-luma=0 / max-luma=1023 / log2-max-poc-lsb=8 / vui-timing-info / vui-hrd-info / slices=1 / no-opt-qp-pps / no-opt-ref-list-length-pps / no-multi-pass-opt-rps / scenecut-bias=0.05 / no-opt-cu-delta-qp / no-aq-motion / no-hdr / no-hdr-opt / no-dhdr10-opt / no-idr-recovery-sei / analysis-reuse-level=5 / scale-factor=0 / refine-intra=0 / refine-inter=0 / refine-mv=0 / no-limit-sao / ctu-info=0 / no-lowpass-dct / refine-mv-type=0 / copy-pic=1 / max-ausize-factor=1.0 / no-dynamic-refine / no-single-sei 

Audio #1: English - AAC LC / 6 channels / 413 kb/s [Default] 
Audio #2: English - HE-AAC / 2 channels / 80.0 kb/s 

Subtitle: English - PGS / 43.7 kb/s 

Chapters 
00:00:00.000 : en:Chapter 01 
00:02:13.258 : en:Chapter 02 
00:08:01.981 : en:Chapter 03 
00:16:25.442 : en:Chapter 04 
00:20:41.740 : en:Chapter 05

Screens

Download

Download: Google Drive (10.11 GB)

Season 5

Community (2009) Season 5 S05 + Extras (1080p BluRay x265 HEVC 10bit AAC 5.1 RCVR)

Files

General

Mediainfo

Community (2009) - S05E01 - Repilot (1080p BluRay x265 RCVR).mkv (486.8 MB)
Community (2009) - S05E02 - Introduction to Teaching (1080p BluRay x265 RCVR).mkv (599.6 MB)
Community (2009) - S05E03 - Basic Intergluteal Numismatics (1080p BluRay x265 RCVR).mkv (567.9 MB)
Community (2009) - S05E04 - Cooperative Polygraphy (1080p BluRay x265 RCVR).mkv (457.3 MB)
Community (2009) - S05E05 - Geothermal Escapism (1080p BluRay x265 RCVR).mkv (719.8 MB)
Community (2009) - S05E06 - Analysis of Cork-Based Networking (1080p BluRay x265 RCVR).mkv (583.0 MB)
Community (2009) - S05E07 - Bondage and Beta Male Sexuality (1080p BluRay x265 RCVR).mkv (590.9 MB)
Community (2009) - S05E08 - App Development and Condiments (1080p BluRay x265 RCVR).mkv (694.2 MB)
Community (2009) - S05E09 - VCR Maintenance and Educational Publishing (1080p BluRay x265 RCVR).mkv (523.9 MB)
Community (2009) - S05E10 - Advanced Advanced Dungeons & Dragons (1080p BluRay x265 RCVR).mkv (490.5 MB)
Community (2009) - S05E11 - G.I. Jeff (1080p BluRay x265 RCVR).mkv (1.5 GB)
Community (2009) - S05E12 - Basic Story (1080p BluRay x265 RCVR).mkv (564.8 MB)
Community (2009) - S05E13 - Basic Sandwich (1080p BluRay x265 RCVR).mkv (518.9 MB)

Featurettes
Advanced Television Production - 5 Days, 2 Scripts, No Sleep.mkv (1.0 GB)
Re-Animating The 80s.mkv (423.1 MB)
Season 5 - Outtakes.mkv (101.1 MB)

Screens

Download

Download: Google Drive (9.66 GB)

Season 6

Community (2009) Season 6 S06 + Extras (1080p BluRay x265 HEVC 10bit AAC 5.1 RCVR)

Files

Community (2009) - S06E01 - Ladders (1080p BluRay x265 RCVR).mkv (747.9 MB)
Community (2009) - S06E02 - Lawnmower Maintenance and Postnatal Care (1080p BluRay x265 RCVR).mkv (860.5 MB)
Community (2009) - S06E03 - Basic Crisis Room Decorum (1080p BluRay x265 RCVR).mkv (629.4 MB)
Community (2009) - S06E04 - Queer Studies and Advanced Waxing (1080p BluRay x265 RCVR).mkv (809.5 MB)
Community (2009) - S06E05 - Laws of Robotics and Party Rights (1080p BluRay x265 RCVR).mkv (773.6 MB)
Community (2009) - S06E06 - Basic Email Security (1080p BluRay x265 RCVR).mkv (792.1 MB)
Community (2009) - S06E07 - Advanced Safety Features (1080p BluRay x265 RCVR).mkv (824.2 MB)
Community (2009) - S06E08 - Intro to Recycled Cinema (1080p BluRay x265 RCVR).mkv (883.2 MB)
Community (2009) - S06E09 - Grifting 101 (1080p BluRay x265 RCVR).mkv (843.2 MB)
Community (2009) - S06E10 - Basic RV Repair and Palmistry (1080p BluRay x265 RCVR).mkv (732.6 MB)
Community (2009) - S06E11 - Modern Espionage (1080p BluRay x265 RCVR).mkv (854.9 MB)
Community (2009) - S06E12 - Wedding Videography (1080p BluRay x265 RCVR).mkv (1.1 GB)
Community (2009) - S06E13 - Emotional Consequences of Broadcast Television (1080p BluRay x265 RCVR).mkv (763.2 MB)

Featurettes
Community Trivia.mkv (674.0 MB)

Deleted Scenes
Being There for Garrett.mkv (13.1 MB)
Bruised But not Rotten.mkv (8.0 MB)
It Was Worth It.mkv (7.5 MB)
Paycheck Advance.mkv (18.2 MB)
Securing The Premises.mkv (46.3 MB)
Solving The Giant Hand.mkv (9.2 MB)
Season 6 - Gag Reel.mkv (151.9 MB)
Six Seasons and A Finale.mkv (529.7 MB)

Mediainfo

General 
Format: Matroska 
File Size: 748 MiB 
Duration: 27 min 29 s 
Overall Bit Rate: 3,803 kb/s 

Video 
Format: HEVC 
Format Profile: Main [email protected]@Main 
Bit Rate: 3,317 kb/s 
Dimensions: 1,920 x 1,080 pixels 
Display Aspect Ratio: 16:9 
Frame Rate: 23.976 (24000/1001) FPS 
Writing Library: x265 2.9+9-f74003e88622:[Windows][MSVC 1900][64 bit] 10bit 
Encoding Settings: cpuid=1111039 / frame-threads=2 / numa-pools=4 / wpp / no-pmode / no-pme / no-psnr / no-ssim / log-level=2 / input-csp=1 / input-res=1920x1080 / interlace=0 / total-frames=39554 / level-idc=0 / high-tier=1 / uhd-bd=0 / ref=5 / no-allow-non-conformance / no-repeat-headers / annexb / no-aud / no-hrd / info / hash=0 / no-temporal-layers / open-gop / min-keyint=23 / keyint=250 / gop-lookahead=0 / bframes=8 / b-adapt=2 / b-pyramid / bframe-bias=0 / rc-lookahead=80 / lookahead-slices=4 / scenecut=40 / radl=0 / no-intra-refresh / ctu=64 / min-cu-size=8 / rect / no-amp / max-tu-size=32 / tu-inter-depth=1 / tu-intra-depth=1 / limit-tu=0 / rdoq-level=2 / dynamic-rd=0.00 / no-ssim-rd / signhide / no-tskip / nr-intra=0 / nr-inter=0 / no-constrained-intra / no-strong-intra-smoothing / max-merge=4 / limit-refs=3 / limit-modes / me=3 / subme=5 / merange=57 / temporal-mvp / weightp / weightb / no-analyze-src-pics / deblock=-3:-3 / no-sao / no-sao-non-deblock / rd=4 / no-early-skip / no-rskip / no-fast-intra / no-tskip-fast / no-cu-lossless / no-b-intra / no-splitrd-skip / rdpenalty=0 / psy-rd=1.20 / psy-rdoq=1.50 / no-rd-refine / no-lossless / cbqpoffs=0 / crqpoffs=0 / rc=crf / crf=22.0 / qcomp=0.60 / qpstep=4 / stats-write=0 / stats-read=0 / ipratio=1.40 / pbratio=1.30 / aq-mode=3 / aq-strength=1.00 / cutree / zone-count=0 / no-strict-cbr / qg-size=32 / no-rc-grain / qpmax=69 / qpmin=0 / no-const-vbv / sar=0 / overscan=0 / videoformat=5 / range=0 / colorprim=2 / transfer=2 / colormatrix=2 / chromaloc=0 / display-window=0 / max-cll=0,0 / min-luma=0 / max-luma=1023 / log2-max-poc-lsb=8 / vui-timing-info / vui-hrd-info / slices=1 / no-opt-qp-pps / no-opt-ref-list-length-pps / no-multi-pass-opt-rps / scenecut-bias=0.05 / no-opt-cu-delta-qp / no-aq-motion / no-hdr / no-hdr-opt / no-dhdr10-opt / no-idr-recovery-sei / analysis-reuse-level=5 / scale-factor=0 / refine-intra=0 / refine-inter=0 / refine-mv=0 / no-limit-sao / ctu-info=0 / no-lowpass-dct / refine-mv-type=0 / copy-pic=1 / max-ausize-factor=1.0 / no-dynamic-refine / no-single-sei 

Audio #1: English - AAC LC / 6 channels / 392 kb/s [Default] 
Audio #2: English - HE-AAC / 2 channels / 80.0 kb/s 

Subtitle: English - PGS / 48.0 kb/s 

Chapters 
00:00:00.000 : en:Chapter 01 
00:02:31.359 : en:Chapter 02 
00:11:56.757 : en:Chapter 03 
00:21:47.389 : en:Chapter 04 
00:24:55.619 : en:Chapter 05

Screens

Download

Download: Google Drive (11.81 GB)

Leave a Reply

Your email address will not be published. Required fields are marked *