American Gods (2017) Season 1 (1080p BluRay x265 HEVC 10bit AAC 5.1 Silence)

Info

Plot: Based on Neil Gaiman’s 2001 novel of the same name, ex-convict Shadow Moon becomes the traveling partner of a mysterious conman named Mr. Wednesday after his release from prison. He soon discovers Mr. Wednesday is more than he seems and becomes embroiled in an epic conflict between Old Gods and New.

Files

American Gods (2017) Season 1 S01 (1080p BluRay x265 HEVC 10bit AAC 5.1 Silence)
American Gods (2017) - S01E01 - The Bone Orchard (1080p BluRay x265 Silence).mkv (1.8 GB)
American Gods (2017) - S01E02 - The Secret of Spoons (1080p BluRay x265 Silence).mkv (1.5 GB)
American Gods (2017) - S01E03 - Head Full of Snow (1080p BluRay x265 Silence).mkv (1.6 GB)
American Gods (2017) - S01E04 - Git Gone (1080p BluRay x265 Silence).mkv (1.3 GB)
American Gods (2017) - S01E05 - Lemon Scented You (1080p BluRay x265 Silence).mkv (1.2 GB)
American Gods (2017) - S01E06 - A Murder of Gods (1080p BluRay x265 Silence).mkv (1.2 GB)
American Gods (2017) - S01E07 - A Prayer for Mad Sweeney (1080p BluRay x265 Silence).mkv (1.1 GB)
American Gods (2017) - S01E08 - Come to Jesus (1080p BluRay x265 Silence).mkv (1.6 GB)

Mediainfo

General 
Format : Matroska 
Format version : Version 4 / Version 2 
File size : 1.84 GiB 
Duration : 1 h 2 min 
Overall bit rate : 4 198 kb/s 
Encoded date : UTC 2018-10-07 01:38:23 
Writing application : mkvmerge v20.0.0 ('I Am The Sun') 64-bit 
Writing library : libebml v1.3.5 + libmatroska v1.4.8 
Writing frontend : StaxRip v1.7.0.6 

Video 
ID : 1 
Format : HEVC 
Format/Info : High Efficiency Video Coding 
Format profile : Main [email protected]@Main 
Codec ID : V_MPEGH/ISO/HEVC 
Duration : 1 h 2 min 
Bit rate : 3 752 kb/s 
Width : 1 920 pixels 
Height : 1 080 pixels 
Display aspect ratio : 16:9 
Frame rate mode : Constant 
Frame rate : 23.976 (24000/1001) FPS 
Color space : YUV 
Chroma subsampling : 4:2:0 
Bit depth : 10 bits 
Bits/(Pixel*Frame) : 0.075 
Stream size : 1.64 GiB (89%) 
Writing library : x265 2.8+74-fd517ae68f93:[Windows][MSVC 1900][64 bit] 10bit 
Encoding settings : cpuid=1111039 / frame-threads=3 / numa-pools=8 / wpp / no-pmode / no-pme / no-psnr / no-ssim / log-level=2 / input-csp=1 / input-res=1920x1080 / interlace=0 / total-frames=90268 / level-idc=0 / high-tier=1 / uhd-bd=0 / ref=5 / no-allow-non-conformance / no-repeat-headers / annexb / no-aud / no-hrd / info / hash=0 / no-temporal-layers / open-gop / min-keyint=23 / keyint=250 / gop-lookahead=0 / bframes=8 / b-adapt=2 / b-pyramid / bframe-bias=0 / rc-lookahead=80 / lookahead-slices=4 / scenecut=40 / radl=0 / no-intra-refresh / ctu=64 / min-cu-size=8 / no-rect / no-amp / max-tu-size=32 / tu-inter-depth=1 / tu-intra-depth=1 / limit-tu=0 / rdoq-level=2 / dynamic-rd=0.00 / no-ssim-rd / signhide / no-tskip / nr-intra=0 / nr-inter=0 / no-constrained-intra / no-strong-intra-smoothing / max-merge=3 / limit-refs=3 / limit-modes / me=3 / subme=5 / merange=57 / temporal-mvp / weightp / weightb / no-analyze-src-pics / deblock=-3:-3 / no-sao / no-sao-non-deblock / rd=4 / no-early-skip / rskip / no-fast-intra / no-tskip-fast / no-cu-lossless / b-intra / no-splitrd-skip / rdpenalty=0 / psy-rd=1.50 / psy-rdoq=1.50 / no-rd-refine / no-lossless / cbqpoffs=0 / crqpoffs=0 / rc=crf / crf=20.5 / qcomp=0.60 / qpstep=4 / stats-write=0 / stats-read=0 / ipratio=1.40 / pbratio=1.30 / aq-mode=3 / aq-strength=0.80 / cutree / zone-count=0 / no-strict-cbr / qg-size=32 / no-rc-grain / qpmax=69 / qpmin=0 / no-const-vbv / sar=0 / overscan=0 / videoformat=5 / range=0 / colorprim=2 / transfer=2 / colormatrix=2 / chromaloc=0 / display-window=0 / max-cll=0,0 / min-luma=0 / max-luma=1023 / log2-max-poc-lsb=8 / vui-timing-info / vui-hrd-info / slices=1 / no-opt-qp-pps / no-opt-ref-list-length-pps / no-multi-pass-opt-rps / scenecut-bias=0.05 / no-opt-cu-delta-qp / no-aq-motion / no-hdr / no-hdr-opt / no-dhdr10-opt / no-idr-recovery-sei / analysis-reuse-level=5 / scale-factor=0 / refine-intra=0 / refine-inter=0 / refine-mv=0 / no-limit-sao / ctu-info=0 / no-lowpass-dct / refine-mv-type=0 / copy-pic=1 / max-ausize-factor=1.0 / no-dynamic-refine / no-single-sei 
Default : Yes 
Forced : No 

Audio 
ID : 2 
Format : AAC 
Format/Info : Advanced Audio Codec 
Format profile : LC 
Codec ID : A_AAC 
Duration : 1 h 2 min 
Bit rate : 426 kb/s 
Channel(s) : 6 channels 
Channel positions : Front: L C R, Side: L R, LFE 
Sampling rate : 48.0 kHz 
Frame rate : 46.875 FPS (1024 spf) 
Compression mode : Lossy 
Delay relative to video : 20 ms 
Stream size : 191 MiB (10%) 
Language : English 
Default : Yes 
Forced : No 

Subtitle 
ID : 3 
Format : PGS 
Muxing mode : zlib 
Codec ID : S_HDMV/PGS 
Codec ID/Info : Picture based subtitle format used on BDs/HD-DVDs 
Duration : 1 h 2 min 
Bit rate : 39.8 kb/s 
Count of elements : 1826 
Stream size : 17.8 MiB (1%) 
Language : English 
Default : No 
Forced : No 

Menu 
00:00:00.000 : en:00:00:00.000 
00:01:37.306 : en:00:01:37.306 
00:12:07.560 : en:00:12:07.560 
00:27:04.331 : en:00:27:04.331 
00:46:38.504 : en:00:46:38.504

Screencaps

Download

Download: Google Drive (11.27 GB)

1 thought on “American Gods (2017) Season 1 (1080p BluRay x265 HEVC 10bit AAC 5.1 Silence)

Leave a Reply

Your email address will not be published. Required fields are marked *