Altered Carbon (2018) Season 1 (1080p NF WEBRip x265 HEVC 10bit EAC3 6.0 RZeroX)

Summary: After 250 years on ice, a prisoner returns to life in a new body with one chance to win his freedom: by solving a mind-bending murder.

Files

Altered Carbon (2018) Season 1 S01 (1080p NF WEBRip x265 HEVC 10bit EAC3 6.0 RZeroX) REPACK
Altered Carbon (2018) - S01E01 - Out of the Past (1080p NF WEBRip x265 RZeroX).mkv (1.5 GB)
Altered Carbon (2018) - S01E02 - Fallen Angel (1080p NF WEBRip x265 RZeroX).mkv (1.5 GB)
Altered Carbon (2018) - S01E03 - In a Lonely Place (1080p NF WEBRip x265 RZeroX).mkv (1.0 GB)
Altered Carbon (2018) - S01E04 - Force of Evil (1080p NF WEBRip x265 RZeroX).mkv (1.8 GB)
Altered Carbon (2018) - S01E05 - The Wrong Man (1080p NF WEBRip x265 RZeroX).mkv (1.1 GB)
Altered Carbon (2018) - S01E06 - Man with My Face (1080p NF WEBRip x265 RZeroX).mkv (1.5 GB)
Altered Carbon (2018) - S01E07 - Nora Inu (1080p NF WEBRip x265 RZeroX).mkv (1.6 GB)
Altered Carbon (2018) - S01E08 - Clash by Night (1080p NF WEBRip x265 RZeroX).mkv (1.7 GB)
Altered Carbon (2018) - S01E09 - Rage in Heaven (1080p NF WEBRip x265 RZeroX).mkv (1.3 GB)
Altered Carbon (2018) - S01E10 - The Killers (1080p NF WEBRip x265 RZeroX) REPACK.mkv (1.5 GB)

Mediainfo

General 
Format : Matroska 
Format version : Version 4 / Version 2 
File size : 1.46 GiB 
Duration : 58 min 53 s 
Overall bit rate : 3 548 kb/s 
Encoded date : UTC 2018-02-06 12:20:55 
Writing application : mkvmerge v20.0.0 ('I Am The Sun') 64-bit 
Writing library : libebml v1.3.5 + libmatroska v1.4.8 

Video 
ID : 1 
Format : HEVC 
Format/Info : High Efficiency Video Coding 
Format profile : Main [email protected]@Main 
Codec ID : V_MPEGH/ISO/HEVC 
Duration : 58 min 53 s 
Bit rate : 3 104 kb/s 
Width : 1 920 pixels 
Height : 960 pixels 
Display aspect ratio : 2.000 
Frame rate mode : Constant 
Frame rate : 23.976 (24000/1001) FPS 
Color space : YUV 
Chroma subsampling : 4:2:0 
Bit depth : 10 bits 
Bits/(Pixel*Frame) : 0.070 
Stream size : 1.28 GiB (87%) 
Writing library : x265 2.6+33-193c2b20b0d8:[Windows][GCC 8.0.1][64 bit] 10bit 
Encoding settings : cpuid=1173503 / frame-threads=3 / numa-pools=12 / wpp / no-pmode / no-pme / no-psnr / no-ssim / log-level=2 / input-csp=1 / input-res=1920x960 / interlace=0 / total-frames=84729 / level-idc=0 / high-tier=1 / uhd-bd=0 / ref=4 / no-allow-non-conformance / no-repeat-headers / annexb / no-aud / no-hrd / info / hash=0 / no-temporal-layers / open-gop / min-keyint=23 / keyint=250 / gop-lookahead=0 / bframes=8 / b-adapt=2 / b-pyramid / bframe-bias=0 / rc-lookahead=70 / lookahead-slices=4 / scenecut=40 / radl=0 / no-intra-refresh / ctu=64 / min-cu-size=8 / no-rect / no-amp / max-tu-size=32 / tu-inter-depth=1 / tu-intra-depth=1 / limit-tu=0 / rdoq-level=2 / dynamic-rd=0.00 / no-ssim-rd / signhide / no-tskip / nr-intra=0 / nr-inter=0 / no-constrained-intra / strong-intra-smoothing / max-merge=3 / limit-refs=3 / limit-modes / me=3 / subme=5 / merange=57 / temporal-mvp / weightp / weightb / no-analyze-src-pics / deblock=-1:-1 / sao / no-sao-non-deblock / rd=4 / no-early-skip / rskip / no-fast-intra / no-tskip-fast / no-cu-lossless / no-b-intra / no-splitrd-skip / rdpenalty=0 / psy-rd=1.65 / psy-rdoq=1.00 / no-rd-refine / no-lossless / cbqpoffs=0 / crqpoffs=0 / rc=crf / crf=21.0 / qcomp=0.60 / qpstep=4 / stats-write=0 / stats-read=0 / ipratio=1.40 / pbratio=1.30 / aq-mode=3 / aq-strength=1.00 / cutree / zone-count=0 / no-strict-cbr / qg-size=32 / no-rc-grain / qpmax=69 / qpmin=0 / no-const-vbv / sar=0 / overscan=0 / videoformat=5 / range=0 / colorprim=2 / transfer=2 / colormatrix=2 / chromaloc=0 / display-window=0 / max-cll=0,0 / min-luma=0 / max-luma=1023 / log2-max-poc-lsb=8 / vui-timing-info / vui-hrd-info / slices=1 / no-opt-qp-pps / no-opt-ref-list-length-pps / no-multi-pass-opt-rps / scenecut-bias=0.00 / no-opt-cu-delta-qp / aq-motion / no-hdr / no-hdr-opt / no-dhdr10-opt / analysis-reuse-level=5 / scale-factor=0 / refine-intra=0 / refine-inter=0 / refine-mv=0 / no-limit-sao / ctu-info=0 / no-lowpass-dct / refine-mv-type=0 / copy-pic=1 
Default : Yes 
Forced : No 

Audio 
ID : 2 
Format : E-AC-3 
Format/Info : Enhanced Audio Coding 3 
Format settings, Endianness : Big 
Codec ID : A_EAC3 
Duration : 58 min 2 s 
Bit rate mode : Constant 
Bit rate : 448 kb/s 
Channel(s) : 6 channels 
Channel positions : Front: L C R, Side: L R, LFE 
Sampling rate : 48.0 kHz 
Frame rate : 187.500 FPS (256 spf) 
Compression mode : Lossy 
Stream size : 186 MiB (12%) 
Language : English 
Default : No 
Forced : No 

Subtitle #1 
ID : 3 
Format : UTF-8 
Codec ID : S_TEXT/UTF8 
Codec ID/Info : UTF-8 Plain Text 
Duration : 25 min 48 s 
Bit rate : 1 b/s 
Count of elements : 9 
Stream size : 248 Bytes (0%) 
Title : Forced 
Language : English 
Default : Yes 
Forced : No 

Subtitle #2 
ID : 4 
Format : UTF-8 
Codec ID : S_TEXT/UTF8 
Codec ID/Info : UTF-8 Plain Text 
Duration : 54 min 57 s 
Bit rate : 66 b/s 
Count of elements : 723 
Stream size : 26.7 KiB (0%) 
Language : English 
Default : No 
Forced : No 

Subtitle #3 
ID : 5 
Format : UTF-8 
Codec ID : S_TEXT/UTF8 
Codec ID/Info : UTF-8 Plain Text 
Duration : 57 min 24 s 
Bit rate : 72 b/s 
Count of elements : 828 
Stream size : 30.6 KiB (0%) 
Title : SDH 
Language : English 
Default : No 
Forced : No 

Subtitle #4 
ID : 6 
Format : UTF-8 
Codec ID : S_TEXT/UTF8 
Codec ID/Info : UTF-8 Plain Text 
Duration : 55 min 55 s 
Bit rate : 57 b/s 
Count of elements : 708 
Stream size : 23.6 KiB (0%) 
Language : French 
Default : No 
Forced : No 

Subtitle #5 
ID : 7 
Format : UTF-8 
Codec ID : S_TEXT/UTF8 
Codec ID/Info : UTF-8 Plain Text 
Duration : 55 min 57 s 
Bit rate : 60 b/s 
Count of elements : 706 
Stream size : 25.0 KiB (0%) 
Language : German 
Default : No 
Forced : No 

Subtitle #6 
ID : 8 
Format : UTF-8 
Codec ID : S_TEXT/UTF8 
Codec ID/Info : UTF-8 Plain Text 
Duration : 55 min 58 s 
Bit rate : 58 b/s 
Count of elements : 708 
Stream size : 23.8 KiB (0%) 
Language : Italian 
Default : No 
Forced : No 

Subtitle #7 
ID : 9 
Format : UTF-8 
Codec ID : S_TEXT/UTF8 
Codec ID/Info : UTF-8 Plain Text 
Duration : 55 min 57 s 
Bit rate : 60 b/s 
Count of elements : 711 
Stream size : 24.9 KiB (0%) 
Language : Spanish 
Default : No 
Forced : No

Screencaps

Download

Download: Google Drive (14.40 GB)

4 thoughts on “Altered Carbon (2018) Season 1 (1080p NF WEBRip x265 HEVC 10bit EAC3 6.0 RZeroX)

Leave a Reply

Your email address will not be published. Required fields are marked *