11.22.63 (2016) Season 1 (1080p BluRay x265 HEVC 10bit AAC 5.1 Silence)

Info

Plot: A high school teacher travels back in time to prevent John F. Kennedy’s assassination.

Files

11.22.63 (2016) Season 1 S01 + Extras (1080p BluRay x265 HEVC 10bit AAC 5.1 Silence)
11.22.63 (2016) - S01E01 - The Rabbit Hole (1080p BluRay x265 Silence).mkv (2.5 GB)
11.22.63 (2016) - S01E02 - The Kill Floor (1080p BluRay x265 Silence).mkv (1.3 GB)
11.22.63 (2016) - S01E03 - Other Voices, Other Rooms (1080p BluRay x265 Silence).mkv (1.3 GB)
11.22.63 (2016) - S01E04 - The Eyes of Texas (1080p BluRay x265 Silence).mkv (1.1 GB)
11.22.63 (2016) - S01E05 - The Truth (1080p BluRay x265 Silence).mkv (1.0 GB)
11.22.63 (2016) - S01E06 - Happy Birthday, Lee Harvey Oswald (1080p BluRay x265 Silence).mkv (1.1 GB)
11.22.63 (2016) - S01E07 - Soldier Boy (1080p BluRay x265 Silence).mkv (1.4 GB)
11.22.63 (2016) - S01E08 - The Day in Question (1080p BluRay x265 Silence).mkv (1.6 GB)

Featurettes
When the Future Fights Back.mkv (322.2 MB)

Mediainfo

General 
Format : Matroska 
Format version : Version 4 / Version 2 
File size : 2.45 GiB 
Duration : 1 h 20 min 
Overall bit rate : 4 345 kb/s 
Movie name : 11.22.63.S01E1.The.Rabbit.Hole.1080p.BluRay.REMUX.AVC.DTS-HD.MA.5.1-FERAL 
Encoded date : UTC 2018-10-10 19:10:49 
Writing application : mkvmerge v20.0.0 ('I Am The Sun') 64-bit 
Writing library : libebml v1.3.5 + libmatroska v1.4.8 
Writing frontend : StaxRip v1.7.0.6 

Video 
ID : 1 
Format : HEVC 
Format/Info : High Efficiency Video Coding 
Format profile : Main [email protected]@Main 
Codec ID : V_MPEGH/ISO/HEVC 
Duration : 1 h 20 min 
Bit rate : 3 822 kb/s 
Width : 1 920 pixels 
Height : 960 pixels 
Display aspect ratio : 2.000 
Frame rate mode : Constant 
Frame rate : 23.976 (24000/1001) FPS 
Color space : YUV 
Chroma subsampling : 4:2:0 
Bit depth : 10 bits 
Bits/(Pixel*Frame) : 0.086 
Stream size : 2.16 GiB (88%) 
Writing library : x265 2.9+1-169e76b6bbcc:[Windows][MSVC 1900][64 bit] 10bit 
Encoding settings : cpuid=1111039 / frame-threads=4 / numa-pools=16 / wpp / no-pmode / no-pme / no-psnr / no-ssim / log-level=2 / input-csp=1 / input-res=1920x960 / interlace=0 / total-frames=116171 / level-idc=0 / high-tier=1 / uhd-bd=0 / ref=5 / no-allow-non-conformance / no-repeat-headers / annexb / no-aud / no-hrd / info / hash=0 / no-temporal-layers / open-gop / min-keyint=23 / keyint=250 / gop-lookahead=0 / bframes=8 / b-adapt=2 / b-pyramid / bframe-bias=0 / rc-lookahead=80 / lookahead-slices=4 / scenecut=40 / radl=0 / no-intra-refresh / ctu=64 / min-cu-size=8 / no-rect / no-amp / max-tu-size=32 / tu-inter-depth=1 / tu-intra-depth=1 / limit-tu=0 / rdoq-level=2 / dynamic-rd=0.00 / no-ssim-rd / signhide / no-tskip / nr-intra=0 / nr-inter=0 / no-constrained-intra / no-strong-intra-smoothing / max-merge=3 / limit-refs=3 / limit-modes / me=3 / subme=5 / merange=57 / temporal-mvp / weightp / weightb / no-analyze-src-pics / deblock=-3:-3 / no-sao / no-sao-non-deblock / rd=4 / no-early-skip / rskip / no-fast-intra / no-tskip-fast / no-cu-lossless / b-intra / no-splitrd-skip / rdpenalty=0 / psy-rd=1.50 / psy-rdoq=1.50 / no-rd-refine / no-lossless / cbqpoffs=0 / crqpoffs=0 / rc=crf / crf=21.0 / qcomp=0.60 / qpstep=4 / stats-write=0 / stats-read=0 / ipratio=1.40 / pbratio=1.30 / aq-mode=3 / aq-strength=0.80 / cutree / zone-count=0 / no-strict-cbr / qg-size=32 / no-rc-grain / qpmax=69 / qpmin=0 / no-const-vbv / sar=0 / overscan=0 / videoformat=5 / range=0 / colorprim=2 / transfer=2 / colormatrix=2 / chromaloc=0 / display-window=0 / max-cll=0,0 / min-luma=0 / max-luma=1023 / log2-max-poc-lsb=8 / vui-timing-info / vui-hrd-info / slices=1 / no-opt-qp-pps / no-opt-ref-list-length-pps / no-multi-pass-opt-rps / scenecut-bias=0.05 / no-opt-cu-delta-qp / no-aq-motion / no-hdr / no-hdr-opt / no-dhdr10-opt / no-idr-recovery-sei / analysis-reuse-level=5 / scale-factor=0 / refine-intra=0 / refine-inter=0 / refine-mv=0 / no-limit-sao / ctu-info=0 / no-lowpass-dct / refine-mv-type=0 / copy-pic=1 / max-ausize-factor=1.0 / no-dynamic-refine / no-single-sei 
Default : Yes 
Forced : No 

Audio 
ID : 2 
Format : AAC 
Format/Info : Advanced Audio Codec 
Format profile : LC 
Codec ID : A_AAC 
Duration : 1 h 20 min 
Bit rate : 438 kb/s 
Channel(s) : 6 channels 
Channel positions : Front: L C R, Side: L R, LFE 
Sampling rate : 48.0 kHz 
Frame rate : 46.875 FPS (1024 spf) 
Compression mode : Lossy 
Delay relative to video : 20 ms 
Stream size : 253 MiB (10%) 
Language : English 
Default : Yes 
Forced : No 

Subtitle #1 
ID : 3 
Format : PGS 
Muxing mode : zlib 
Codec ID : S_HDMV/PGS 
Codec ID/Info : Picture based subtitle format used on BDs/HD-DVDs 
Duration : 1 h 20 min 
Bit rate : 33.0 kb/s 
Count of elements : 2232 
Stream size : 19.1 MiB (1%) 
Language : English 
Default : No 
Forced : No 

Subtitle #2 
ID : 4 
Format : PGS 
Muxing mode : zlib 
Codec ID : S_HDMV/PGS 
Codec ID/Info : Picture based subtitle format used on BDs/HD-DVDs 
Duration : 1 h 20 min 
Bit rate : 27.7 kb/s 
Count of elements : 1978 
Stream size : 16.0 MiB (1%) 
Language : French 
Default : No 
Forced : No 

Subtitle #3 
ID : 5 
Format : PGS 
Muxing mode : zlib 
Codec ID : S_HDMV/PGS 
Codec ID/Info : Picture based subtitle format used on BDs/HD-DVDs 
Duration : 1 h 20 min 
Bit rate : 28.2 kb/s 
Count of elements : 1974 
Stream size : 16.3 MiB (1%) 
Language : Dutch 
Default : No 
Forced : No 

Subtitle #4 
ID : 6 
Format : PGS 
Muxing mode : zlib 
Codec ID : S_HDMV/PGS 
Codec ID/Info : Picture based subtitle format used on BDs/HD-DVDs 
Duration : 1 h 19 min 
Bit rate : 27.4 kb/s 
Count of elements : 1994 
Stream size : 15.7 MiB (1%) 
Language : Spanish 
Default : No 
Forced : No 

Subtitle #5 
ID : 7 
Format : PGS 
Muxing mode : zlib 
Codec ID : S_HDMV/PGS 
Codec ID/Info : Picture based subtitle format used on BDs/HD-DVDs 
Duration : 1 h 20 min 
Bit rate : 29.1 kb/s 
Count of elements : 2000 
Stream size : 16.8 MiB (1%) 
Language : Portuguese 
Default : No 
Forced : No 

Subtitle #6 
ID : 8 
Format : PGS 
Muxing mode : zlib 
Codec ID : S_HDMV/PGS 
Codec ID/Info : Picture based subtitle format used on BDs/HD-DVDs 
Duration : 1 h 20 min 
Bit rate : 27.2 kb/s 
Count of elements : 1996 
Stream size : 15.7 MiB (1%) 
Language : Danish 
Default : No 
Forced : No 

Subtitle #7 
ID : 9 
Format : PGS 
Muxing mode : zlib 
Codec ID : S_HDMV/PGS 
Codec ID/Info : Picture based subtitle format used on BDs/HD-DVDs 
Duration : 1 h 20 min 
Bit rate : 27.8 kb/s 
Count of elements : 1958 
Stream size : 16.0 MiB (1%) 
Language : Finnish 
Default : No 
Forced : No 

Subtitle #8 
ID : 10 
Format : PGS 
Muxing mode : zlib 
Codec ID : S_HDMV/PGS 
Codec ID/Info : Picture based subtitle format used on BDs/HD-DVDs 
Duration : 1 h 19 min 
Bit rate : 27.1 kb/s 
Count of elements : 1990 
Stream size : 15.4 MiB (1%) 
Language : Norwegian Bokmal 
Default : No 
Forced : No 

Subtitle #9 
ID : 11 
Format : PGS 
Muxing mode : zlib 
Codec ID : S_HDMV/PGS 
Codec ID/Info : Picture based subtitle format used on BDs/HD-DVDs 
Duration : 1 h 20 min 
Bit rate : 27.1 kb/s 
Count of elements : 1990 
Stream size : 15.6 MiB (1%) 
Language : Swedish 
Default : No 
Forced : No 

Subtitle #10 
ID : 12 
Format : PGS 
Muxing mode : zlib 
Codec ID : S_HDMV/PGS 
Codec ID/Info : Picture based subtitle format used on BDs/HD-DVDs 
Duration : 1 h 20 min 
Bit rate : 887 b/s 
Count of elements : 54 
Stream size : 523 KiB (0%) 
Language : Portuguese 
Default : No 
Forced : No 

Menu 
00:00:00.000 : en:Chapter 01 
00:00:59.726 : en:Chapter 02 
00:13:47.451 : en:Chapter 03 
00:25:30.570 : en:Chapter 04 
00:30:47.804 : en:Chapter 05 
00:44:39.927 : en:Chapter 06 
00:54:32.060 : en:Chapter 07 
01:04:41.878 : en:Chapter 08 
01:14:32.551 : en:Chapter 09 
01:19:40.066 : en:Chapter 10

Screencaps

Download

Download: Google Drive (11.47 GB)

Leave a Reply

Your email address will not be published. Required fields are marked *