Zero Dark Thirty (2012) (1080p BluRay 10bit x265 HEVC AAC 5.1 Qman)

Info

Image result for Zero Dark Thirty (2012)

Plot: A chronicle of the decade-long hunt for al-Qaeda terrorist leader Osama bin Laden after the September 2001 attacks, and his death at the hands of the Navy S.E.A.L.s Team 6 in May 2011.

Encode

Source:

Release: 
REMUX FraMeSToR 31.2GB

Mediainfo

General 
Format : Matroska 
Format version : Version 4 / Version 2 
File size : 2.54 GiB 
Duration : 2 h 36 min 
Overall bit rate : 2 317 kb/s 
Encoded date : UTC 2018-04-04 13:29:55 
Writing application : mkvmerge v19.0.0 ('Brave Captain') 64-bit 
Writing library : libebml v1.3.5 + libmatroska v1.4.8 

Video 
ID : 1 
Format : HEVC 
Format/Info : High Efficiency Video Coding 
Format profile : Main [email protected]@Main 
Codec ID : V_MPEGH/ISO/HEVC 
Duration : 2 h 36 min 
Bit rate : 1 972 kb/s 
Width : 1 920 pixels 
Height : 1 038 pixels 
Display aspect ratio : 1.85:1 
Frame rate mode : Constant 
Frame rate : 23.976 (24000/1001) FPS 
Color space : YUV 
Chroma subsampling : 4:2:0 
Bit depth : 10 bits 
Bits/(Pixel*Frame) : 0.041 
Stream size : 2.16 GiB (85%) 
Writing library : x265 2.7+17-2e370d98c806:[Windows][MSVC 1914][64 bit] 10bit 
Encoding settings : cpuid=1173503 / frame-threads=4 / numa-pools=16 / wpp / no-pmode / no-pme / no-psnr / no-ssim / log-level=2 / input-csp=1 / input-res=1920x1038 / interlace=0 / total-frames=225839 / level-idc=0 / high-tier=1 / uhd-bd=0 / ref=4 / no-allow-non-conformance / no-repeat-headers / annexb / no-aud / no-hrd / info / hash=0 / no-temporal-layers / open-gop / min-keyint=23 / keyint=250 / gop-lookahead=0 / bframes=8 / b-adapt=2 / b-pyramid / bframe-bias=0 / rc-lookahead=80 / lookahead-slices=4 / scenecut=40 / radl=0 / no-intra-refresh / ctu=64 / min-cu-size=8 / rect / no-amp / max-tu-size=32 / tu-inter-depth=1 / tu-intra-depth=1 / limit-tu=0 / rdoq-level=2 / dynamic-rd=0.00 / no-ssim-rd / signhide / no-tskip / nr-intra=0 / nr-inter=0 / no-constrained-intra / no-strong-intra-smoothing / max-merge=3 / limit-refs=3 / limit-modes / me=3 / subme=3 / merange=57 / temporal-mvp / weightp / no-weightb / no-analyze-src-pics / deblock=3:3 / sao / no-sao-non-deblock / rd=4 / no-early-skip / no-rskip / no-fast-intra / no-tskip-fast / no-cu-lossless / no-b-intra / no-splitrd-skip / rdpenalty=0 / psy-rd=1.10 / psy-rdoq=2.50 / no-rd-refine / no-lossless / cbqpoffs=3 / crqpoffs=3 / rc=crf / crf=21.0 / qcomp=0.60 / qpstep=4 / stats-write=0 / stats-read=0 / ipratio=1.40 / pbratio=1.30 / aq-mode=3 / aq-strength=0.60 / cutree / zone-count=0 / no-strict-cbr / qg-size=32 / no-rc-grain / qpmax=69 / qpmin=0 / no-const-vbv / sar=0 / overscan=0 / videoformat=5 / range=0 / colorprim=2 / transfer=2 / colormatrix=2 / chromaloc=0 / display-window=0 / max-cll=0,0 / min-luma=0 / max-luma=1023 / log2-max-poc-lsb=8 / vui-timing-info / vui-hrd-info / slices=1 / no-opt-qp-pps / no-opt-ref-list-length-pps / no-multi-pass-opt-rps / scenecut-bias=0.05 / no-opt-cu-delta-qp / no-aq-motion / no-hdr / no-hdr-opt / no-dhdr10-opt / no-idr-recovery-sei / analysis-reuse-level=5 / scale-factor=0 / refine-intra=0 / refine-inter=0 / refine-mv=0 / no-limit-sao / ctu-info=0 / no-lowpass-dct / refine-mv-type=0 / copy-pic=1 / max-ausize-factor=1.0 / no-dynamic-refine 
Language : English 
Default : Yes 
Forced : No 

Audio 
ID : 2 
Format : AAC 
Format/Info : Advanced Audio Codec 
Format profile : LC 
Codec ID : A_AAC 
Duration : 2 h 36 min 
Bit rate : 324 kb/s 
Channel(s) : 6 channels 
Channel positions : Front: L C R, Side: L R, LFE 
Sampling rate : 48.0 kHz 
Frame rate : 46.875 FPS (1024 spf) 
Compression mode : Lossy 
Delay relative to video : 9 ms 
Stream size : 363 MiB (14%) 
Language : English 
Default : Yes 
Forced : No 

Subtitle #1 
ID : 3 
Format : PGS 
Muxing mode : zlib 
Codec ID : S_HDMV/PGS 
Codec ID/Info : Picture based subtitle format used on BDs/HD-DVDs 
Duration : 2 h 28 min 
Bit rate : 34.8 kb/s 
Count of elements : 4451 
Stream size : 37.1 MiB (1%) 
Title : English SDH 
Language : English 
Default : No 
Forced : No 

Subtitle #2 
ID : 4 
Format : PGS 
Muxing mode : zlib 
Codec ID : S_HDMV/PGS 
Codec ID/Info : Picture based subtitle format used on BDs/HD-DVDs 
Duration : 2 h 28 min 
Bit rate : 35.1 kb/s 
Count of elements : 3394 
Stream size : 37.2 MiB (1%) 
Title : English 
Language : English 
Default : No 
Forced : No 

Subtitle #3 
ID : 5 
Format : PGS 
Muxing mode : zlib 
Codec ID : S_HDMV/PGS 
Codec ID/Info : Picture based subtitle format used on BDs/HD-DVDs 
Duration : 1 h 47 min 
Bit rate : 337 b/s 
Count of elements : 30 
Stream size : 267 KiB (0%) 
Title : English (forced) 
Language : English 
Default : Yes 
Forced : Yes 

Menu 
00:00:00.000 : en:00:00:00.000 
00:09:50.298 : en:00:09:50.298 
00:15:42.650 : en:00:15:42.650 
00:23:05.884 : en:00:23:05.884 
00:31:23.048 : en:00:31:23.048 
00:41:35.201 : en:00:41:35.201 
00:50:30.694 : en:00:50:30.694 
01:04:11.806 : en:01:04:11.806 
01:13:37.705 : en:01:13:37.705 
01:20:27.656 : en:01:20:27.656 
01:34:05.849 : en:01:34:05.849 
01:46:46.191 : en:01:46:46.191 
01:53:17.332 : en:01:53:17.332 
02:02:37.725 : en:02:02:37.725 
02:14:08.874 : en:02:14:08.874 
02:22:34.588 : en:02:22:34.588

Screencaps

Download

File: Zero.Dark.Thirty.(2012).1080p.BluRay.10-bit.x265.AAC.5.1 Qman[UTR].mkv (2.5 GB)

Download: Google Drive

Leave a Reply

Your email address will not be published. Required fields are marked *