Wrath of the Titans 2012 (1080p Bluray x265 HEVC 10bit AAC 5.1 Tigole)

Info

Image result for Wrath of the Titans 2012

Plot: Perseus braves the treacherous underworld to rescue his father, Zeus, captured by his son, Ares, and brother Hades who unleash the ancient Titans upon the world.

Mediainfo

General
Unique ID                                : 199889661127611237789498672018895854898 (0x9661593057DA969AA25F6DD0BE0ADD32)
Complete name                            : Wrath of the Titans 2012 (1080p x265 10bit Tigole).mkvFormat                                   : Matroska
Format version                           : Version 4 / Version 2
File size                                : 2.53 GiB
Duration                                 : 1 h 39 min
Overall bit rate                         : 3 640 kb/s
Movie name                               : Wrath of the Titans
Encoded date                             : UTC 2017-03-11 09:23:49
Writing application                      : mkvmerge v9.6.0 ('Slave To Your Mind') 64bit
Writing library                          : libebml v1.3.4 + libmatroska v1.4.5

Video
ID                                       : 1
Format                                   : HEVC
Format/Info                              : High Efficiency Video Coding
Format profile                           : Main [email protected]@Main
Codec ID                                 : V_MPEGH/ISO/HEVC
Duration                                 : 1 h 39 min
Bit rate                                 : 3 225 kb/s
Width                                    : 1 920 pixels
Height                                   : 1 080 pixels
Display aspect ratio                     : 16:9
Frame rate mode                          : Constant
Frame rate                               : 23.976 (24000/1001) FPS
Color space                              : YUV
Chroma subsampling                       : 4:2:0
Bit depth                                : 10 bits
Bits/(Pixel*Frame)                       : 0.065
Stream size                              : 2.24 GiB (89%)
Writing library                          : x265 2.3+7-c15f8bce9f4b:[Windows][GCC 6.3.0][64 bit] 10bit
Encoding settings                        : cpuid=1173503 / frame-threads=3 / numa-pools=8 / wpp / no-pmode / no-pme / no-psnr / no-ssim / log-level=2 / input-csp=1 / input-res=1920x1080 / interlace=0 / total-frames=143185 / level-idc=0 / high-tier=1 / uhd-bd=0 / ref=4 / no-allow-non-conformance / no-repeat-headers / annexb / no-aud / no-hrd / info / hash=0 / no-temporal-layers / open-gop / min-keyint=23 / keyint=250 / bframes=4 / b-adapt=2 / b-pyramid / bframe-bias=0 / rc-lookahead=25 / lookahead-slices=4 / scenecut=40 / no-intra-refresh / ctu=64 / min-cu-size=8 / rect / no-amp / max-tu-size=32 / tu-inter-depth=1 / tu-intra-depth=1 / limit-tu=0 / rdoq-level=2 / dynamic-rd=0.00 / signhide / no-tskip / nr-intra=0 / nr-inter=0 / no-constrained-intra / strong-intra-smoothing / max-merge=3 / limit-refs=3 / limit-modes / me=3 / subme=3 / merange=57 / temporal-mvp / weightp / no-weightb / no-analyze-src-pics / deblock=0:0 / sao / no-sao-non-deblock / rd=4 / no-early-skip / rskip / no-fast-intra / no-tskip-fast / no-cu-lossless / no-b-intra / rdpenalty=0 / psy-rd=2.00 / psy-rdoq=1.00 / no-rd-refine / analysis-mode=0 / no-lossless / cbqpoffs=0 / crqpoffs=0 / rc=abr / bitrate=3226 / qcomp=0.60 / qpstep=4 / stats-write=0 / stats-read=2 / cplxblur=20.0 / qblur=0.5 / ipratio=1.40 / pbratio=1.30 / aq-mode=2 / aq-strength=1.00 / cutree / zone-count=0 / no-strict-cbr / qg-size=32 / no-rc-grain / qpmax=69 / qpmin=0 / sar=0 / overscan=0 / videoformat=5 / range=0 / colorprim=2 / transfer=2 / colormatrix=2 / chromaloc=0 / display-window=0 / max-cll=0,0 / min-luma=0 / max-luma=1023 / log2-max-poc-lsb=8 / vui-timing-info / vui-hrd-info / slices=1 / opt-qp-pps / opt-ref-list-length-pps / no-multi-pass-opt-rps / scenecut-bias=0.05 / no-opt-cu-delta-qp / no-aq-motion / no-hdr / no-hdr-opt / Capture-colorprim=3
Default                                  : Yes
Forced                                   : No

Audio
ID                                       : 2
Format                                   : AAC
Format/Info                              : Advanced Audio Codec
Format profile                           : LC
Codec ID                                 : A_AAC
Duration                                 : 1 h 39 min
Bit rate                                 : 343 kb/s
Channel(s)                               : 6 channels
Channel positions                        : Front: L C R, Side: L R, LFE
Sampling rate                            : 48.0 kHz
Frame rate                               : 46.875 FPS (1024 spf)
Compression mode                         : Lossy
Delay relative to video                  : 20 ms
Stream size                              : 244 MiB (9%)
Language                                 : English
Default                                  : Yes
Forced                                   : No

Text #1
ID                                       : 3
Format                                   : VobSub
Muxing mode                              : zlib
Codec ID                                 : S_VOBSUB
Codec ID/Info                            : Picture based subtitle format used on DVDs
Duration                                 : 1 h 38 min
Bit rate                                 : 4 079 b/s
Count of elements                        : 948
Stream size                              : 2.89 MiB (0%)
Language                                 : English
Default                                  : No
Forced                                   : No

Text #2
ID                                       : 4
Format                                   : VobSub
Muxing mode                              : zlib
Codec ID                                 : S_VOBSUB
Codec ID/Info                            : Picture based subtitle format used on DVDs
Duration                                 : 1 h 38 min
Bit rate                                 : 2 955 b/s
Count of elements                        : 758
Stream size                              : 2.09 MiB (0%)
Language                                 : French
Default                                  : No
Forced                                   : No

Text #3
ID                                       : 5
Format                                   : VobSub
Muxing mode                              : zlib
Codec ID                                 : S_VOBSUB
Codec ID/Info                            : Picture based subtitle format used on DVDs
Duration                                 : 1 h 38 min
Bit rate                                 : 4 657 b/s
Count of elements                        : 952
Stream size                              : 3.29 MiB (0%)
Language                                 : German
Default                                  : No
Forced                                   : No

Text #4
ID                                       : 6
Format                                   : VobSub
Muxing mode                              : zlib
Codec ID                                 : S_VOBSUB
Codec ID/Info                            : Picture based subtitle format used on DVDs
Duration                                 : 1 h 38 min
Bit rate                                 : 4 033 b/s
Count of elements                        : 950
Stream size                              : 2.85 MiB (0%)
Language                                 : Italian
Default                                  : No
Forced                                   : No

Text #5
ID                                       : 7
Format                                   : VobSub
Muxing mode                              : zlib
Codec ID                                 : S_VOBSUB
Codec ID/Info                            : Picture based subtitle format used on DVDs
Duration                                 : 1 h 38 min
Bit rate                                 : 3 272 b/s
Count of elements                        : 834
Stream size                              : 2.31 MiB (0%)
Language                                 : Spanish
Default                                  : No
Forced                                   : No

Text #6
ID                                       : 8
Format                                   : VobSub
Muxing mode                              : zlib
Codec ID                                 : S_VOBSUB
Codec ID/Info                            : Picture based subtitle format used on DVDs
Duration                                 : 1 h 38 min
Bit rate                                 : 2 331 b/s
Count of elements                        : 832
Stream size                              : 1.65 MiB (0%)
Language                                 : Arabic
Default                                  : No
Forced                                   : No

Text #7
ID                                       : 9
Format                                   : VobSub
Muxing mode                              : zlib
Codec ID                                 : S_VOBSUB
Codec ID/Info                            : Picture based subtitle format used on DVDs
Duration                                 : 1 h 38 min
Bit rate                                 : 3 099 b/s
Count of elements                        : 834
Stream size                              : 2.19 MiB (0%)
Language                                 : Croatian
Default                                  : No
Forced                                   : No

Text #8
ID                                       : 10
Format                                   : VobSub
Muxing mode                              : zlib
Codec ID                                 : S_VOBSUB
Codec ID/Info                            : Picture based subtitle format used on DVDs
Duration                                 : 1 h 38 min
Bit rate                                 : 3 001 b/s
Count of elements                        : 824
Stream size                              : 2.12 MiB (0%)
Language                                 : Czech
Default                                  : No
Forced                                   : No

Text #9
ID                                       : 11
Format                                   : VobSub
Muxing mode                              : zlib
Codec ID                                 : S_VOBSUB
Codec ID/Info                            : Picture based subtitle format used on DVDs
Duration                                 : 1 h 38 min
Bit rate                                 : 2 974 b/s
Count of elements                        : 827
Stream size                              : 2.10 MiB (0%)
Language                                 : Danish
Default                                  : No
Forced                                   : No

Text #10
ID                                       : 12
Format                                   : VobSub
Muxing mode                              : zlib
Codec ID                                 : S_VOBSUB
Codec ID/Info                            : Picture based subtitle format used on DVDs
Duration                                 : 1 h 38 min
Bit rate                                 : 3 017 b/s
Count of elements                        : 809
Stream size                              : 2.13 MiB (0%)
Language                                 : Dutch
Default                                  : No
Forced                                   : No

Text #11
ID                                       : 13
Format                                   : VobSub
Muxing mode                              : zlib
Codec ID                                 : S_VOBSUB
Codec ID/Info                            : Picture based subtitle format used on DVDs
Duration                                 : 1 h 38 min
Bit rate                                 : 2 907 b/s
Count of elements                        : 835
Stream size                              : 2.06 MiB (0%)
Language                                 : Estonian
Default                                  : No
Forced                                   : No

Text #12
ID                                       : 14
Format                                   : VobSub
Muxing mode                              : zlib
Codec ID                                 : S_VOBSUB
Codec ID/Info                            : Picture based subtitle format used on DVDs
Duration                                 : 1 h 38 min
Bit rate                                 : 2 901 b/s
Count of elements                        : 830
Stream size                              : 2.05 MiB (0%)
Language                                 : Finnish
Default                                  : No
Forced                                   : No

Text #13
ID                                       : 15
Format                                   : VobSub
Muxing mode                              : zlib
Codec ID                                 : S_VOBSUB
Codec ID/Info                            : Picture based subtitle format used on DVDs
Duration                                 : 1 h 38 min
Bit rate                                 : 3 419 b/s
Count of elements                        : 823
Stream size                              : 2.42 MiB (0%)
Language                                 : Greek
Default                                  : No
Forced                                   : No

Text #14
ID                                       : 16
Format                                   : VobSub
Muxing mode                              : zlib
Codec ID                                 : S_VOBSUB
Codec ID/Info                            : Picture based subtitle format used on DVDs
Duration                                 : 1 h 38 min
Bit rate                                 : 3 137 b/s
Count of elements                        : 814
Stream size                              : 2.22 MiB (0%)
Language                                 : Icelandic
Default                                  : No
Forced                                   : No

Text #15
ID                                       : 17
Format                                   : VobSub
Muxing mode                              : zlib
Codec ID                                 : S_VOBSUB
Codec ID/Info                            : Picture based subtitle format used on DVDs
Duration                                 : 1 h 38 min
Bit rate                                 : 2 976 b/s
Count of elements                        : 834
Stream size                              : 2.10 MiB (0%)
Language                                 : Latvian
Default                                  : No
Forced                                   : No

Text #16
ID                                       : 18
Format                                   : VobSub
Muxing mode                              : zlib
Codec ID                                 : S_VOBSUB
Codec ID/Info                            : Picture based subtitle format used on DVDs
Duration                                 : 1 h 38 min
Bit rate                                 : 2 993 b/s
Count of elements                        : 836
Stream size                              : 2.12 MiB (0%)
Language                                 : Lithuanian
Default                                  : No
Forced                                   : No

Text #17
ID                                       : 19
Format                                   : VobSub
Muxing mode                              : zlib
Codec ID                                 : S_VOBSUB
Codec ID/Info                            : Picture based subtitle format used on DVDs
Duration                                 : 1 h 38 min
Bit rate                                 : 2 895 b/s
Count of elements                        : 783
Stream size                              : 2.05 MiB (0%)
Language                                 : Norwegian Bokmal
Default                                  : No
Forced                                   : No

Text #18
ID                                       : 20
Format                                   : VobSub
Muxing mode                              : zlib
Codec ID                                 : S_VOBSUB
Codec ID/Info                            : Picture based subtitle format used on DVDs
Duration                                 : 1 h 38 min
Bit rate                                 : 3 203 b/s
Count of elements                        : 836
Stream size                              : 2.27 MiB (0%)
Language                                 : Portuguese
Default                                  : No
Forced                                   : No

Text #19
ID                                       : 21
Format                                   : VobSub
Muxing mode                              : zlib
Codec ID                                 : S_VOBSUB
Codec ID/Info                            : Picture based subtitle format used on DVDs
Duration                                 : 1 h 38 min
Bit rate                                 : 3 110 b/s
Count of elements                        : 837
Stream size                              : 2.20 MiB (0%)
Language                                 : Russian
Default                                  : No
Forced                                   : No

Text #20
ID                                       : 22
Format                                   : VobSub
Muxing mode                              : zlib
Codec ID                                 : S_VOBSUB
Codec ID/Info                            : Picture based subtitle format used on DVDs
Duration                                 : 1 h 38 min
Bit rate                                 : 3 118 b/s
Count of elements                        : 833
Stream size                              : 2.21 MiB (0%)
Language                                 : Serbian
Default                                  : No
Forced                                   : No

Text #21
ID                                       : 23
Format                                   : VobSub
Muxing mode                              : zlib
Codec ID                                 : S_VOBSUB
Codec ID/Info                            : Picture based subtitle format used on DVDs
Duration                                 : 1 h 38 min
Bit rate                                 : 2 784 b/s
Count of elements                        : 828
Stream size                              : 1.97 MiB (0%)
Language                                 : Slovenian
Default                                  : No
Forced                                   : No

Text #22
ID                                       : 24
Format                                   : VobSub
Muxing mode                              : zlib
Codec ID                                 : S_VOBSUB
Codec ID/Info                            : Picture based subtitle format used on DVDs
Duration                                 : 1 h 38 min
Bit rate                                 : 3 022 b/s
Count of elements                        : 802
Stream size                              : 2.14 MiB (0%)
Language                                 : Swedish
Default                                  : No
Forced                                   : No

Menu
00:00:00.000                             : en:Chapter 01
00:09:24.814                             : en:Chapter 02
00:20:07.080                             : en:Chapter 03
00:30:53.017                             : en:Chapter 04
00:40:02.274                             : en:Chapter 05
00:48:46.840                             : en:Chapter 06
01:00:21.701                             : en:Chapter 07
01:10:16.253                             : en:Chapter 08
01:19:18.670                             : en:Chapter 09
01:30:33.761                             : en:Chapter 10

Download

File: Wrath of the Titans 2012 (1080p x265 10bit Tigole).mkv (2.53 GB)

Download: Google Drive

Leave a Reply

Your email address will not be published. Required fields are marked *