Warrior (2011) (2160p BluRay x265 HEVC 10bit HDR AAC 7.1 FreetheFish)

Info

Plot: The youngest son of an alcoholic former boxer returns home, where he’s trained by his father for competition in a mixed martial arts tournament – a path that puts the fighter on a collision course with his estranged, older brother.

Encode

Source:

Warrior.2011-UHD-BluRay-2160p-HEVC-TrueHD-Atmos-7.1-BeyondHD-.mkv (70.18 GB)

Mediainfo

General 
Format : Matroska 
Format version : Version 4 / Version 2 
File size : 17.2 GiB 
Duration : 2 h 19 min 
Overall bit rate : 17.6 Mb/s 
Encoded date : UTC 2018-08-09 12:26:31 
Writing application : mkvmerge v25.0.0 ('Prog Noir') 64-bit 
Writing library : libebml v1.3.6 + libmatroska v1.4.9 

Video 
ID : 1 
Format : HEVC 
Format/Info : High Efficiency Video Coding 
Format profile : Main [email protected]@Main 
Codec ID : V_MPEGH/ISO/HEVC 
Duration : 2 h 19 min 
Bit rate : 16.7 Mb/s 
Width : 3 840 pixels 
Height : 1 600 pixels 
Display aspect ratio : 2.40:1 
Frame rate mode : Constant 
Frame rate : 23.976 (24000/1001) FPS 
Color space : YUV 
Chroma subsampling : 4:2:0 
Bit depth : 10 bits 
Bits/(Pixel*Frame) : 0.114 
Stream size : 16.4 GiB (95%) 
Writing library : x265 2.8+47-e2759ae31c36:[Windows][MSVC 1914][64 bit] 10bit 
Encoding settings : cpuid=1111039 / frame-threads=5 / numa-pools=32,0 / wpp / no-pmode / no-pme / no-psnr / no-ssim / log-level=2 / input-csp=1 / input-res=3840x1600 / interlace=0 / total-frames=201267 / level-idc=0 / high-tier=1 / uhd-bd=0 / ref=5 / no-allow-non-conformance / repeat-headers / annexb / no-aud / no-hrd / info / hash=0 / no-temporal-layers / open-gop / min-keyint=23 / keyint=250 / gop-lookahead=0 / bframes=8 / b-adapt=2 / b-pyramid / bframe-bias=0 / rc-lookahead=90 / lookahead-slices=0 / scenecut=40 / radl=0 / no-intra-refresh / ctu=64 / min-cu-size=8 / rect / amp / max-tu-size=32 / tu-inter-depth=4 / tu-intra-depth=4 / limit-tu=4 / rdoq-level=2 / dynamic-rd=0.00 / no-ssim-rd / signhide / no-tskip / nr-intra=0 / nr-inter=0 / no-constrained-intra / no-strong-intra-smoothing / max-merge=3 / limit-refs=3 / limit-modes / me=3 / subme=7 / merange=57 / temporal-mvp / weightp / weightb / no-analyze-src-pics / deblock=-3:-3 / sao / no-sao-non-deblock / rd=6 / no-early-skip / rskip / no-fast-intra / no-tskip-fast / no-cu-lossless / b-intra / no-splitrd-skip / rdpenalty=0 / psy-rd=1.65 / psy-rdoq=2.00 / no-rd-refine / no-lossless / cbqpoffs=0 / crqpoffs=0 / rc=crf / crf=18.0 / qcomp=0.60 / qpstep=4 / stats-write=0 / stats-read=0 / ipratio=1.40 / pbratio=1.30 / aq-mode=3 / aq-strength=0.80 / cutree / zone-count=0 / no-strict-cbr / qg-size=32 / no-rc-grain / qpmax=69 / qpmin=0 / no-const-vbv / sar=0 / overscan=0 / videoformat=5 / range=0 / colorprim=9 / transfer=16 / colormatrix=9 / chromaloc=0 / display-window=0 / master-display=G(13250,34500)B(7500,3000)R(34000,16000)WP(15635,16450)L(10000000,0) / max-cll=1000,429 / min-luma=0 / max-luma=1023 / log2-max-poc-lsb=8 / vui-timing-info / vui-hrd-info / slices=1 / no-opt-qp-pps / no-opt-ref-list-length-pps / no-multi-pass-opt-rps / scenecut-bias=0.05 / no-opt-cu-delta-qp / aq-motion / hdr / hdr-opt / no-dhdr10-opt / no-idr-recovery-sei / analysis-reuse-level=5 / scale-factor=0 / refine-intra=0 / refine-inter=0 / refine-mv=0 / no-limit-sao / ctu-info=0 / no-lowpass-dct / refine-mv-type=0 / copy-pic=1 / max-ausize-factor=1.0 / no-dynamic-refine / no-single-sei 
Language : English 
Default : Yes 
Forced : No 
Color range : Limited 
Color primaries : BT.2020 
Transfer characteristics : SMPTE ST 2084 
Matrix coefficients : BT.2020 non-constant 
Mastering display color primaries : R: x=0.680000 y=0.320000, G: x=0.265000 y=0.690000, B: x=0.150000 y=0.060000, White point: x=0.312700 y=0.329000 
Mastering display luminance : min: 0.0000 cd/m2, max: 1000.0000 cd/m2 
Maximum Content Light Level : 1000 cd/m2 
Maximum Frame-Average Light Level : 429 cd/m2 

Audio #1 
ID : 2 
Format : AAC 
Format/Info : Advanced Audio Codec 
Format profile : LC 
Codec ID : A_AAC 
Duration : 2 h 19 min 
Bit rate : 774 kb/s 
Channel(s) : 8 channels 
Channel positions : Front: L C R, Side: 4, LFE 
Sampling rate : 48.0 kHz 
Frame rate : 46.875 FPS (1024 spf) 
Compression mode : Lossy 
Delay relative to video : 20 ms 
Stream size : 775 MiB (4%) 
Language : English 
Default : Yes 
Forced : No 

Audio #2 
ID : 3 
Format : AAC 
Format/Info : Advanced Audio Codec 
Format profile : HE-AAC / LC 
Codec ID : A_AAC 
Duration : 2 h 19 min 
Bit rate : 80.0 kb/s 
Channel(s) : 2 channels 
Channel positions : Front: L R 
Sampling rate : 48.0 kHz / 24.0 kHz 
Frame rate : 23.438 FPS (1024 spf) 
Compression mode : Lossy 
Delay relative to video : 40 ms 
Stream size : 80.1 MiB (0%) 
Title : Commentary 
Language : English 
Default : No 
Forced : No 

Subtitle #1 
ID : 4 
Format : PGS 
Muxing mode : zlib 
Codec ID : S_HDMV/PGS 
Codec ID/Info : Picture based subtitle format used on BDs/HD-DVDs 
Duration : 2 h 8 min 
Bit rate : 46.9 kb/s 
Count of elements : 3724 
Stream size : 42.9 MiB (0%) 
Language : English 
Default : No 
Forced : No 

Subtitle #2 
ID : 5 
Format : PGS 
Muxing mode : zlib 
Codec ID : S_HDMV/PGS 
Codec ID/Info : Picture based subtitle format used on BDs/HD-DVDs 
Duration : 2 h 12 min 
Bit rate : 48.6 kb/s 
Count of elements : 3998 
Stream size : 46.1 MiB (0%) 
Language : English 
Default : No 
Forced : No 

Subtitle #3 
ID : 6 
Format : PGS 
Muxing mode : zlib 
Codec ID : S_HDMV/PGS 
Codec ID/Info : Picture based subtitle format used on BDs/HD-DVDs 
Duration : 2 h 8 min 
Bit rate : 42.9 kb/s 
Count of elements : 3760 
Stream size : 39.3 MiB (0%) 
Language : Spanish 
Default : No 
Forced : No 

Menu 
00:00:00.000 : en:Chapter 01 
00:10:32.048 : en:Chapter 02 
00:16:45.921 : en:Chapter 03 
00:26:33.758 : en:Chapter 04 
00:39:07.887 : en:Chapter 05 
00:45:48.829 : en:Chapter 06 
00:51:27.793 : en:Chapter 07 
00:58:26.669 : en:Chapter 08 
01:06:01.499 : en:Chapter 09 
01:14:26.837 : en:Chapter 10 
01:22:32.113 : en:Chapter 11 
01:30:34.846 : en:Chapter 12 
01:40:44.997 : en:Chapter 13 
01:52:55.518 : en:Chapter 14 
02:00:20.046 : en:Chapter 15 
02:06:49.602 : en:Chapter 16 
02:19:53.468 : en:Chapter 17

Screencaps

Download

File: Warrior (2011) (2160p BluRay x265 HDR FreetheFish).mkv (17.2 GB)

Download: Google Drive

3 thoughts on “Warrior (2011) (2160p BluRay x265 HEVC 10bit HDR AAC 7.1 FreetheFish)

Leave a Reply

Your email address will not be published. Required fields are marked *