Venom (2018) (1080p HDRip X264-EVO)

Info

Plot: When Eddie Brock acquires the powers of a symbiote, he will have to release his alter-ego “Venom” to save his life.

Encode

RELEASE: Venom.2018.1080p.HDRip.X264-EVO

SOURCE: AvoHD

ViDEO: 6000 Kbps ([email protected])

RESOLUTiON: 1920×800

RUNTiME: 1h 47m 43s

SUBTiTLES: No.

AUDiO: 384 Kbps AC3 5.1

LANGUAGE: ENGLiSH

ENCODER: DdHD

Mediainfo

General
Unique ID                                : 192794890586287719797332470871227090182 (0x910AF1FE8EE36CC8BDB11BC4665BC506)
Complete name                            : Venom.2018.1080p.HDRip.X264-EVO.mkv
Format                                   : Matroska
Format version                           : Version 4 / Version 2
File size                                : 4.00 GiB
Duration                                 : 1 h 47 min
Overall bit rate                         : 5 349 kb/s
Movie name                               : EVO
Encoded date                             : UTC 2018-11-28 03:16:36
Writing application                      : mkvmerge v6.7.0 ('Back to the Ground') 64bit built on Jan  8 2014 15:10:52
Writing library                          : libebml v1.3.0 + libmatroska v1.4.1

Video
ID                                       : 2
Format                                   : AVC
Format/Info                              : Advanced Video Codec
Format profile                           : [email protected]
Format settings, CABAC                   : Yes
Format settings, ReFrames                : 4 frames
Codec ID                                 : V_MPEG4/ISO/AVC
Duration                                 : 1 h 47 min
Bit rate                                 : 5 100 kb/s
Width                                    : 1 920 pixels
Height                                   : 800 pixels
Display aspect ratio                     : 2.40:1
Frame rate mode                          : Constant
Frame rate                               : 23.976 (24000/1001) FPS
Color space                              : YUV
Chroma subsampling                       : 4:2:0
Bit depth                                : 8 bits
Scan type                                : Progressive
Bits/(Pixel*Frame)                       : 0.138
Stream size                              : 3.64 GiB (91%)
Writing library                          : x264 core 142 r2479 dd79a61
Encoding settings                        : cabac=1 / ref=1 / deblock=1:0:0 / analyse=0x3:0x113 / me=hex / subme=2 / psy=1 / psy_rd=1.00:0.00 / mixed_ref=0 / me_range=16 / chroma_me=1 / trellis=0 / 8x8dct=1 / cqm=0 / deadzone=21,11 / fast_pskip=1 / chroma_qp_offset=0 / threads=18 / lookahead_threads=6 / sliced_threads=0 / nr=0 / decimate=1 / interlaced=0 / bluray_compat=0 / constrained_intra=0 / bframes=3 / b_pyramid=2 / b_adapt=1 / b_bias=0 / direct=1 / weightb=1 / open_gop=0 / weightp=1 / keyint=240 / keyint_min=24 / scenecut=40 / intra_refresh=0 / rc_lookahead=10 / rc=abr / mbtree=1 / bitrate=5100 / ratetol=1.0 / qcomp=0.60 / qpmin=0 / qpmax=69 / qpstep=4 / vbv_maxrate=62500 / vbv_bufsize=78125 / nal_hrd=none / filler=0 / ip_ratio=1.40 / aq=1:1.00
Default                                  : Yes
Forced                                   : No
Color range                              : Limited
Color primaries                          : BT.709
Transfer characteristics                 : BT.709
Matrix coefficients                      : BT.709

Audio
ID                                       : 3
Format                                   : AC-3
Format/Info                              : Audio Coding 3
Mode extension                           : CM (complete main)
Format settings, Endianness              : Big
Codec ID                                 : A_AC3
Duration                                 : 1 h 47 min
Bit rate mode                            : Constant
Bit rate                                 : 384 kb/s
Channel(s)                               : 6 channels
Channel positions                        : Front: L C R, Side: L R, LFE
Sampling rate                            : 48.0 kHz
Frame rate                               : 31.250 FPS (1536 spf)
Bit depth                                : 16 bits
Compression mode                         : Lossy
Delay relative to video                  : -83 ms
Stream size                              : 294 MiB (7%)
Language                                 : English
Default                                  : Yes
Forced                                   : No

Text
ID                                       : 1
Format                                   : UTF-8
Codec ID                                 : S_TEXT/UTF8
Codec ID/Info                            : UTF-8 Plain Text
Language                                 : English
Default                                  : Yes
Forced                                   : No

Screencaps

Download

File: Venom.2018.1080p.HDRip.X264-EVO.mkv (4.00 GB)

Download: Google Drive

7 thoughts on “Venom (2018) (1080p HDRip X264-EVO)

  1. I really liked the quality of this one, don’t be fooled by “HDRip”, it is a 2.39 : 1 ratio and does not need that much pixel/GBytes), however, the audio was not that great (watchet it on 55″ UHD, and 5.1 Surround BTW). So, thanks for this one… will watch it again if the higher quality rip is available anyway…

    1. For HDRip please visit other torrents. Let’s keep this clean, Blu Ray Quality Only. Dear Admin please do not upload HDRip, humble request.

  2. Could you focus on uploading Blu-ray movies and fixing dead links ? we will wait for new Blu-ray movies, you don’t have to upload them in lower quality. and thanks for providing us with these amazing movies and series

Leave a Reply

Your email address will not be published. Required fields are marked *