Veer-Zaara (2004) (1080p BluRay x265 HEVC 10bit AAC 5.1 Hindi Natty)

Info

Plot: The story of the love between Veer Pratap Singh, an Indian, and Zaara Hayaat Khan, a Pakistani…a love so great it knows no boundaries…

Encode

Source:

Veer.Zaara.•.2004.•.BD50.•.Untouched.BluRay.•.DRs | 45 GB | Hon3yHD

Mediainfo

General 
Format : Matroska 
Format version : Version 4 / Version 2 
File size : 4.77 GiB 
Duration : 3 h 16 min 
Overall bit rate : 3 480 kb/s 
Encoded date : UTC 2018-06-14 11:09:30 
Writing application : mkvmerge v23.0.0 ('The Bride Said No') 64-bit 
Writing library : libebml v1.3.6 + libmatroska v1.4.9 
Writing frontend : Natty 

Video 
ID : 1 
Format : HEVC 
Format/Info : High Efficiency Video Coding 
Format profile : Main [email protected]@Main 
Codec ID : V_MPEGH/ISO/HEVC 
Duration : 3 h 16 min 
Bit rate : 2 945 kb/s 
Width : 1 920 pixels 
Height : 824 pixels 
Display aspect ratio : 2.35:1 
Frame rate mode : Constant 
Frame rate : 24.000 FPS 
Color space : YUV 
Chroma subsampling : 4:2:0 
Bit depth : 10 bits 
Bits/(Pixel*Frame) : 0.078 
Stream size : 4.04 GiB (85%) 
Writing library : x265 2.8+15-d693a5aa5541:[Windows][MSVC 1914][64 bit] 10bit 
Encoding settings : cpuid=1111039 / frame-threads=2 / numa-pools=4 / wpp / no-pmode / no-pme / no-psnr / no-ssim / log-level=2 / input-csp=1 / input-res=1920x824 / interlace=0 / total-frames=282865 / level-idc=0 / high-tier=1 / uhd-bd=0 / ref=5 / no-allow-non-conformance / no-repeat-headers / annexb / no-aud / no-hrd / info / hash=0 / no-temporal-layers / open-gop / min-keyint=24 / keyint=400 / gop-lookahead=0 / bframes=8 / b-adapt=2 / b-pyramid / bframe-bias=0 / rc-lookahead=100 / lookahead-slices=4 / scenecut=40 / radl=0 / no-intra-refresh / ctu=32 / min-cu-size=8 / no-rect / no-amp / max-tu-size=16 / tu-inter-depth=1 / tu-intra-depth=1 / limit-tu=0 / rdoq-level=2 / dynamic-rd=0.00 / no-ssim-rd / signhide / no-tskip / nr-intra=0 / nr-inter=0 / no-constrained-intra / no-strong-intra-smoothing / max-merge=2 / limit-refs=3 / limit-modes / me=3 / subme=5 / merange=57 / temporal-mvp / weightp / weightb / no-analyze-src-pics / deblock=-2:0 / no-sao / no-sao-non-deblock / rd=4 / no-early-skip / rskip / no-fast-intra / no-tskip-fast / no-cu-lossless / no-b-intra / no-splitrd-skip / rdpenalty=0 / psy-rd=2.00 / psy-rdoq=0.00 / no-rd-refine / no-lossless / cbqpoffs=0 / crqpoffs=0 / rc=crf / crf=22.0 / qcomp=0.60 / qpstep=4 / stats-write=0 / stats-read=0 / ipratio=1.40 / pbratio=1.30 / aq-mode=3 / aq-strength=1.00 / cutree / zone-count=0 / no-strict-cbr / qg-size=32 / no-rc-grain / qpmax=69 / qpmin=0 / no-const-vbv / sar=0 / overscan=0 / videoformat=5 / range=0 / colorprim=1 / transfer=1 / colormatrix=1 / chromaloc=0 / display-window=0 / max-cll=0,0 / min-luma=0 / max-luma=1023 / log2-max-poc-lsb=8 / vui-timing-info / vui-hrd-info / slices=1 / no-opt-qp-pps / no-opt-ref-list-length-pps / multi-pass-opt-rps / scenecut-bias=0.05 / no-opt-cu-delta-qp / aq-motion / no-hdr / no-hdr-opt / no-dhdr10-opt / no-idr-recovery-sei / analysis-reuse-level=8 / scale-factor=0 / refine-intra=0 / refine-inter=0 / refine-mv=0 / no-limit-sao / ctu-info=0 / no-lowpass-dct / refine-mv-type=0 / copy-pic=1 / max-ausize-factor=1.0 / no-dynamic-refine / no-single-sei 
Default : Yes 
Forced : No 
Color range : Limited 
Color primaries : BT.709 
Transfer characteristics : BT.709 
Matrix coefficients : BT.709 

Audio 
ID : 2 
Format : AAC 
Format/Info : Advanced Audio Codec 
Format profile : LC 
Codec ID : A_AAC 
Duration : 3 h 16 min 
Bit rate : 503 kb/s 
Channel(s) : 6 channels 
Channel positions : Front: L C R, Side: L R, LFE 
Sampling rate : 48.0 kHz 
Frame rate : 46.875 FPS (1024 spf) 
Compression mode : Lossy 
Delay relative to video : 20 ms 
Stream size : 707 MiB (14%) 
Language : Hindi 
Default : Yes 
Forced : No 

Subtitle #1 
ID : 3 
Format : PGS 
Muxing mode : zlib 
Codec ID : S_HDMV/PGS 
Codec ID/Info : Picture based subtitle format used on BDs/HD-DVDs 
Duration : 3 h 15 min 
Bit rate : 28.5 kb/s 
Count of elements : 4046 
Stream size : 39.9 MiB (1%) 
Language : English 
Default : Yes 
Forced : No 

Subtitle #2 
ID : 4 
Format : PGS 
Muxing mode : zlib 
Codec ID : S_HDMV/PGS 
Codec ID/Info : Picture based subtitle format used on BDs/HD-DVDs 
Duration : 3 h 14 min 
Bit rate : 117 b/s 
Count of elements : 26 
Stream size : 167 KiB (0%) 
Language : English 
Default : No 
Forced : No 

Subtitle #3 
ID : 5 
Format : PGS 
Muxing mode : zlib 
Codec ID : S_HDMV/PGS 
Codec ID/Info : Picture based subtitle format used on BDs/HD-DVDs 
Duration : 3 h 15 min 
Bit rate : 12.6 kb/s 
Count of elements : 4042 
Stream size : 17.6 MiB (0%) 
Language : Arabic 
Default : No 
Forced : No 

Subtitle #4 
ID : 6 
Format : PGS 
Muxing mode : zlib 
Codec ID : S_HDMV/PGS 
Codec ID/Info : Picture based subtitle format used on BDs/HD-DVDs 
Duration : 3 h 14 min 
Bit rate : 117 b/s 
Count of elements : 26 
Stream size : 167 KiB (0%) 
Language : Arabic 
Default : No 
Forced : No 

Subtitle #5 
ID : 7 
Format : PGS 
Muxing mode : zlib 
Codec ID : S_HDMV/PGS 
Codec ID/Info : Picture based subtitle format used on BDs/HD-DVDs 
Duration : 3 h 15 min 
Bit rate : 49.5 kb/s 
Count of elements : 5088 
Stream size : 69.3 MiB (1%) 
Language : Tamil 
Default : No 
Forced : No 

Subtitle #6 
ID : 8 
Format : PGS 
Muxing mode : zlib 
Codec ID : S_HDMV/PGS 
Codec ID/Info : Picture based subtitle format used on BDs/HD-DVDs 
Duration : 3 h 14 min 
Bit rate : 117 b/s 
Count of elements : 26 
Stream size : 167 KiB (0%) 
Language : Tamil 
Default : No 
Forced : No 

Subtitle #7 
ID : 9 
Format : PGS 
Muxing mode : zlib 
Codec ID : S_HDMV/PGS 
Codec ID/Info : Picture based subtitle format used on BDs/HD-DVDs 
Duration : 3 h 15 min 
Bit rate : 26.4 kb/s 
Count of elements : 4082 
Stream size : 37.0 MiB (1%) 
Language : Telugu 
Default : No 
Forced : No 

Subtitle #8 
ID : 10 
Format : PGS 
Muxing mode : zlib 
Codec ID : S_HDMV/PGS 
Codec ID/Info : Picture based subtitle format used on BDs/HD-DVDs 
Duration : 3 h 14 min 
Bit rate : 117 b/s 
Count of elements : 26 
Stream size : 167 KiB (0%) 
Language : Telugu 
Default : No 
Forced : No 

Menu 
00:00:00.000 : en:Chapter 01 
00:04:54.125 : en:Chapter 02 
00:06:45.041 : en:Chapter 03 
00:15:50.958 : en:Chapter 04 
00:20:25.291 : en:Chapter 05 
00:24:26.500 : en:Chapter 06 
00:28:07.458 : en:Chapter 07 
00:31:34.916 : en:Chapter 08 
00:34:03.208 : en:Chapter 09 
00:36:10.458 : en:Chapter 10 
00:43:17.875 : en:Chapter 11 
00:50:30.708 : en:Chapter 12 
00:56:07.416 : en:Chapter 13 
01:00:11.458 : en:Chapter 14 
01:05:29.916 : en:Chapter 15 
01:11:38.833 : en:Chapter 16 
01:15:24.625 : en:Chapter 17 
01:18:59.041 : en:Chapter 18 
01:21:35.125 : en:Chapter 19 
01:27:03.041 : en:Chapter 20 
01:29:24.833 : en:Chapter 21 
01:31:58.208 : en:Chapter 22 
01:35:28.750 : en:Chapter 23 
01:39:31.416 : en:Chapter 24 
01:40:20.833 : en:Chapter 25 
01:42:47.416 : en:Chapter 26 
01:48:07.250 : en:Chapter 27 
01:53:18.833 : en:Chapter 28 
01:57:14.000 : en:Chapter 29 
02:05:33.125 : en:Chapter 30 
02:09:19.291 : en:Chapter 31 
02:11:29.166 : en:Chapter 32 
02:18:38.291 : en:Chapter 33 
02:21:11.625 : en:Chapter 34 
02:32:10.250 : en:Chapter 35 
02:37:37.416 : en:Chapter 36 
02:44:33.041 : en:Chapter 37 
02:58:29.583 : en:Chapter 38 
03:04:06.166 : en:Chapter 39 
03:09:46.375 : en:Chapter 40 
03:11:59.125 : en:Chapter 41 
03:14:44.541 : en:Chapter 42

Screencaps

Download

File: Veer-Zaara (2004) (1080p BluRay x265 Natty).mkv (4.8 GB)

Download: Google Drive

5 thoughts on “Veer-Zaara (2004) (1080p BluRay x265 HEVC 10bit AAC 5.1 Hindi Natty)

Leave a Reply to Prabhat Kumar Singh Cancel reply

Your email address will not be published. Required fields are marked *