Titanic (1997) Open Matte (1080p BluRay x265 HEVC 10bit AAC 5.1 Silence)

Info

Plot: 84 years later, a 101-year-old woman named Rose DeWitt Bukater tells the story to her granddaughter Lizzy Calvert, Brock Lovett, Lewis Bodine, Bobby Buell and Anatoly Mikailavich on the Keldysh about her life set in April 10th 1912, on a ship called Titanic when young Rose boards the departing ship with the upper-class passengers and her mother, Ruth DeWitt Bukater, and her fiancé, Caledon Hockley. Meanwhile, a drifter and artist named Jack Dawson and his best friend Fabrizio De Rossi win third-class tickets to the ship in a game. And she explains the whole story from departure until the death of Titanic on its first and last voyage April 15th, 1912 at 2:20 in the morning.

Encode

Release: 
Titanic 1997 Open Matte Blu-ray Remux AVC DTS-HD MA - BluDragon

Mediainfo

General 
Format : Matroska 
Format version : Version 4 / Version 2 
File size : 6.84 GiB 
Duration : 3 h 14 min 
Overall bit rate : 5 024 kb/s 
Encoded date : UTC 2018-11-04 09:33:39 
Writing application : mkvmerge v20.0.0 ('I Am The Sun') 64-bit 
Writing library : libebml v1.3.5 + libmatroska v1.4.8 
Writing frontend : StaxRip v1.7.0.6 

Video 
ID : 1 
Format : HEVC 
Format/Info : High Efficiency Video Coding 
Format profile : Main [email protected]@Main 
Codec ID : V_MPEGH/ISO/HEVC 
Duration : 3 h 14 min 
Bit rate : 4 500 kb/s 
Width : 1 920 pixels 
Height : 1 080 pixels 
Display aspect ratio : 16:9 
Frame rate mode : Constant 
Frame rate : 23.976 (24000/1001) FPS 
Color space : YUV 
Chroma subsampling : 4:2:0 
Bit depth : 10 bits 
Bits/(Pixel*Frame) : 0.091 
Stream size : 6.13 GiB (90%) 
Writing library : x265 2.9+4-471726d3a046:[Windows][MSVC 1900][64 bit] 10bit 
Encoding settings : cpuid=1111039 / frame-threads=4 / numa-pools=16 / wpp / no-pmode / no-pme / no-psnr / no-ssim / log-level=2 / input-csp=1 / input-res=1920x1080 / interlace=0 / total-frames=280392 / level-idc=0 / high-tier=1 / uhd-bd=0 / ref=5 / no-allow-non-conformance / no-repeat-headers / annexb / no-aud / no-hrd / info / hash=0 / no-temporal-layers / open-gop / min-keyint=23 / keyint=250 / gop-lookahead=0 / bframes=8 / b-adapt=2 / b-pyramid / bframe-bias=0 / rc-lookahead=60 / lookahead-slices=4 / scenecut=40 / radl=0 / no-intra-refresh / ctu=64 / min-cu-size=8 / rect / no-amp / max-tu-size=32 / tu-inter-depth=1 / tu-intra-depth=1 / limit-tu=0 / rdoq-level=2 / dynamic-rd=0.00 / no-ssim-rd / signhide / no-tskip / nr-intra=0 / nr-inter=0 / no-constrained-intra / strong-intra-smoothing / max-merge=3 / limit-refs=3 / limit-modes / me=3 / subme=5 / merange=57 / temporal-mvp / weightp / no-weightb / no-analyze-src-pics / deblock=-3:-3 / no-sao / no-sao-non-deblock / rd=4 / no-early-skip / rskip / no-fast-intra / no-tskip-fast / no-cu-lossless / no-b-intra / no-splitrd-skip / rdpenalty=0 / psy-rd=2.00 / psy-rdoq=1.00 / no-rd-refine / no-lossless / cbqpoffs=0 / crqpoffs=0 / rc=abr / bitrate=4500 / qcomp=0.60 / qpstep=4 / stats-write=0 / stats-read=2 / cplxblur=20.0 / qblur=0.5 / ipratio=1.40 / pbratio=1.30 / aq-mode=3 / aq-strength=1.00 / cutree / zone-count=0 / no-strict-cbr / qg-size=32 / no-rc-grain / qpmax=69 / qpmin=0 / no-const-vbv / sar=0 / overscan=0 / videoformat=5 / range=0 / colorprim=2 / transfer=2 / colormatrix=2 / chromaloc=0 / display-window=0 / max-cll=0,0 / min-luma=0 / max-luma=1023 / log2-max-poc-lsb=8 / vui-timing-info / vui-hrd-info / slices=1 / no-opt-qp-pps / no-opt-ref-list-length-pps / no-multi-pass-opt-rps / scenecut-bias=0.05 / no-opt-cu-delta-qp / no-aq-motion / no-hdr / no-hdr-opt / no-dhdr10-opt / no-idr-recovery-sei / analysis-reuse-level=5 / scale-factor=0 / refine-intra=0 / refine-inter=0 / refine-mv=0 / no-limit-sao / ctu-info=0 / no-lowpass-dct / refine-mv-type=0 / copy-pic=1 / max-ausize-factor=1.0 / no-dynamic-refine / no-single-sei 
Default : Yes 
Forced : No 

Audio 
ID : 2 
Format : AAC 
Format/Info : Advanced Audio Codec 
Format profile : LC 
Codec ID : A_AAC 
Duration : 3 h 14 min 
Bit rate : 463 kb/s 
Channel(s) : 6 channels 
Channel positions : Front: L C R, Side: L R, LFE 
Sampling rate : 48.0 kHz 
Frame rate : 46.875 FPS (1024 spf) 
Compression mode : Lossy 
Delay relative to video : 20 ms 
Stream size : 645 MiB (9%) 
Language : English 
Default : Yes 
Forced : No 

Subtitle #1 
ID : 3 
Format : PGS 
Muxing mode : zlib 
Codec ID : S_HDMV/PGS 
Codec ID/Info : Picture based subtitle format used on BDs/HD-DVDs 
Duration : 3 h 13 min 
Bit rate : 23.6 kb/s 
Count of elements : 5484 
Stream size : 32.7 MiB (0%) 
Language : English 
Default : No 
Forced : No 

Subtitle #2 
ID : 4 
Format : PGS 
Muxing mode : zlib 
Codec ID : S_HDMV/PGS 
Codec ID/Info : Picture based subtitle format used on BDs/HD-DVDs 
Duration : 3 h 12 min 
Bit rate : 16.3 kb/s 
Count of elements : 4231 
Stream size : 22.4 MiB (0%) 
Language : Spanish 
Default : No 
Forced : No 

Subtitle #3 
ID : 5 
Format : PGS 
Muxing mode : zlib 
Codec ID : S_HDMV/PGS 
Codec ID/Info : Picture based subtitle format used on BDs/HD-DVDs 
Duration : 3 h 12 min 
Bit rate : 16.7 kb/s 
Count of elements : 3991 
Stream size : 23.0 MiB (0%) 
Language : Danish 
Default : No 
Forced : No 

Subtitle #4 
ID : 6 
Format : PGS 
Muxing mode : zlib 
Codec ID : S_HDMV/PGS 
Codec ID/Info : Picture based subtitle format used on BDs/HD-DVDs 
Duration : 3 h 12 min 
Bit rate : 14.0 kb/s 
Count of elements : 3653 
Stream size : 19.4 MiB (0%) 
Language : Finnish 
Default : No 
Forced : No 

Subtitle #5 
ID : 7 
Format : PGS 
Muxing mode : zlib 
Codec ID : S_HDMV/PGS 
Codec ID/Info : Picture based subtitle format used on BDs/HD-DVDs 
Duration : 3 h 12 min 
Bit rate : 19.5 kb/s 
Count of elements : 4321 
Stream size : 26.9 MiB (0%) 
Language : Italian 
Default : No 
Forced : No 

Subtitle #6 
ID : 8 
Format : PGS 
Muxing mode : zlib 
Codec ID : S_HDMV/PGS 
Codec ID/Info : Picture based subtitle format used on BDs/HD-DVDs 
Duration : 3 h 12 min 
Bit rate : 18.7 kb/s 
Count of elements : 4317 
Stream size : 25.8 MiB (0%) 
Language : Norwegian Bokmal 
Default : No 
Forced : No 

Subtitle #7 
ID : 9 
Format : PGS 
Muxing mode : zlib 
Codec ID : S_HDMV/PGS 
Codec ID/Info : Picture based subtitle format used on BDs/HD-DVDs 
Duration : 3 h 12 min 
Bit rate : 14.8 kb/s 
Count of elements : 3883 
Stream size : 20.4 MiB (0%) 
Language : Swedish 
Default : No 
Forced : No 

Subtitle #8 
ID : 10 
Format : PGS 
Muxing mode : zlib 
Codec ID : S_HDMV/PGS 
Codec ID/Info : Picture based subtitle format used on BDs/HD-DVDs 
Duration : 3 h 12 min 
Bit rate : 13.8 kb/s 
Count of elements : 3125 
Stream size : 19.0 MiB (0%) 
Language : Greek 
Default : No 
Forced : No 

Subtitle #9 
ID : 11 
Format : PGS 
Muxing mode : zlib 
Codec ID : S_HDMV/PGS 
Codec ID/Info : Picture based subtitle format used on BDs/HD-DVDs 
Duration : 3 h 12 min 
Bit rate : 19.3 kb/s 
Count of elements : 4351 
Stream size : 26.6 MiB (0%) 
Language : Portuguese 
Default : No 
Forced : No 

Subtitle #10 
ID : 12 
Format : PGS 
Muxing mode : zlib 
Codec ID : S_HDMV/PGS 
Codec ID/Info : Picture based subtitle format used on BDs/HD-DVDs 
Duration : 3 h 13 min 
Bit rate : 18.1 kb/s 
Count of elements : 4331 
Stream size : 25.1 MiB (0%) 
Language : Romanian 
Default : No 
Forced : No 

Menu 
00:00:00.000 : en:Chapter 1 
00:01:24.375 : en:Chapter 2 
00:04:39.988 : en:Chapter 3 
00:08:26.130 : en:Chapter 4 
00:10:46.771 : en:Chapter 5 
00:12:52.646 : en:Chapter 6 
00:16:52.428 : en:Chapter 7 
00:20:07.748 : en:Chapter 8 
00:23:38.875 : en:Chapter 9 
00:26:26.543 : en:Chapter 10 
00:29:03.366 : en:Chapter 11 
00:29:37.525 : en:Chapter 12 
00:34:59.931 : en:Chapter 13 
00:36:48.622 : en:Chapter 14 
00:42:59.159 : en:Chapter 15 
00:45:26.098 : en:Chapter 16 
00:47:11.620 : en:Chapter 17 
00:53:33.043 : en:Chapter 18 
00:56:47.987 : en:Chapter 19 
01:05:32.052 : en:Chapter 20 
01:10:19.965 : en:Chapter 21 
01:14:06.358 : en:Chapter 22 
01:16:10.690 : en:Chapter 23 
01:19:59.044 : en:Chapter 24 
01:22:50.506 : en:Chapter 25 
01:23:40.056 : en:Chapter 26 
01:28:21.629 : en:Chapter 27 
01:29:19.854 : en:Chapter 28 
01:32:52.274 : en:Chapter 29 
01:36:59.104 : en:Chapter 30 
01:44:41.149 : en:Chapter 31 
01:46:21.041 : en:Chapter 32 
01:47:58.850 : en:Chapter 1 
01:50:11.107 : en:Chapter 2 
01:52:21.403 : en:Chapter 3 
01:53:54.330 : en:Chapter 4 
01:55:21.834 : en:Chapter 5 
01:56:10.883 : en:Chapter 6 
01:57:53.235 : en:Chapter 7 
02:06:38.343 : en:Chapter 8 
02:08:49.974 : en:Chapter 9 
02:11:22.085 : en:Chapter 10 
02:15:42.553 : en:Chapter 11 
02:19:43.460 : en:Chapter 12 
02:21:24.561 : en:Chapter 13 
02:25:28.764 : en:Chapter 14 
02:27:28.425 : en:Chapter 15 
02:29:07.274 : en:Chapter 16 
02:29:56.698 : en:Chapter 17 
02:33:31.538 : en:Chapter 18 
02:36:52.363 : en:Chapter 19 
02:38:33.881 : en:Chapter 20 
02:40:34.669 : en:Chapter 21 
02:45:00.643 : en:Chapter 22 
02:47:48.811 : en:Chapter 23 
02:49:22.529 : en:Chapter 24 
02:52:09.613 : en:Chapter 25 
02:53:41.330 : en:Chapter 26 
02:57:53.498 : en:Chapter 27 
02:59:35.308 : en:Chapter 28 
03:01:29.255 : en:Chapter 29 
03:03:13.651 : en:Chapter 30 
03:04:57.880 : en:Chapter 31 
03:07:19.647 : en:Chapter 32

Screencaps

Download

File: Titanic (1997) (1080p BluRay x265 Silence).mkv (6.8 GB)

Download: Google Drive

Leave a Reply

Your email address will not be published. Required fields are marked *