The Incredibles 2004 (1080p Bluray x265 HEVC 10bit AAC 5.1 Tigole)

Info

Image result for The Incredibles

Plot: Bob Parr has given up his superhero days to log in time as an insurance adjuster and raise his three children with his formerly heroic wife in suburbia. But when he receives a mysterious assignment, it’s time to get back into costume.

Mediainfo

General 
Complete name : The Incredibles 2004 (1080p x265 10bit Tigole).mkv 
Format : Matroska 
Format version : Version 4 / Version 2 
File size : 2.75 GiB 
Duration : 1 h 55 min 
Overall bit rate : 3 415 kb/s 
Movie name : The Incredibles 
Encoded date : UTC 2016-10-31 04:23:11 
Writing application : mkvmerge v9.4.0 ('Knurl') 64bit 
Writing library : libebml v1.3.4 + libmatroska v1.4.5 

Video 
ID : 1 
Format : HEVC 
Format/Info : High Efficiency Video Coding 
Format profile : Main [email protected]@Main 
Codec ID : V_MPEGH/ISO/HEVC 
Duration : 1 h 55 min 
Bit rate : 2 848 kb/s 
Width : 1 920 pixels 
Height : 800 pixels 
Display aspect ratio : 2.40:1 
Frame rate mode : Constant 
Frame rate : 23.976 (24000/1001) FPS 
Color space : YUV 
Chroma subsampling : 4:2:0 
Bit depth : 10 bits 
Bits/(Pixel*Frame) : 0.077 
Stream size : 2.30 GiB (83%) 
Writing library : x265 2.1+20-c64393b415ad:[Windows][GCC 6.2.0][64 bit] 10bit 
Encoding settings : wpp / ctu=64 / min-cu-size=8 / max-tu-size=32 / tu-intra-depth=1 / tu-inter-depth=1 / me=1 / subme=2 / merange=57 / no-rect / no-amp / max-merge=2 / temporal-mvp / no-early-skip / rskip / rdpenalty=0 / no-tskip / no-tskip-fast / strong-intra-smoothing / no-lossless / no-cu-lossless / no-constrained-intra / no-fast-intra / open-gop / no-temporal-layers / interlace=0 / keyint=250 / min-keyint=23 / scenecut=40 / rc-lookahead=20 / lookahead-slices=5 / bframes=4 / bframe-bias=0 / b-adapt=2 / ref=3 / limit-refs=3 / no-limit-modes / weightp / no-weightb / aq-mode=2 / qg-size=32 / aq-strength=1.00 / cbqpoffs=0 / crqpoffs=0 / rd=3 / psy-rd=2.00 / rdoq-level=0 / psy-rdoq=0.00 / log2-max-poc-lsb=8 / limit-tu=0 / no-rd-refine / signhide / deblock=0:0 / sao / no-sao-non-deblock / b-pyramid / cutree / no-intra-refresh / rc=crf / crf=18.0 / qcomp=0.60 / qpmin=0 / qpmax=69 / qpstep=4 / ipratio=1.40 / pbratio=1.30 
Default : Yes 
Forced : No 

Audio #1 
ID : 2 
Format : AAC 
Format/Info : Advanced Audio Codec 
Format profile : LC 
Codec ID : A_AAC-2 
Duration : 1 h 55 min 
Bit rate : 340 kb/s 
Channel(s) : 6 channels 
Channel positions : Front: L C R, Side: L R, LFE 
Sampling rate : 48.0 kHz 
Frame rate : 46.875 FPS (1024 SPF) 
Compression mode : Lossy 
Delay relative to video : 20 ms 
Stream size : 281 MiB (10%) 
Language : English 
Default : Yes 
Forced : No 

Audio #2 
ID : 3 
Format : AAC 
Format/Info : Advanced Audio Codec 
Format profile : HE-AAC / LC 
Format settings : Explicit 
Codec ID : A_AAC-2 
Duration : 1 h 55 min 
Bit rate : 66.2 kb/s 
Channel(s) : 2 channels 
Channel positions : Front: L R 
Sampling rate : 48.0 kHz / 24.0 kHz 
Frame rate : 23.438 FPS (1024 SPF) 
Compression mode : Lossy 
Delay relative to video : 40 ms 
Stream size : 54.4 MiB (2%) 
Title : Commentary 1 
Language : English 
Default : No 
Forced : No 

Audio #3 
ID : 4 
Format : AAC 
Format/Info : Advanced Audio Codec 
Format profile : HE-AAC / LC 
Format settings : Explicit 
Codec ID : A_AAC-2 
Duration : 1 h 55 min 
Bit rate : 66.2 kb/s 
Channel(s) : 2 channels 
Channel positions : Front: L R 
Sampling rate : 48.0 kHz / 24.0 kHz 
Frame rate : 23.438 FPS (1024 SPF) 
Compression mode : Lossy 
Delay relative to video : 40 ms 
Stream size : 54.4 MiB (2%) 
Title : Commentary 2 
Language : English 
Default : No 
Forced : No 

Text #1 
ID : 5 
Format : VobSub 
Muxing mode : zlib 
Codec ID : S_VOBSUB 
Codec ID/Info : Picture based subtitle format used on DVDs 
Duration : 1 h 47 min 
Bit rate : 6 943 b/s 
Count of elements : 1337 
Stream size : 5.32 MiB (0%) 
Language : English 
Default : No 
Forced : No 

Text #2 
ID : 6 
Format : VobSub 
Muxing mode : zlib 
Codec ID : S_VOBSUB 
Codec ID/Info : Picture based subtitle format used on DVDs 
Duration : 42 s 39 ms 
Bit rate : 1 568 b/s 
Count of elements : 4 
Stream size : 8.05 KiB (0%) 
Language : English 
Default : No 
Forced : Yes 

Text #3 
ID : 7 
Format : VobSub 
Muxing mode : zlib 
Codec ID : S_VOBSUB 
Codec ID/Info : Picture based subtitle format used on DVDs 
Duration : 1 h 46 min 
Bit rate : 5 528 b/s 
Count of elements : 1129 
Stream size : 4.23 MiB (0%) 
Language : Italian 
Default : No 
Forced : No 

Text #4 
ID : 8 
Format : VobSub 
Muxing mode : zlib 
Codec ID : S_VOBSUB 
Codec ID/Info : Picture based subtitle format used on DVDs 
Duration : 1 h 55 min 
Bit rate : 8 984 b/s 
Count of elements : 1632 
Stream size : 7.40 MiB (0%) 
Title : Commentary 1 
Language : Italian 
Default : No 
Forced : No 

Text #5 
ID : 9 
Format : VobSub 
Muxing mode : zlib 
Codec ID : S_VOBSUB 
Codec ID/Info : Picture based subtitle format used on DVDs 
Duration : 1 h 54 min 
Bit rate : 13.3 kb/s 
Count of elements : 2422 
Stream size : 10.8 MiB (0%) 
Title : Commentary 2 
Language : Italian 
Default : No 
Forced : No 

Text #6 
ID : 10 
Format : VobSub 
Muxing mode : zlib 
Codec ID : S_VOBSUB 
Codec ID/Info : Picture based subtitle format used on DVDs 
Duration : 1 h 46 min 
Bit rate : 5 824 b/s 
Count of elements : 1146 
Stream size : 4.46 MiB (0%) 
Language : German 
Default : No 
Forced : No 

Text #7 
ID : 11 
Format : VobSub 
Muxing mode : zlib 
Codec ID : S_VOBSUB 
Codec ID/Info : Picture based subtitle format used on DVDs 
Duration : 42 s 35 ms 
Bit rate : 1 483 b/s 
Count of elements : 4 
Stream size : 7.61 KiB (0%) 
Title : Forced 
Language : German 
Default : No 
Forced : No 

Text #8 
ID : 12 
Format : VobSub 
Muxing mode : zlib 
Codec ID : S_VOBSUB 
Codec ID/Info : Picture based subtitle format used on DVDs 
Duration : 1 h 55 min 
Bit rate : 10.6 kb/s 
Count of elements : 1696 
Stream size : 8.71 MiB (0%) 
Title : Commentary 1 
Language : German 
Default : No 
Forced : No 

Text #9 
ID : 13 
Format : VobSub 
Muxing mode : zlib 
Codec ID : S_VOBSUB 
Codec ID/Info : Picture based subtitle format used on DVDs 
Duration : 1 h 54 min 
Bit rate : 13.6 kb/s 
Count of elements : 2430 
Stream size : 11.1 MiB (0%) 
Title : Commentary 2 
Language : German 
Default : No 
Forced : No 

Text #10 
ID : 14 
Format : VobSub 
Muxing mode : zlib 
Codec ID : S_VOBSUB 
Codec ID/Info : Picture based subtitle format used on DVDs 
Duration : 1 h 47 min 
Bit rate : 5 228 b/s 
Count of elements : 1195 
Stream size : 4.00 MiB (0%) 
Language : Turkish 
Default : No 
Forced : No 

Text #11 
ID : 15 
Format : VobSub 
Muxing mode : zlib 
Codec ID : S_VOBSUB 
Codec ID/Info : Picture based subtitle format used on DVDs 
Duration : 1 h 55 min 
Bit rate : 9 687 b/s 
Count of elements : 1687 
Stream size : 7.98 MiB (0%) 
Title : Commentary 1 
Language : Turkish 
Default : No 
Forced : No 

Text #12 
ID : 16 
Format : VobSub 
Muxing mode : zlib 
Codec ID : S_VOBSUB 
Codec ID/Info : Picture based subtitle format used on DVDs 
Duration : 1 h 54 min 
Bit rate : 13.7 kb/s 
Count of elements : 2406 
Stream size : 11.2 MiB (0%) 
Title : Commentary 2 
Language : Turkish 
Default : No 
Forced : No 

Menu 
00:00:00.000 : en:Chapter 01 
00:09:14.554 : en:Chapter 02 
00:11:32.566 : en:Chapter 03 
00:13:31.352 : en:Chapter 04 
00:17:08.527 : en:Chapter 05 
00:20:44.910 : en:Chapter 06 
00:26:53.528 : en:Chapter 07 
00:30:42.215 : en:Chapter 08 
00:34:54.592 : en:Chapter 09 
00:41:27.234 : en:Chapter 10 
00:46:01.675 : en:Chapter 11 
00:48:54.514 : en:Chapter 12 
00:50:02.124 : en:Chapter 13 
00:54:01.780 : en:Chapter 14 
00:57:09.551 : en:Chapter 15 
01:00:35.798 : en:Chapter 16 
01:05:04.859 : en:Chapter 17 
01:10:53.707 : en:Chapter 18 
01:12:57.915 : en:Chapter 19 
01:16:27.583 : en:Chapter 20 
01:19:19.212 : en:Chapter 21 
01:21:13.910 : en:Chapter 22 
01:23:59.659 : en:Chapter 23 
01:27:05.637 : en:Chapter 24 
01:30:29.841 : en:Chapter 25 
01:32:47.395 : en:Chapter 26 
01:33:33.024 : en:Chapter 27 
01:34:30.414 : en:Chapter 28 
01:37:03.150 : en:Chapter 29 
01:41:58.070 : en:Chapter 30 
01:45:39.875 : en:Chapter 31 
01:47:33.363 : en:Chapter 32

Download

File: The Incredibles 2004 (1080p x265 10bit Tigole).mkv (2.8 GB)

Download: Google Drive

Featurettes: Google Drive

Leave a Reply

Your email address will not be published. Required fields are marked *