The Imitation Game 2014 (1080p Bluray x265 HEVC 10bit AAC 5.1 Tigole)

Info

Image result for The Imitation Game 2014

Plot: During World War II, the English mathematical genius Alan Turing tries to crack the German Enigma code with help from fellow mathematicians.

Mediainfo

General
Unique ID                                : 226705755865619469689713750121431072095 (0xAA8DF0BCA7CC427E8AD171DF808E7D5F)
Complete name                            : The Imitation Game 2014 (1080p x265 10bit Tigole).mkv
Format                                   : Matroska
Format version                           : Version 4 / Version 2
File size                                : 2.26 GiB
Duration                                 : 1 h 54 min
Overall bit rate                         : 2 829 kb/s
Encoded date                             : UTC 2016-11-02 03:04:10
Writing application                      : mkvmerge v9.4.0 ('Knurl') 64bit
Writing library                          : libebml v1.3.4 + libmatroska v1.4.5

Video
ID                                       : 1
Format                                   : HEVC
Format/Info                              : High Efficiency Video Coding
Format profile                           : Main [email protected]@Main
Codec ID                                 : V_MPEGH/ISO/HEVC
Duration                                 : 1 h 54 min
Bit rate                                 : 2 494 kb/s
Width                                    : 1 920 pixels
Height                                   : 800 pixels
Display aspect ratio                     : 2.40:1
Frame rate mode                          : Constant
Frame rate                               : 23.976 (24000/1001) FPS
Color space                              : YUV
Chroma subsampling                       : 4:2:0
Bit depth                                : 10 bits
Bits/(Pixel*Frame)                       : 0.068
Stream size                              : 1.99 GiB (88%)
Writing library                          : x265 2.1+20-c64393b415ad:[Windows][GCC 6.2.0][64 bit] 10bit
Encoding settings                        : wpp / ctu=64 / min-cu-size=8 / max-tu-size=32 / tu-intra-depth=1 / tu-inter-depth=1 / me=1 / subme=2 / merange=57 / no-rect / no-amp / max-merge=2 / temporal-mvp / no-early-skip / rskip / rdpenalty=0 / no-tskip / no-tskip-fast / strong-intra-smoothing / no-lossless / no-cu-lossless / no-constrained-intra / no-fast-intra / open-gop / no-temporal-layers / interlace=0 / keyint=250 / min-keyint=23 / scenecut=40 / rc-lookahead=20 / lookahead-slices=5 / bframes=4 / bframe-bias=0 / b-adapt=2 / ref=3 / limit-refs=3 / no-limit-modes / weightp / no-weightb / aq-mode=2 / qg-size=32 / aq-strength=1.00 / cbqpoffs=0 / crqpoffs=0 / rd=3 / psy-rd=2.00 / rdoq-level=0 / psy-rdoq=0.00 / log2-max-poc-lsb=8 / limit-tu=0 / no-rd-refine / signhide / deblock=0:0 / sao / no-sao-non-deblock / b-pyramid / cutree / no-intra-refresh / rc=2 / pass / bitrate=2493 / qcomp=0.60 / qpmin=0 / qpmax=69 / qpstep=4 / cplxblur=20.0 / qblur=0.5 / ipratio=1.40 / pbratio=1.30
Default                                  : Yes
Forced                                   : No

Audio
ID                                       : 2
Format                                   : AAC
Format/Info                              : Advanced Audio Codec
Format profile                           : LC
Codec ID                                 : A_AAC
Duration                                 : 1 h 54 min
Bit rate                                 : 326 kb/s
Channel(s)                               : 6 channels
Channel positions                        : Front: L C R, Side: L R, LFE
Sampling rate                            : 48.0 kHz
Frame rate                               : 46.875 FPS (1024 spf)
Compression mode                         : Lossy
Delay relative to video                  : 20 ms
Stream size                              : 266 MiB (12%)
Language                                 : English
Default                                  : Yes
Forced                                   : No

Text
ID                                       : 3
Format                                   : VobSub
Muxing mode                              : zlib
Codec ID                                 : S_VOBSUB
Codec ID/Info                            : Picture based subtitle format used on DVDs
Duration                                 : 1 h 46 min
Bit rate                                 : 7 545 b/s
Count of elements                        : 1593
Stream size                              : 5.75 MiB (0%)
Language                                 : English
Default                                  : No
Forced                                   : No

Menu
00:00:00.000                             : en:Chapter 01
00:07:58.895                             : en:Chapter 02
00:20:20.010                             : en:Chapter 03
00:28:20.031                             : en:Chapter 04
00:36:59.050                             : en:Chapter 05
00:46:37.127                             : en:Chapter 06
00:57:27.527                             : en:Chapter 07
01:09:35.087                             : en:Chapter 08
01:23:46.688                             : en:Chapter 09
01:29:29.238                             : en:Chapter 10
01:35:09.912                             : en:Chapter 11
01:42:10.499                             : en:Chapter 12

Download

File: The Imitation Game 2014 (1080p x265 10bit Tigole).mkv (2.26 GB)

Download: Google Drive

Featurettes: Google Drive

2 thoughts on “The Imitation Game 2014 (1080p Bluray x265 HEVC 10bit AAC 5.1 Tigole)

  1. Too many users have viewed or downloaded this file recently. Please try accessing the file again later. If the file you are trying to access is particularly large or is shared with many people, it may take up to 24 hours to be able to view or download the file. If you still can’t access a file after 24 hours, contact your domain administrator.

Leave a Reply

Your email address will not be published. Required fields are marked *