The American (2010) (1080p BluRay x265 HEVC 10bit AAC 5.1 afm72)

Info

Image result for The American (2010) poster

Plot: An assassin hides out in Italy for one last assignment.

Encode

Source:

Release: 
The.American.2010.BluRay.1080p.VC-1.DTS-HD.MA5.1-CHDBits

Mediainfo

General 
Format : Matroska 
Format version : Version 4 / Version 2 
File size : 4.03 GiB 
Duration : 1 h 44 min 
Overall bit rate : 5 505 kb/s 
Movie name : The American 
Encoded date : UTC 2018-12-17 12:03:56 
Writing application : mkvmerge v29.0.0 ('Like It Or Not') 64-bit 
Writing library : libebml v1.3.6 + libmatroska v1.4.9 
Cover : Yes 
Attachments : cover.jpg 
Writing frontend : StaxRip v1.9.0.0 

Video 
ID : 1 
Format : HEVC 
Format/Info : High Efficiency Video Coding 
Format profile : Main [email protected]@Main 
Codec ID : V_MPEGH/ISO/HEVC 
Duration : 1 h 44 min 
Bit rate : 4 998 kb/s 
Width : 1 920 pixels 
Height : 816 pixels 
Display aspect ratio : 2.35:1 
Frame rate mode : Constant 
Frame rate : 23.976 (24000/1001) FPS 
Color space : YUV 
Chroma subsampling : 4:2:0 
Bit depth : 10 bits 
Bits/(Pixel*Frame) : 0.133 
Stream size : 3.66 GiB (91%) 
Writing library : x265 2.9+14-3023bd8b05c0:[Windows][GCC 8.2.0][64 bit] 10bit 
Encoding settings : cpuid=1111039 / frame-threads=3 / numa-pools=8 / wpp / no-pmode / no-pme / no-psnr / no-ssim / log-level=2 / input-csp=1 / input-res=1920x816 / interlace=0 / total-frames=150945 / level-idc=0 / high-tier=1 / uhd-bd=0 / ref=4 / no-allow-non-conformance / no-repeat-headers / annexb / no-aud / no-hrd / info / hash=0 / no-temporal-layers / open-gop / min-keyint=23 / keyint=250 / gop-lookahead=0 / bframes=8 / b-adapt=2 / b-pyramid / bframe-bias=0 / rc-lookahead=80 / lookahead-slices=4 / scenecut=40 / radl=0 / no-splice / no-intra-refresh / ctu=64 / min-cu-size=8 / no-rect / no-amp / max-tu-size=32 / tu-inter-depth=1 / tu-intra-depth=1 / limit-tu=0 / rdoq-level=2 / dynamic-rd=0.00 / no-ssim-rd / signhide / no-tskip / nr-intra=0 / nr-inter=0 / no-constrained-intra / no-strong-intra-smoothing / max-merge=3 / limit-refs=3 / limit-modes / me=3 / subme=5 / merange=57 / temporal-mvp / weightp / no-weightb / no-analyze-src-pics / deblock=-3:-3 / no-sao / no-sao-non-deblock / rd=4 / no-early-skip / rskip / no-fast-intra / no-tskip-fast / no-cu-lossless / no-b-intra / no-splitrd-skip / rdpenalty=0 / psy-rd=2.00 / psy-rdoq=1.00 / no-rd-refine / no-lossless / cbqpoffs=0 / crqpoffs=0 / rc=abr / bitrate=5000 / qcomp=0.60 / qpstep=4 / stats-write=0 / stats-read=2 / cplxblur=20.0 / qblur=0.5 / ipratio=1.40 / pbratio=1.30 / aq-mode=3 / aq-strength=1.00 / cutree / zone-count=0 / no-strict-cbr / qg-size=32 / no-rc-grain / qpmax=69 / qpmin=0 / no-const-vbv / sar=0 / overscan=0 / videoformat=5 / range=0 / colorprim=2 / transfer=2 / colormatrix=2 / chromaloc=0 / display-window=0 / max-cll=0,0 / min-luma=0 / max-luma=1023 / log2-max-poc-lsb=8 / vui-timing-info / vui-hrd-info / slices=1 / no-opt-qp-pps / no-opt-ref-list-length-pps / no-multi-pass-opt-rps / scenecut-bias=0.05 / no-opt-cu-delta-qp / no-aq-motion / no-hdr / no-hdr-opt / no-dhdr10-opt / no-idr-recovery-sei / analysis-reuse-level=5 / scale-factor=0 / refine-intra=0 / refine-inter=0 / refine-mv=0 / no-limit-sao / ctu-info=0 / no-lowpass-dct / refine-mv-type=0 / copy-pic=1 / max-ausize-factor=1.0 / no-dynamic-refine / no-single-sei 
Default : Yes 
Forced : No 

Audio #1 
ID : 2 
Format : AAC 
Format/Info : Advanced Audio Codec 
Format profile : LC 
Codec ID : A_AAC 
Duration : 1 h 44 min 
Bit rate : 420 kb/s 
Channel(s) : 6 channels 
Channel positions : Front: L C R, Side: L R, LFE 
Sampling rate : 48.0 kHz 
Frame rate : 46.875 FPS (1024 spf) 
Compression mode : Lossy 
Delay relative to video : 20 ms 
Stream size : 315 MiB (8%) 
Language : English 
Default : Yes 
Forced : No 

Audio #2 
ID : 3 
Format : AAC 
Format/Info : Advanced Audio Codec 
Format profile : HE-AAC / LC 
Codec ID : A_AAC 
Duration : 1 h 44 min 
Bit rate : 80.0 kb/s 
Channel(s) : 2 channels 
Channel positions : Front: L R 
Sampling rate : 48.0 kHz / 24.0 kHz 
Frame rate : 23.438 FPS (1024 spf) 
Compression mode : Lossy 
Delay relative to video : 40 ms 
Stream size : 60.0 MiB (1%) 
Title : Commentary 
Language : English 
Default : No 
Forced : No 

Subtitle 
ID : 4 
Format : PGS 
Muxing mode : zlib 
Codec ID : S_HDMV/PGS 
Codec ID/Info : Picture based subtitle format used on BDs/HD-DVDs 
Duration : 1 h 37 min 
Bit rate : 12.2 kb/s 
Count of elements : 1137 
Stream size : 8.49 MiB (0%) 
Language : English 
Default : No 
Forced : No 

Menu 
00:00:00.000 : en:Chapter 01 
00:06:01.736 : en:Chapter 02 
00:13:24.094 : en:Chapter 03 
00:19:44.141 : en:Chapter 04 
00:25:20.602 : en:Chapter 05 
00:28:53.690 : en:Chapter 06 
00:35:15.988 : en:Chapter 07 
00:41:10.301 : en:Chapter 08 
00:44:51.772 : en:Chapter 09 
00:50:29.401 : en:Chapter 10 
00:55:51.097 : en:Chapter 11 
00:59:22.183 : en:Chapter 12 
01:04:38.249 : en:Chapter 13 
01:07:56.614 : en:Chapter 14 
01:15:02.789 : en:Chapter 15 
01:20:07.886 : en:Chapter 16 
01:23:34.300 : en:Chapter 17 
01:31:16.888 : en:Chapter 18 
01:34:56.857 : en:Chapter 19 
01:39:34.551 : en:Chapter 20

Screencaps

Download

File: The American (2010) (1080p BluRay x265 afm72).mkv (4.0 GB)

Download: Google Drive

Featurettes: Google Drive

Leave a Reply

Your email address will not be published. Required fields are marked *