Swades (2004) 10th Anniv (1080p BluRay x265 HEVC 10bit AAC 5.1 Hindi Natty)

Info

Plot: Set in modern day India, Swades is a film that tackles the issues that development throws up on a grass root level. It is to this India, which is colorful, heterogeneous and complex that Mohan Bhargava (Shah Rukh Khan), a bright young scientist working as a project manager in NASA, returns on a quest to find his childhood nanny.

Encode

Source:

Swades.•.2004.•.BD50.•.Untouched.BluRay.•.Eagle.•.DRs | 47 GB | Hon3yHD

Mediainfo

General 
Format : Matroska 
Format version : Version 4 / Version 2 
File size : 6.49 GiB 
Duration : 3 h 15 min 
Overall bit rate : 4 754 kb/s 
Encoded date : UTC 2018-06-26 14:06:51 
Writing application : mkvmerge v24.0.0 ('Beyond The Pale') 64-bit 
Writing library : libebml v1.3.6 + libmatroska v1.4.9 
Writing frontend : Natty 

Video 
ID : 1 
Format : HEVC 
Format/Info : High Efficiency Video Coding 
Format profile : Main [email protected]@Main 
Codec ID : V_MPEGH/ISO/HEVC 
Duration : 3 h 15 min 
Bit rate : 4 257 kb/s 
Width : 1 920 pixels 
Height : 816 pixels 
Display aspect ratio : 2.35:1 
Frame rate mode : Constant 
Frame rate : 23.976 (24000/1001) FPS 
Color space : YUV 
Chroma subsampling : 4:2:0 
Bit depth : 10 bits 
Bits/(Pixel*Frame) : 0.113 
Stream size : 5.81 GiB (90%) 
Writing library : x265 2.8+23-656b5b442f0b:[Windows][MSVC 1914][64 bit] 10bit 
Encoding settings : cpuid=1111039 / frame-threads=2 / numa-pools=4 / wpp / no-pmode / no-pme / no-psnr / no-ssim / log-level=2 / input-csp=1 / input-res=1920x816 / interlace=0 / total-frames=281034 / level-idc=0 / high-tier=1 / uhd-bd=0 / ref=5 / no-allow-non-conformance / no-repeat-headers / annexb / no-aud / no-hrd / info / hash=0 / no-temporal-layers / open-gop / min-keyint=23 / keyint=400 / gop-lookahead=0 / bframes=8 / b-adapt=2 / b-pyramid / bframe-bias=0 / rc-lookahead=100 / lookahead-slices=4 / scenecut=40 / radl=0 / no-intra-refresh / ctu=32 / min-cu-size=8 / no-rect / no-amp / max-tu-size=16 / tu-inter-depth=1 / tu-intra-depth=1 / limit-tu=0 / rdoq-level=2 / dynamic-rd=0.00 / no-ssim-rd / signhide / no-tskip / nr-intra=0 / nr-inter=0 / no-constrained-intra / no-strong-intra-smoothing / max-merge=2 / limit-refs=3 / limit-modes / me=3 / subme=5 / merange=57 / temporal-mvp / weightp / weightb / no-analyze-src-pics / deblock=-3:0 / no-sao / no-sao-non-deblock / rd=4 / no-early-skip / rskip / no-fast-intra / no-tskip-fast / no-cu-lossless / no-b-intra / no-splitrd-skip / rdpenalty=0 / psy-rd=2.00 / psy-rdoq=0.00 / no-rd-refine / no-lossless / cbqpoffs=0 / crqpoffs=0 / rc=crf / crf=24.0 / qcomp=0.60 / qpstep=4 / stats-write=0 / stats-read=0 / ipratio=1.40 / pbratio=1.30 / aq-mode=3 / aq-strength=0.90 / cutree / zone-count=0 / no-strict-cbr / qg-size=32 / no-rc-grain / qpmax=69 / qpmin=0 / no-const-vbv / sar=0 / overscan=0 / videoformat=5 / range=0 / colorprim=1 / transfer=1 / colormatrix=1 / chromaloc=0 / display-window=0 / max-cll=0,0 / min-luma=0 / max-luma=1023 / log2-max-poc-lsb=8 / vui-timing-info / vui-hrd-info / slices=1 / no-opt-qp-pps / no-opt-ref-list-length-pps / no-multi-pass-opt-rps / scenecut-bias=0.05 / no-opt-cu-delta-qp / aq-motion / no-hdr / no-hdr-opt / no-dhdr10-opt / no-idr-recovery-sei / analysis-reuse-level=8 / scale-factor=0 / refine-intra=0 / refine-inter=0 / refine-mv=0 / no-limit-sao / ctu-info=0 / no-lowpass-dct / refine-mv-type=0 / copy-pic=1 / max-ausize-factor=1.0 / no-dynamic-refine / no-single-sei 
Default : Yes 
Forced : No 
Color range : Limited 
Color primaries : BT.709 
Transfer characteristics : BT.709 
Matrix coefficients : BT.709 

Audio 
ID : 2 
Format : AAC 
Format/Info : Advanced Audio Codec 
Format profile : LC 
Codec ID : A_AAC 
Duration : 3 h 15 min 
Bit rate : 462 kb/s 
Channel(s) : 6 channels 
Channel positions : Front: L C R, Side: L R, LFE 
Sampling rate : 48.0 kHz 
Frame rate : 46.875 FPS (1024 spf) 
Compression mode : Lossy 
Delay relative to video : 20 ms 
Stream size : 645 MiB (10%) 
Language : Hindi 
Default : No 
Forced : No 

Subtitle #1 
ID : 3 
Format : PGS 
Muxing mode : zlib 
Codec ID : S_HDMV/PGS 
Codec ID/Info : Picture based subtitle format used on BDs/HD-DVDs 
Duration : 3 h 11 min 
Bit rate : 22.1 kb/s 
Count of elements : 3905 
Stream size : 30.2 MiB (0%) 
Language : English 
Default : Yes 
Forced : No 

Subtitle #2 
ID : 4 
Format : PGS 
Muxing mode : zlib 
Codec ID : S_HDMV/PGS 
Codec ID/Info : Picture based subtitle format used on BDs/HD-DVDs 
Duration : 3 h 11 min 
Bit rate : 18.7 kb/s 
Count of elements : 3936 
Stream size : 25.6 MiB (0%) 
Language : Arabic 
Default : No 
Forced : No 

Subtitle #3 
ID : 5 
Format : PGS 
Muxing mode : zlib 
Codec ID : S_HDMV/PGS 
Codec ID/Info : Picture based subtitle format used on BDs/HD-DVDs 
Duration : 3 h 11 min 
Bit rate : 23.5 kb/s 
Count of elements : 3941 
Stream size : 32.2 MiB (0%) 
Language : French 
Default : No 
Forced : No 

Menu 
00:00:00.000 : en:Chapter 01 
00:05:00.550 : en:Chapter 02 
00:17:57.868 : en:Chapter 03 
00:24:57.370 : en:Chapter 04 
00:31:59.584 : en:Chapter 05 
00:32:02.378 : en:Chapter 06 
00:40:02.108 : en:Chapter 07 
00:45:57.087 : en:Chapter 08 
00:49:12.950 : en:Chapter 09 
00:53:45.388 : en:Chapter 10 
01:02:56.189 : en:Chapter 11 
01:08:40.574 : en:Chapter 12 
01:12:55.829 : en:Chapter 13 
01:16:23.078 : en:Chapter 14 
01:22:57.347 : en:Chapter 15 
01:29:40.249 : en:Chapter 16 
01:36:44.048 : en:Chapter 17 
01:36:48.636 : en:Chapter 18 
01:47:19.057 : en:Chapter 19 
01:55:13.823 : en:Chapter 20 
02:00:12.496 : en:Chapter 21 
02:00:17.043 : en:Chapter 22 
02:14:15.338 : en:Chapter 23 
02:21:29.105 : en:Chapter 24 
02:28:28.024 : en:Chapter 25 
02:30:30.646 : en:Chapter 26 
02:37:06.917 : en:Chapter 27 
02:41:37.854 : en:Chapter 28 
02:41:40.649 : en:Chapter 29 
03:01:47.980 : en:Chapter 30 
03:08:41.518 : en:Chapter 31 
03:11:26.183 : en:Chapter 32

Screencaps

Download

File: Swades (2004) 10th Anniv (1080p BluRay x265 Natty).mkv (6.5 GB)

Download: Google Drive

2 thoughts on “Swades (2004) 10th Anniv (1080p BluRay x265 HEVC 10bit AAC 5.1 Hindi Natty)

Leave a Reply

Your email address will not be published. Required fields are marked *