Star Wars: Episode VII – The Force Awakens (2015) (1080p Bluray x265 HEVC 10bit AAC 7.1 Tigole)

Info

Plot: Three decades after the Empire’s defeat, a new threat arises in the militant First Order. Stormtrooper defector Finn and the scavenger Rey are caught up in the Resistance’s search for the missing Luke Skywalker.

IMDb: 8.0/10

Encode

Star Wars: The Force Awakens 2015 in 1080p, encoded with x265 in HEVC and AAC 7.1 English, with subtitles!
Encoded using the time consuming 2 pass, 10 bit color at 2500 kbps, from a Blu-ray source, for the highest quality possible.

Source:

Unique ID : 171645607343142905111581408694885202932 (0x8121BDD2F98969D39177584025F0BBF4) 
Complete name : The_Force_Awakens_-_BLU-RAY_t01_apekat.mkv 
File size : 32.4 GiB 
Duration : 2h 18mn 
Overall bit rate mode : Variable 
Overall bit rate : 33.6 Mbps

Mediainfo

General 
Format : Matroska 
Format version : Version 4 / Version 2 
File size : 2.80 GiB 
Duration : 2h 18mn 
Overall bit rate : 2 905 Kbps 
Movie name : The Force Awakens 
Encoded date : UTC 2016-08-03 00:41:38 
Writing application : mkvmerge v9.3.1 ('Mask Machine') 64bit 
Writing library : libebml v1.3.4 + libmatroska v1.4.5 

Video 
ID : 1 
Format : HEVC 
Format/Info : High Efficiency Video Coding 
Format profile : Main [email protected]@Main 
Codec ID : V_MPEGH/ISO/HEVC 
Duration : 2h 18mn 
Bit rate : 2 477 Kbps 
Width : 1 920 pixels 
Height : 800 pixels 
Display aspect ratio : 2.40:1 
Frame rate mode : Constant 
Frame rate : 23.976 (24000/1001) fps 
Color space : YUV 
Chroma subsampling : 4:2:0 
Bit depth : 10 bits 
Bits/(Pixel*Frame) : 0.067 
Stream size : 2.39 GiB (85%) 
Writing library : x265 1.9+200-6098ba3e0cf16b11:[Windows][GCC 5.3.0][64 bit] 10bit 
Encoding settings : wpp / ctu=64 / min-cu-size=8 / max-tu-size=32 / tu-intra-depth=1 / tu-inter-depth=1 / me=1 / subme=2 / merange=57 / no-rect / no-amp / max-merge=2 / temporal-mvp / no-early-skip / recursion-skip / rdpenalty=0 / no-tskip / no-tskip-fast / strong-intra-smoothing / no-lossless / no-cu-lossless / no-constrained-intra / no-fast-intra / open-gop / no-temporal-layers / interlace=0 / keyint=250 / min-keyint=23 / scenecut=40 / rc-lookahead=20 / lookahead-slices=5 / bframes=4 / bframe-bias=0 / b-adapt=2 / ref=3 / limit-refs=3 / no-limit-modes / weightp / no-weightb / aq-mode=1 / qg-size=32 / aq-strength=1.00 / cbqpoffs=0 / crqpoffs=0 / rd=3 / psy-rd=2.00 / rdoq-level=0 / psy-rdoq=0.00 / no-rd-refine / signhide / deblock=0:0 / sao / no-sao-non-deblock / b-pyramid / cutree / no-intra-refresh / rc=2 / pass / bitrate=2476 / qcomp=0.60 / qpmin=0 / qpmax=51 / qpstep=4 / cplxblur=20.0 / qblur=0.5 / ipratio=1.40 / pbratio=1.30 
Default : Yes 
Forced : No 

Audio 
ID : 2 
Format : AAC 
Format/Info : Advanced Audio Codec 
Format profile : LC 
Codec ID : A_AAC 
Duration : 2h 18mn 
Bit rate : 413 Kbps 
Channel(s) : 8 channels 
Channel positions : Front: L C R, Side: L R, Back: L R, LFE 
Sampling rate : 48.0 KHz 
Frame rate : 46.875 fps (1024 spf) 
Compression mode : Lossy 
Delay relative to video : 20ms 
Stream size : 408 MiB (14%) 
Language : English 
Default : Yes 
Forced : No 

Text #1 
ID : 3 
Format : VobSub 
Muxing mode : zlib 
Codec ID : S_VOBSUB 
Codec ID/Info : Picture based subtitle format used on DVDs 
Duration : 2h 6mn 
Bit rate : 5 984 bps 
Count of elements : 1778 
Stream size : 5.43 MiB (0%) 
Language : English 
Default : No 
Forced : No 

Text #2 
ID : 4 
Format : VobSub 
Muxing mode : zlib 
Codec ID : S_VOBSUB 
Codec ID/Info : Picture based subtitle format used on DVDs 
Duration : 2h 3mn 
Bit rate : 4 471 bps 
Count of elements : 1290 
Stream size : 3.94 MiB (0%) 
Language : German 
Default : No 
Forced : No 

Text #3 
ID : 5 
Format : VobSub 
Muxing mode : zlib 
Codec ID : S_VOBSUB 
Codec ID/Info : Picture based subtitle format used on DVDs 
Duration : 13mn 57s 
Bit rate : 223 bps 
Count of elements : 7 
Stream size : 22.8 KiB (0%) 
Title : Forced 
Language : German 
Default : No 
Forced : No 

Text #4 
ID : 6 
Format : VobSub 
Muxing mode : zlib 
Codec ID : S_VOBSUB 
Codec ID/Info : Picture based subtitle format used on DVDs 
Duration : 2h 3mn 
Bit rate : 3 866 bps 
Count of elements : 1303 
Stream size : 3.41 MiB (0%) 
Language : Polish 
Default : No 
Forced : No 

Menu 
00:00:00.000 : en:Chapter 01 
00:00:09.259 : en:Chapter 02 
00:01:43.061 : en:Chapter 03 
00:03:51.856 : en:Chapter 04 
00:06:12.288 : en:Chapter 05 
00:09:33.948 : en:Chapter 06 
00:10:43.559 : en:Chapter 07 
00:12:35.713 : en:Chapter 08 
00:13:39.693 : en:Chapter 09 
00:14:48.220 : en:Chapter 10 
00:16:45.921 : en:Chapter 11 
00:18:04.583 : en:Chapter 12 
00:19:21.535 : en:Chapter 13 
00:21:26.618 : en:Chapter 14 
00:24:03.650 : en:Chapter 15 
00:26:47.022 : en:Chapter 16 
00:29:54.667 : en:Chapter 17 
00:31:49.324 : en:Chapter 18 
00:35:51.774 : en:Chapter 19 
00:36:40.615 : en:Chapter 20 
00:37:45.513 : en:Chapter 21 
00:40:19.250 : en:Chapter 22 
00:43:39.199 : en:Chapter 23 
00:45:29.560 : en:Chapter 24 
00:49:22.918 : en:Chapter 25 
00:51:19.951 : en:Chapter 26 
00:54:13.750 : en:Chapter 27 
00:59:48.793 : en:Chapter 28 
01:04:16.060 : en:Chapter 29 
01:08:37.238 : en:Chapter 30 
01:11:07.221 : en:Chapter 31 
01:15:16.386 : en:Chapter 32 
01:16:49.896 : en:Chapter 33 
01:19:37.522 : en:Chapter 34 
01:20:56.893 : en:Chapter 35 
01:25:36.172 : en:Chapter 36 
01:32:12.568 : en:Chapter 37 
01:35:29.014 : en:Chapter 38 
01:36:34.955 : en:Chapter 39 
01:39:28.629 : en:Chapter 40 
01:41:29.958 : en:Chapter 41 
01:42:57.504 : en:Chapter 42 
01:45:00.002 : en:Chapter 43 
01:50:33.710 : en:Chapter 44 
01:53:39.771 : en:Chapter 45 
01:55:22.165 : en:Chapter 46 
01:58:05.453 : en:Chapter 47 
02:01:05.591 : en:Chapter 48 
02:02:32.678 : en:Chapter 49 
02:07:07.578 : en:Chapter 50

Screencaps

Download

File: Star Wars – The Force Awakens 2015 (1080p x265 10bit Tigole).mkv (2.80 GB)

Download: Google Drive

1 thought on “Star Wars: Episode VII – The Force Awakens (2015) (1080p Bluray x265 HEVC 10bit AAC 7.1 Tigole)

Leave a Reply

Your email address will not be published. Required fields are marked *