Star Wars: Episode VI – Return of the Jedi (1983) PROPER (1080p Bluray x265 HEVC 10bit AAC 6.1 Tigole)

Info

Plot: After a daring mission to rescue Han Solo from Jabba the Hutt, the rebels dispatch to Endor to destroy a more powerful Death Star. Meanwhile, Luke struggles to help Vader back from the dark side without falling into the Emperor’s trap.

IMDb: 8.3/10

Encode

Star Wars: Episode VI: Return of the Jedi 1983 in 1080p, encoded with x265 in HEVC and AAC 6.1 English, with English and German subtitles!
Encoded using the time consuming 2 pass, 10 bit color at 2500 kbps, from a Blu-ray source, for the highest quality possible.

Source:

Unique ID : 137778557881218147674751559749908895234 (0x67A72F5E3E5ACE63DD0227D09DF51602) 
Complete name : title00_apekat.mkv 
File size : 39.7 GiB 
Duration : 2h 14mn 
Overall bit rate mode : Variable 
Overall bit rate : 42.1 Mbps

Mediainfo

General 
Format : Matroska 
Format version : Version 4 / Version 2 
File size : 2.80 GiB 
Duration : 2h 14mn 
Overall bit rate : 2 975 Kbps 
Encoded date : UTC 2016-09-03 01:02:30 
Writing application : mkvmerge v9.4.0 ('Knurl') 64bit 
Writing library : libebml v1.3.4 + libmatroska v1.4.5 

Video 
ID : 1 
Format : HEVC 
Format/Info : High Efficiency Video Coding 
Format profile : Main [email protected]@Main 
Codec ID : V_MPEGH/ISO/HEVC 
Duration : 2h 14mn 
Bit rate : 2 440 Kbps 
Width : 1 920 pixels 
Height : 816 pixels 
Display aspect ratio : 2.35:1 
Frame rate mode : Constant 
Frame rate : 23.976 (24000/1001) fps 
Original frame rate : 24.242 fps 
Color space : YUV 
Chroma subsampling : 4:2:0 
Bit depth : 10 bits 
Bits/(Pixel*Frame) : 0.065 
Stream size : 2.30 GiB (82%) 
Writing library : x265 1.9+200-6098ba3e0cf16b11:[Windows][GCC 5.3.0][64 bit] 10bit 
Encoding settings : wpp / ctu=64 / min-cu-size=8 / max-tu-size=32 / tu-intra-depth=1 / tu-inter-depth=1 / me=1 / subme=2 / merange=57 / no-rect / no-amp / max-merge=2 / temporal-mvp / no-early-skip / recursion-skip / rdpenalty=0 / no-tskip / no-tskip-fast / strong-intra-smoothing / no-lossless / no-cu-lossless / no-constrained-intra / no-fast-intra / open-gop / no-temporal-layers / interlace=0 / keyint=250 / min-keyint=24 / scenecut=40 / rc-lookahead=20 / lookahead-slices=5 / bframes=4 / bframe-bias=0 / b-adapt=2 / ref=3 / limit-refs=3 / no-limit-modes / weightp / no-weightb / aq-mode=1 / qg-size=32 / aq-strength=1.00 / cbqpoffs=0 / crqpoffs=0 / rd=3 / psy-rd=2.00 / rdoq-level=0 / psy-rdoq=0.00 / no-rd-refine / signhide / deblock=0:0 / sao / no-sao-non-deblock / b-pyramid / cutree / no-intra-refresh / rc=2 / pass / bitrate=2467 / qcomp=0.60 / qpmin=0 / qpmax=51 / qpstep=4 / cplxblur=20.0 / qblur=0.5 / ipratio=1.40 / pbratio=1.30 
Default : Yes 
Forced : No 

Audio #1 
ID : 2 
Format : AAC 
Format/Info : Advanced Audio Codec 
Format profile : LC 
Codec ID : A_AAC 
Duration : 2h 14mn 
Bit rate : 394 Kbps 
Channel(s) : 7 channels 
Channel positions : Front: L C R, Side: L C R, LFE 
Sampling rate : 48.0 KHz 
Frame rate : 46.875 fps (1024 spf) 
Compression mode : Lossy 
Delay relative to video : 20ms 
Stream size : 380 MiB (13%) 
Language : English 
Default : Yes 
Forced : No 

Audio #2 
ID : 3 
Format : AAC 
Format/Info : Advanced Audio Codec 
Format profile : HE-AAC / LC 
Codec ID : A_AAC 
Duration : 2h 14mn 
Bit rate : 52.0 Kbps 
Channel(s) : 2 channels 
Channel positions : Front: L R 
Sampling rate : 48.0 KHz / 24.0 KHz 
Frame rate : 23.438 fps (1024 spf) 
Compression mode : Lossy 
Delay relative to video : 31ms 
Stream size : 50.1 MiB (2%) 
Title : Commentary 
Language : English 
Default : No 
Forced : No 

Audio #3 
ID : 4 
Format : AAC 
Format/Info : Advanced Audio Codec 
Format profile : LC 
Codec ID : A_AAC 
Duration : 2h 14mn 
Bit rate : 76.5 Kbps 
Channel(s) : 2 channels 
Channel positions : Front: L R 
Sampling rate : 48.0 KHz 
Frame rate : 46.875 fps (1024 spf) 
Compression mode : Lossy 
Delay relative to video : 9ms 
Stream size : 73.8 MiB (3%) 
Title : Archival Interviews 
Language : English 
Default : No 
Forced : No 

Text #1 
ID : 5 
Format : VobSub 
Muxing mode : zlib 
Codec ID : S_VOBSUB 
Codec ID/Info : Picture based subtitle format used on DVDs 
Duration : 2h 12mn 
Bit rate : 4 442 bps 
Count of elements : 1516 
Stream size : 4.20 MiB (0%) 
Language : English 
Default : No 
Forced : No 

Text #2 
ID : 6 
Format : VobSub 
Muxing mode : zlib 
Codec ID : S_VOBSUB 
Codec ID/Info : Picture based subtitle format used on DVDs 
Duration : 2h 4mn 
Bit rate : 63 bps 
Count of elements : 27 
Stream size : 58.4 KiB (0%) 
Language : English 
Default : No 
Forced : Yes 

Text #3 
ID : 7 
Format : VobSub 
Muxing mode : zlib 
Codec ID : S_VOBSUB 
Codec ID/Info : Picture based subtitle format used on DVDs 
Duration : 2h 12mn 
Bit rate : 4 322 bps 
Count of elements : 1009 
Stream size : 4.09 MiB (0%) 
Language : German 
Default : No 
Forced : No 

Text #4 
ID : 8 
Format : VobSub 
Muxing mode : zlib 
Codec ID : S_VOBSUB 
Codec ID/Info : Picture based subtitle format used on DVDs 
Duration : 2h 4mn 
Bit rate : 121 bps 
Count of elements : 28 
Stream size : 111 KiB (0%) 
Title : Forced 
Language : German 
Default : No 
Forced : No 

Menu 
00:00:00.000 : en:Chapter 01 
00:10:00.308 : en:Chapter 02 
00:19:59.907 : en:Chapter 03 
00:30:00.423 : en:Chapter 04 
00:40:00.189 : en:Chapter 05 
00:49:59.871 : en:Chapter 06 
00:59:59.679 : en:Chapter 07 
01:10:00.446 : en:Chapter 08 
01:20:00.128 : en:Chapter 09 
01:30:00.186 : en:Chapter 10 
01:40:00.077 : en:Chapter 11 
01:50:00.468 : en:Chapter 12 
01:59:59.609 : en:Chapter 13 
02:09:59.625 : en:Chapter 14

Screencaps

Download

File: Star Wars – Episode VI – Return of the Jedi 1983 (1080p x265 10bit Tigole).mkv (2.80 GB)

Download: Google Drive

1 thought on “Star Wars: Episode VI – Return of the Jedi (1983) PROPER (1080p Bluray x265 HEVC 10bit AAC 6.1 Tigole)

Leave a Reply

Your email address will not be published. Required fields are marked *