Star Wars: Episode IV – A New Hope (1977) PROPER (1080p Bluray x265 HEVC 10bit AAC 6.1 Tigole)

Info

Plot: Luke Skywalker joins forces with a Jedi Knight, a cocky pilot, a Wookiee and two droids to save the galaxy from the Empire’s world-destroying battle station, while also attempting to rescue Princess Leia from the evil Darth Vader.

IMDb: 8.6/10

Encode

Star Wars: Episode IV: A New Hope 1977 in 1080p, encoded with x265 in HEVC and AAC 6.1 English, with English and German subtitles!
Encoded using the time consuming 2 pass, 10 bit color at 2500 kbps, from a Blu-ray source, for the highest quality possible.

Source:

Unique ID : 220387143264692827216391840532708826772 (0xA5CD05155B947AEFB42F078D0FF59E94) 
Complete name : title00_apekat.mkv 
File size : 38.5 GiB 
Duration : 2h 4mn 
Overall bit rate mode : Variable 
Overall bit rate : 44.2 Mbps

Mediainfo

General 
Format : Matroska 
Format version : Version 4 / Version 2 
File size : 2.63 GiB 
Duration : 2h 4mn 
Overall bit rate : 3 015 Kbps 
Encoded date : UTC 2016-09-03 00:07:51 
Writing application : mkvmerge v9.4.0 ('Knurl') 64bit 
Writing library : libebml v1.3.4 + libmatroska v1.4.5 

Video 
ID : 1 
Format : HEVC 
Format/Info : High Efficiency Video Coding 
Format profile : Main [email protected]@Main 
Codec ID : V_MPEGH/ISO/HEVC 
Duration : 2h 4mn 
Bit rate : 2 473 Kbps 
Width : 1 920 pixels 
Height : 816 pixels 
Display aspect ratio : 2.35:1 
Frame rate mode : Constant 
Frame rate : 23.976 (24000/1001) fps 
Color space : YUV 
Chroma subsampling : 4:2:0 
Bit depth : 10 bits 
Bits/(Pixel*Frame) : 0.066 
Stream size : 2.15 GiB (82%) 
Writing library : x265 1.9+200-6098ba3e0cf16b11:[Windows][GCC 5.3.0][64 bit] 10bit 
Encoding settings : wpp / ctu=64 / min-cu-size=8 / max-tu-size=32 / tu-intra-depth=1 / tu-inter-depth=1 / me=1 / subme=2 / merange=57 / no-rect / no-amp / max-merge=2 / temporal-mvp / no-early-skip / recursion-skip / rdpenalty=0 / no-tskip / no-tskip-fast / strong-intra-smoothing / no-lossless / no-cu-lossless / no-constrained-intra / no-fast-intra / open-gop / no-temporal-layers / interlace=0 / keyint=250 / min-keyint=23 / scenecut=40 / rc-lookahead=20 / lookahead-slices=5 / bframes=4 / bframe-bias=0 / b-adapt=2 / ref=3 / limit-refs=3 / no-limit-modes / weightp / no-weightb / aq-mode=1 / qg-size=32 / aq-strength=1.00 / cbqpoffs=0 / crqpoffs=0 / rd=3 / psy-rd=2.00 / rdoq-level=0 / psy-rdoq=0.00 / no-rd-refine / signhide / deblock=0:0 / sao / no-sao-non-deblock / b-pyramid / cutree / no-intra-refresh / rc=2 / pass / bitrate=2472 / qcomp=0.60 / qpmin=0 / qpmax=51 / qpstep=4 / cplxblur=20.0 / qblur=0.5 / ipratio=1.40 / pbratio=1.30 
Default : Yes 
Forced : No 

Audio #1 
ID : 2 
Format : AAC 
Format/Info : Advanced Audio Codec 
Format profile : LC 
Codec ID : A_AAC 
Duration : 2h 4mn 
Bit rate : 394 Kbps 
Channel(s) : 7 channels 
Channel positions : Front: L C R, Side: L C R, LFE 
Sampling rate : 48.0 KHz 
Frame rate : 46.875 fps (1024 spf) 
Compression mode : Lossy 
Delay relative to video : 20ms 
Stream size : 351 MiB (13%) 
Language : English 
Default : Yes 
Forced : No 

Audio #2 
ID : 3 
Format : AAC 
Format/Info : Advanced Audio Codec 
Format profile : LC 
Codec ID : A_AAC 
Duration : 2h 4mn 
Bit rate : 79.5 Kbps 
Channel(s) : 2 channels 
Channel positions : Front: L R 
Sampling rate : 48.0 KHz 
Frame rate : 46.875 fps (1024 spf) 
Compression mode : Lossy 
Delay relative to video : 9ms 
Stream size : 70.9 MiB (3%) 
Title : Commentary 
Language : English 
Default : No 
Forced : No 

Audio #3 
ID : 4 
Format : AAC 
Format/Info : Advanced Audio Codec 
Format profile : HE-AAC / LC 
Codec ID : A_AAC 
Duration : 2h 4mn 
Bit rate : 51.8 Kbps 
Channel(s) : 2 channels 
Channel positions : Front: L R 
Sampling rate : 48.0 KHz / 24.0 KHz 
Frame rate : 23.438 fps (1024 spf) 
Compression mode : Lossy 
Delay relative to video : 31ms 
Stream size : 46.2 MiB (2%) 
Title : Achival Interviews 
Language : English 
Default : No 
Forced : No 

Text #1 
ID : 5 
Format : VobSub 
Muxing mode : zlib 
Codec ID : S_VOBSUB 
Codec ID/Info : Picture based subtitle format used on DVDs 
Duration : 2h 2mn 
Bit rate : 6 958 bps 
Count of elements : 1725 
Stream size : 6.08 MiB (0%) 
Language : English 
Default : No 
Forced : No 

Text #2 
ID : 6 
Format : VobSub 
Muxing mode : zlib 
Codec ID : S_VOBSUB 
Codec ID/Info : Picture based subtitle format used on DVDs 
Duration : 1h 14mn 
Bit rate : 142 bps 
Count of elements : 29 
Stream size : 78.0 KiB (0%) 
Language : English 
Default : No 
Forced : Yes 

Text #3 
ID : 7 
Format : VobSub 
Muxing mode : zlib 
Codec ID : S_VOBSUB 
Codec ID/Info : Picture based subtitle format used on DVDs 
Duration : 2h 1mn 
Bit rate : 7 198 bps 
Count of elements : 1304 
Stream size : 6.28 MiB (0%) 
Language : German 
Default : No 
Forced : No 

Text #4 
ID : 8 
Format : VobSub 
Muxing mode : zlib 
Codec ID : S_VOBSUB 
Codec ID/Info : Picture based subtitle format used on DVDs 
Duration : 1h 14mn 
Bit rate : 245 bps 
Count of elements : 31 
Stream size : 135 KiB (0%) 
Title : Forced 
Language : German 
Default : No 
Forced : No 

Menu 
00:00:00.000 : en:Chapter 01 
00:09:59.765 : en:Chapter 02 
00:20:00.532 : en:Chapter 03 
00:30:00.048 : en:Chapter 04 
00:39:59.814 : en:Chapter 05 
00:50:00.080 : en:Chapter 06 
00:59:59.721 : en:Chapter 07 
01:10:00.196 : en:Chapter 08 
01:20:00.045 : en:Chapter 09 
01:30:00.228 : en:Chapter 10 
01:40:00.119 : en:Chapter 11 
01:49:59.718 : en:Chapter 12 
02:00:00.359 : en:Chapter 13

Screencaps

Download

File: Star Wars – Episode IV – A New Hope 1977 (1080p x265 10bit Tigole).mkv (2.63 GB)

Download: Google Drive

Leave a Reply

Your email address will not be published. Required fields are marked *