Star Wars: Episode II – Attack of the Clones (2002) PROPER (1080p Bluray x265 HEVC 10bit AAC 6.1 Tigole)

Info

Plot: Ten years after initially meeting, Anakin Skywalker shares a forbidden romance with Padmé Amidala, while Obi-Wan investigates an assassination attempt on the senator and discovers a secret clone army crafted for the Jedi.

IMDb: 6.6/10

Encode

Star Wars: Episode II: Attack of the Clones 2002 in 1080p, encoded with x265 in HEVC and AAC 6.1 English, with English and German subtitles!
Encoded using the time consuming 2 pass, 10 bit color at 2500 kbps, from a Blu-ray source, for the highest quality possible.

Source:

Unique ID : 320316087490816516781084469370230790275 (0xF0FAA26BC1FACFD3696E76553D95D883) 
Complete name : title00_apekat.mkv 
File size : 40.1 GiB 
Duration : 2h 22mn 
Overall bit rate mode : Variable 
Overall bit rate : 40.3 Mbps

Mediainfo

General 
Format : Matroska 
Format version : Version 4 / Version 2 
File size : 2.91 GiB 
Duration : 2h 22mn 
Overall bit rate : 2 927 Kbps 
Encoded date : UTC 2016-09-02 21:51:20 
Writing application : mkvmerge v9.4.0 ('Knurl') 64bit 
Writing library : libebml v1.3.4 + libmatroska v1.4.5 

Video 
ID : 1 
Format : HEVC 
Format/Info : High Efficiency Video Coding 
Format profile : Main [email protected]@Main 
Codec ID : V_MPEGH/ISO/HEVC 
Duration : 2h 22mn 
Bit rate : 2 465 Kbps 
Width : 1 920 pixels 
Height : 816 pixels 
Display aspect ratio : 2.35:1 
Frame rate mode : Constant 
Frame rate : 23.976 (24000/1001) fps 
Color space : YUV 
Chroma subsampling : 4:2:0 
Bit depth : 10 bits 
Bits/(Pixel*Frame) : 0.066 
Stream size : 2.45 GiB (84%) 
Writing library : x265 1.9+200-6098ba3e0cf16b11:[Windows][GCC 5.3.0][64 bit] 10bit 
Encoding settings : wpp / ctu=64 / min-cu-size=8 / max-tu-size=32 / tu-intra-depth=1 / tu-inter-depth=1 / me=1 / subme=2 / merange=57 / no-rect / no-amp / max-merge=2 / temporal-mvp / no-early-skip / recursion-skip / rdpenalty=0 / no-tskip / no-tskip-fast / strong-intra-smoothing / no-lossless / no-cu-lossless / no-constrained-intra / no-fast-intra / open-gop / no-temporal-layers / interlace=0 / keyint=250 / min-keyint=23 / scenecut=40 / rc-lookahead=20 / lookahead-slices=5 / bframes=4 / bframe-bias=0 / b-adapt=2 / ref=3 / limit-refs=3 / no-limit-modes / weightp / no-weightb / aq-mode=1 / qg-size=32 / aq-strength=1.00 / cbqpoffs=0 / crqpoffs=0 / rd=3 / psy-rd=2.00 / rdoq-level=0 / psy-rdoq=0.00 / no-rd-refine / signhide / deblock=0:0 / sao / no-sao-non-deblock / b-pyramid / cutree / no-intra-refresh / rc=2 / pass / bitrate=2464 / qcomp=0.60 / qpmin=0 / qpmax=51 / qpstep=4 / cplxblur=20.0 / qblur=0.5 / ipratio=1.40 / pbratio=1.30 
Default : Yes 
Forced : No 

Audio #1 
ID : 2 
Format : AAC 
Format/Info : Advanced Audio Codec 
Format profile : LC 
Codec ID : A_AAC 
Duration : 2h 22mn 
Bit rate : 399 Kbps 
Channel(s) : 7 channels 
Channel positions : Front: L C R, Side: L C R, LFE 
Sampling rate : 48.0 KHz 
Frame rate : 46.875 fps (1024 spf) 
Compression mode : Lossy 
Delay relative to video : 20ms 
Stream size : 406 MiB (14%) 
Language : English 
Default : Yes 
Forced : No 

Audio #2 
ID : 3 
Format : AAC 
Format/Info : Advanced Audio Codec 
Format profile : HE-AAC / LC 
Codec ID : A_AAC 
Duration : 2h 22mn 
Bit rate : 50.6 Kbps 
Channel(s) : 2 channels 
Channel positions : Front: L R 
Sampling rate : 48.0 KHz / 24.0 KHz 
Frame rate : 23.438 fps (1024 spf) 
Compression mode : Lossy 
Delay relative to video : 31ms 
Stream size : 51.5 MiB (2%) 
Title : Commentary 
Language : English 
Default : No 
Forced : No 

Text #1 
ID : 4 
Format : VobSub 
Muxing mode : zlib 
Codec ID : S_VOBSUB 
Codec ID/Info : Picture based subtitle format used on DVDs 
Duration : 2h 20mn 
Bit rate : 5 022 bps 
Count of elements : 1328 
Stream size : 5.04 MiB (0%) 
Language : English 
Default : No 
Forced : No 

Text #2 
ID : 5 
Format : VobSub 
Muxing mode : zlib 
Codec ID : S_VOBSUB 
Codec ID/Info : Picture based subtitle format used on DVDs 
Duration : 2h 17mn 
Bit rate : 45 bps 
Count of elements : 17 
Stream size : 45.4 KiB (0%) 
Language : English 
Default : No 
Forced : Yes 

Text #3 
ID : 6 
Format : VobSub 
Muxing mode : zlib 
Codec ID : S_VOBSUB 
Codec ID/Info : Picture based subtitle format used on DVDs 
Duration : 2h 20mn 
Bit rate : 5 127 bps 
Count of elements : 1174 
Stream size : 5.14 MiB (0%) 
Language : German 
Default : No 
Forced : No 

Text #4 
ID : 7 
Format : VobSub 
Muxing mode : zlib 
Codec ID : S_VOBSUB 
Codec ID/Info : Picture based subtitle format used on DVDs 
Duration : 2h 17mn 
Bit rate : 73 bps 
Count of elements : 17 
Stream size : 73.6 KiB (0%) 
Title : Forced 
Language : German 
Default : No 
Forced : No 

Menu 
00:00:00.000 : en:Chapter 01 
00:10:00.016 : en:Chapter 02 
00:19:59.740 : en:Chapter 03 
00:30:00.298 : en:Chapter 04 
00:39:59.855 : en:Chapter 05 
00:50:00.038 : en:Chapter 06 
01:00:00.138 : en:Chapter 07 
01:10:00.362 : en:Chapter 08 
01:19:59.836 : en:Chapter 09 
01:30:00.520 : en:Chapter 10 
01:39:59.994 : en:Chapter 11 
01:49:59.884 : en:Chapter 12 
02:00:00.318 : en:Chapter 13 
02:10:00.125 : en:Chapter 14 
02:20:00.266 : en:Chapter 15

Screencaps

Download

File: Star Wars – Episode II – Attack of the Clones 2002 (1080p x265 10bit Tigole).mkv (2.91 GB)

Download: Google Drive

Leave a Reply

Your email address will not be published. Required fields are marked *