Spider-Man 2 2004 Extended (1080p Bluray x265 HEVC 10bit AAC 5.1 Tigole)

Info

Plot: Peter Parker is beset with troubles in his failing personal life as he battles a brilliant scientist named Doctor Otto Octavius.


Mediainfo

General
Unique ID                                : 192027125105625258113865731680276943731 (0x9077143BCE13FAEBAE1073A813199373)
Complete name                            : Spider-Man 2 2004 Extended (1080p x265 10bit Tigole).mkv
Format                                   : Matroska
Format version                           : Version 4 / Version 2
File size                                : 2.72 GiB
Duration                                 : 2 h 15 min
Overall bit rate                         : 2 872 kb/s
Encoded date                             : UTC 2016-06-06 07:55:16
Writing application                      : mkvmerge v9.1.0 ('Little Earthquakes') 64bit
Writing library                          : libebml v1.3.3 + libmatroska v1.4.4

Video
ID                                       : 1
Format                                   : HEVC
Format/Info                              : High Efficiency Video Coding
Format profile                           : Main [email protected]@Main
Codec ID                                 : V_MPEGH/ISO/HEVC
Duration                                 : 2 h 15 min
Bit rate                                 : 2 483 kb/s
Width                                    : 1 920 pixels
Height                                   : 800 pixels
Display aspect ratio                     : 2.40:1
Frame rate mode                          : Constant
Frame rate                               : 23.976 (24000/1001) FPS
Color space                              : YUV
Chroma subsampling                       : 4:2:0
Bit depth                                : 10 bits
Bits/(Pixel*Frame)                       : 0.067
Stream size                              : 2.36 GiB (86%)
Writing library                          : x265 1.9+140-34a3d35c5f97:[Windows][GCC 5.3.0][64 bit] 10bit
Encoding settings                        : wpp / ctu=64 / min-cu-size=8 / max-tu-size=32 / tu-intra-depth=1 / tu-inter-depth=1 / me=1 / subme=2 / merange=57 / no-rect / no-amp / max-merge=2 / temporal-mvp / no-early-skip / rdpenalty=0 / no-tskip / no-tskip-fast / strong-intra-smoothing / no-lossless / no-cu-lossless / no-constrained-intra / no-fast-intra / open-gop / no-temporal-layers / interlace=0 / keyint=250 / min-keyint=23 / scenecut=40 / rc-lookahead=20 / lookahead-slices=5 / bframes=4 / bframe-bias=0 / b-adapt=2 / ref=3 / limit-refs=3 / no-limit-modes / weightp / no-weightb / aq-mode=1 / qg-size=32 / aq-strength=1.00 / cbqpoffs=0 / crqpoffs=0 / rd=3 / psy-rd=2.00 / rdoq-level=0 / psy-rdoq=0.00 / no-rd-refine / signhide / deblock=0:0 / sao / no-sao-non-deblock / b-pyramid / cutree / no-intra-refresh / rc=2 / pass / bitrate=2483 / qcomp=0.60 / qpmin=0 / qpmax=51 / qpstep=4 / cplxblur=20.0 / qblur=0.5 / ipratio=1.40 / pbratio=1.30
Default                                  : Yes
Forced                                   : No

Audio
ID                                       : 2
Format                                   : AAC
Format/Info                              : Advanced Audio Codec
Format profile                           : LC
Codec ID                                 : A_AAC
Duration                                 : 2 h 15 min
Bit rate                                 : 336 kb/s
Channel(s)                               : 6 channels
Channel positions                        : Front: L C R, Side: L R, LFE
Sampling rate                            : 48.0 kHz
Frame rate                               : 46.875 FPS (1024 spf)
Compression mode                         : Lossy
Delay relative to video                  : 20 ms
Stream size                              : 326 MiB (12%)
Language                                 : English
Default                                  : No
Forced                                   : No

Text #1
ID                                       : 3
Format                                   : VobSub
Muxing mode                              : zlib
Codec ID                                 : S_VOBSUB
Codec ID/Info                            : Picture based subtitle format used on DVDs
Duration                                 : 2 h 7 min
Bit rate                                 : 4 042 b/s
Count of elements                        : 1198
Stream size                              : 3.67 MiB (0%)
Language                                 : English
Default                                  : No
Forced                                   : No

Text #2
ID                                       : 4
Format                                   : VobSub
Muxing mode                              : zlib
Codec ID                                 : S_VOBSUB
Codec ID/Info                            : Picture based subtitle format used on DVDs
Duration                                 : 2 h 14 min
Bit rate                                 : 3 409 b/s
Count of elements                        : 1473
Stream size                              : 3.28 MiB (0%)
Language                                 : English
Default                                  : No
Forced                                   : No

Text #3
ID                                       : 5
Format                                   : VobSub
Muxing mode                              : zlib
Codec ID                                 : S_VOBSUB
Codec ID/Info                            : Picture based subtitle format used on DVDs
Duration                                 : 2 h 7 min
Bit rate                                 : 2 940 b/s
Count of elements                        : 1219
Stream size                              : 2.67 MiB (0%)
Language                                 : Arabic
Default                                  : No
Forced                                   : No

Text #4
ID                                       : 6
Format                                   : VobSub
Muxing mode                              : zlib
Codec ID                                 : S_VOBSUB
Codec ID/Info                            : Picture based subtitle format used on DVDs
Duration                                 : 2 h 9 min
Bit rate                                 : 3 737 b/s
Count of elements                        : 1221
Stream size                              : 3.45 MiB (0%)
Language                                 : Bulgarian
Default                                  : No
Forced                                   : No

Text #5
ID                                       : 7
Format                                   : VobSub
Muxing mode                              : zlib
Codec ID                                 : S_VOBSUB
Codec ID/Info                            : Picture based subtitle format used on DVDs
Duration                                 : 2 h 7 min
Bit rate                                 : 3 745 b/s
Count of elements                        : 1206
Stream size                              : 3.40 MiB (0%)
Language                                 : Czech
Default                                  : No
Forced                                   : No

Text #6
ID                                       : 8
Format                                   : VobSub
Muxing mode                              : zlib
Codec ID                                 : S_VOBSUB
Codec ID/Info                            : Picture based subtitle format used on DVDs
Duration                                 : 1 h 27 min
Bit rate                                 : 93 b/s
Count of elements                        : 18
Stream size                              : 60.0 KiB (0%)
Language                                 : Czech
Default                                  : No
Forced                                   : No

Text #7
ID                                       : 9
Format                                   : VobSub
Muxing mode                              : zlib
Codec ID                                 : S_VOBSUB
Codec ID/Info                            : Picture based subtitle format used on DVDs
Duration                                 : 2 h 7 min
Bit rate                                 : 3 525 b/s
Count of elements                        : 1193
Stream size                              : 3.20 MiB (0%)
Language                                 : Croatian
Default                                  : No
Forced                                   : No

Text #8
ID                                       : 10
Format                                   : VobSub
Muxing mode                              : zlib
Codec ID                                 : S_VOBSUB
Codec ID/Info                            : Picture based subtitle format used on DVDs
Duration                                 : 2 h 7 min
Bit rate                                 : 4 181 b/s
Count of elements                        : 1204
Stream size                              : 3.80 MiB (0%)
Language                                 : Greek
Default                                  : No
Forced                                   : No

Text #9
ID                                       : 11
Format                                   : VobSub
Muxing mode                              : zlib
Codec ID                                 : S_VOBSUB
Codec ID/Info                            : Picture based subtitle format used on DVDs
Duration                                 : 2 h 7 min
Bit rate                                 : 3 824 b/s
Count of elements                        : 1219
Stream size                              : 3.48 MiB (0%)
Language                                 : Hebrew
Default                                  : No
Forced                                   : No

Text #10
ID                                       : 12
Format                                   : VobSub
Muxing mode                              : zlib
Codec ID                                 : S_VOBSUB
Codec ID/Info                            : Picture based subtitle format used on DVDs
Duration                                 : 2 h 7 min
Bit rate                                 : 4 240 b/s
Count of elements                        : 1219
Stream size                              : 3.85 MiB (0%)
Language                                 : Hindi
Default                                  : No
Forced                                   : No

Text #11
ID                                       : 13
Format                                   : VobSub
Muxing mode                              : zlib
Codec ID                                 : S_VOBSUB
Codec ID/Info                            : Picture based subtitle format used on DVDs
Duration                                 : 2 h 7 min
Bit rate                                 : 4 030 b/s
Count of elements                        : 1222
Stream size                              : 3.66 MiB (0%)
Language                                 : Icelandic
Default                                  : No
Forced                                   : No

Text #12
ID                                       : 14
Format                                   : VobSub
Muxing mode                              : zlib
Codec ID                                 : S_VOBSUB
Codec ID/Info                            : Picture based subtitle format used on DVDs
Duration                                 : 2 h 7 min
Bit rate                                 : 3 698 b/s
Count of elements                        : 1197
Stream size                              : 3.36 MiB (0%)
Language                                 : Romanian
Default                                  : No
Forced                                   : No

Text #13
ID                                       : 15
Format                                   : VobSub
Muxing mode                              : zlib
Codec ID                                 : S_VOBSUB
Codec ID/Info                            : Picture based subtitle format used on DVDs
Duration                                 : 2 h 12 min
Bit rate                                 : 3 667 b/s
Count of elements                        : 1184
Stream size                              : 3.48 MiB (0%)
Language                                 : Polish
Default                                  : No
Forced                                   : No

Text #14
ID                                       : 16
Format                                   : VobSub
Muxing mode                              : zlib
Codec ID                                 : S_VOBSUB
Codec ID/Info                            : Picture based subtitle format used on DVDs
Duration                                 : 1 h 27 min
Bit rate                                 : 55 b/s
Count of elements                        : 10
Stream size                              : 35.7 KiB (0%)
Language                                 : Polish
Default                                  : No
Forced                                   : No

Text #15
ID                                       : 17
Format                                   : VobSub
Muxing mode                              : zlib
Codec ID                                 : S_VOBSUB
Codec ID/Info                            : Picture based subtitle format used on DVDs
Duration                                 : 2 h 7 min
Bit rate                                 : 3 529 b/s
Count of elements                        : 1198
Stream size                              : 3.21 MiB (0%)
Language                                 : Slovenian
Default                                  : No
Forced                                   : No

Text #16
ID                                       : 18
Format                                   : VobSub
Muxing mode                              : zlib
Codec ID                                 : S_VOBSUB
Codec ID/Info                            : Picture based subtitle format used on DVDs
Duration                                 : 2 h 7 min
Bit rate                                 : 4 133 b/s
Count of elements                        : 1202
Stream size                              : 3.76 MiB (0%)
Language                                 : Turkish
Default                                  : No
Forced                                   : No

Menu
00:00:00.000                             : en:Chapter 01
00:03:27.207                             : en:Chapter 02
00:08:13.534                             : en:Chapter 03
00:09:41.455                             : en:Chapter 04
00:10:54.945                             : en:Chapter 05
00:16:10.844                             : en:Chapter 06
00:19:24.663                             : en:Chapter 07
00:21:19.736                             : en:Chapter 08
00:25:05.295                             : en:Chapter 09
00:25:43.542                             : en:Chapter 10
00:27:16.635                             : en:Chapter 11
00:29:17.589                             : en:Chapter 12
00:31:39.272                             : en:Chapter 13
00:32:46.923                             : en:Chapter 14
00:35:20.827                             : en:Chapter 15
00:37:26.744                             : en:Chapter 16
00:44:07.436                             : en:Chapter 17
00:46:11.143                             : en:Chapter 18
00:47:29.471                             : en:Chapter 19
00:49:00.854                             : en:Chapter 20
00:51:17.574                             : en:Chapter 21
00:54:21.633                             : en:Chapter 22
00:57:42.542                             : en:Chapter 23
01:02:43.968                             : en:Chapter 24
01:04:15.768                             : en:Chapter 25
01:06:08.255                             : en:Chapter 26
01:08:26.393                             : en:Chapter 27
01:10:49.870                             : en:Chapter 28
01:12:33.891                             : en:Chapter 29
01:15:23.435                             : en:Chapter 30
01:17:11.293                             : en:Chapter 31
01:21:21.501                             : en:Chapter 32
01:24:15.467                             : en:Chapter 33
01:26:49.537                             : en:Chapter 34
01:28:59.042                             : en:Chapter 35
01:32:49.021                             : en:Chapter 36
01:34:22.740                             : en:Chapter 37
01:35:44.405                             : en:Chapter 38
01:38:13.512                             : en:Chapter 39
01:40:40.200                             : en:Chapter 40
01:41:46.266                             : en:Chapter 41
01:42:44.158                             : en:Chapter 42
01:45:32.909                             : en:Chapter 43
01:48:16.448                             : en:Chapter 44
01:50:58.318                             : en:Chapter 45
01:53:12.660                             : en:Chapter 46
01:56:23.643                             : en:Chapter 47
02:01:27.655                             : en:Chapter 48
02:03:50.673                             : en:Chapter 49
02:06:17.695                             : en:Chapter 50
02:10:14.389                             : en:Chapter 51
02:11:03.480                             : en:Chapter 52

Download

File: Spider-Man 2 2004 Extended (1080p x265 10bit Tigole).mkv (2.72 GB)

Download: Google Drive

Leave a Reply

Your email address will not be published. Required fields are marked *