Scream 3 2000 (1080p Bluray x265 HEVC 10bit AAC 5.1 Tigole)

Info

Plot: While Sidney and her friends visit the Hollywood set of Stab 3, the third film based on the Woodsboro murders, a new Ghostface begins to terrorize them once again.

IMDb: 5.5/10

Encode

Scream 3 2000 in 1080p, encoded with x265 in HEVC and AAC 5.1 English, with English and German subtitles!
Encoded using the time consuming 2 pass, 10 bit color at 3500 kbps, from a Blu-ray source, for the highest quality possible.

Source:

Complete name : Scream_3_t02.mkv 
File size : 25.8 GiB 
Duration : 1 h 56 min 
Overall bit rate mode : Variable 
Overall bit rate : 31.7 Mb/s

Mediainfo

General 
Format : Matroska 
Format version : Version 4 / Version 2 
File size : 3.31 GiB 
Duration : 1 h 56 min 
Overall bit rate : 4 063 kb/s 
Movie name : Scream 3 
Encoded date : UTC 2017-10-23 00:00:40 
Writing application : mkvmerge v14.0.0 ('Flow') 64bit 
Writing library : libebml v1.3.4 + libmatroska v1.4.5 

Video 
ID : 1 
Format : HEVC 
Format/Info : High Efficiency Video Coding 
Format profile : Main [email protected]@Main 
Codec ID : V_MPEGH/ISO/HEVC 
Duration : 1 h 56 min 
Bit rate : 3 500 kb/s 
Width : 1 920 pixels 
Height : 812 pixels 
Display aspect ratio : 2.35:1 
Frame rate mode : Constant 
Frame rate : 23.976 (24000/1001) FPS 
Color space : YUV 
Chroma subsampling : 4:2:0 
Bit depth : 10 bits 
Bits/(Pixel*Frame) : 0.094 
Stream size : 2.85 GiB (86%) 
Writing library : x265 2.5+22-8db95a1da9f8:[Windows][GCC 7.1.0][64 bit] 10bit 
Encoding settings : cpuid=1173503 / frame-threads=3 / numa-pools=8 / wpp / no-pmode / no-pme / no-psnr / no-ssim / log-level=2 / input-csp=1 / input-res=1920x812 / interlace=0 / total-frames=167664 / level-idc=0 / high-tier=1 / uhd-bd=0 / ref=4 / no-allow-non-conformance / no-repeat-headers / annexb / no-aud / no-hrd / info / hash=0 / no-temporal-layers / open-gop / min-keyint=23 / keyint=250 / bframes=4 / b-adapt=2 / b-pyramid / bframe-bias=0 / rc-lookahead=25 / lookahead-slices=4 / scenecut=40 / no-intra-refresh / ctu=64 / min-cu-size=8 / rect / no-amp / max-tu-size=32 / tu-inter-depth=1 / tu-intra-depth=1 / limit-tu=0 / rdoq-level=2 / dynamic-rd=0.00 / no-ssim-rd / signhide / no-tskip / nr-intra=0 / nr-inter=0 / no-constrained-intra / strong-intra-smoothing / max-merge=3 / limit-refs=3 / limit-modes / me=3 / subme=3 / merange=57 / temporal-mvp / weightp / no-weightb / no-analyze-src-pics / deblock=0:0 / sao / no-sao-non-deblock / rd=4 / no-early-skip / rskip / no-fast-intra / no-tskip-fast / no-cu-lossless / no-b-intra / no-splitrd-skip / rdpenalty=0 / psy-rd=2.00 / psy-rdoq=1.00 / no-rd-refine / analysis-reuse-mode=0 / no-lossless / cbqpoffs=0 / crqpoffs=0 / rc=abr / bitrate=3500 / qcomp=0.60 / qpstep=4 / stats-write=0 / stats-read=2 / cplxblur=20.0 / qblur=0.5 / ipratio=1.40 / pbratio=1.30 / aq-mode=2 / aq-strength=1.00 / cutree / zone-count=0 / no-strict-cbr / qg-size=32 / no-rc-grain / qpmax=69 / qpmin=0 / no-const-vbv / sar=0 / overscan=0 / videoformat=5 / range=0 / colorprim=2 / transfer=2 / colormatrix=2 / chromaloc=0 / display-window=0 / max-cll=0,0 / min-luma=0 / max-luma=1023 / log2-max-poc-lsb=8 / vui-timing-info / vui-hrd-info / slices=1 / opt-qp-pps / opt-ref-list-length-pps / no-multi-pass-opt-rps / scenecut-bias=0.05 / no-opt-cu-delta-qp / no-aq-motion / no-hdr / no-hdr-opt / no-dhdr10-opt / analysis-reuse-level=5 / scale-factor=0 / refine-intra=0 / refine-inter=0 / refine-mv=0 / no-limit-sao / ctu-info=0 
Default : Yes 
Forced : No 

Audio #1 
ID : 2 
Format : AAC 
Format/Info : Advanced Audio Codec 
Format profile : LC 
Codec ID : A_AAC 
Duration : 1 h 56 min 
Bit rate : 490 kb/s 
Channel(s) : 6 channels 
Channel positions : Front: L C R, Side: L R, LFE 
Sampling rate : 48.0 kHz 
Frame rate : 46.875 FPS (1024 spf) 
Compression mode : Lossy 
Delay relative to video : 20 ms 
Stream size : 408 MiB (12%) 
Language : English 
Default : Yes 
Forced : No 

Audio #2 
ID : 3 
Format : AAC 
Format/Info : Advanced Audio Codec 
Format profile : HE-AAC / LC 
Codec ID : A_AAC 
Duration : 1 h 56 min 
Bit rate : 66.2 kb/s 
Channel(s) : 2 channels 
Channel positions : Front: L R 
Sampling rate : 48.0 kHz / 24.0 kHz 
Frame rate : 23.438 FPS (1024 spf) 
Compression mode : Lossy 
Delay relative to video : 40 ms 
Stream size : 54.8 MiB (2%) 
Title : Commentary 
Language : English 
Default : No 
Forced : No 

Text #1 
ID : 4 
Format : UTF-8 
Codec ID : S_TEXT/UTF8 
Codec ID/Info : UTF-8 Plain Text 
Duration : 1 h 56 min 
Bit rate : 67 b/s 
Count of elements : 1430 
Stream size : 57.5 KiB (0%) 
Language : English 
Default : No 
Forced : No 

Text #2 
ID : 5 
Format : VobSub 
Muxing mode : zlib 
Codec ID : S_VOBSUB 
Codec ID/Info : Picture based subtitle format used on DVDs 
Duration : 1 h 49 min 
Bit rate : 8 196 b/s 
Count of elements : 1112 
Stream size : 6.43 MiB (0%) 
Language : German 
Default : No 
Forced : No 

Text #3 
ID : 6 
Format : VobSub 
Muxing mode : zlib 
Codec ID : S_VOBSUB 
Codec ID/Info : Picture based subtitle format used on DVDs 
Duration : 1 h 37 min 
Bit rate : 88 b/s 
Count of elements : 10 
Stream size : 63.0 KiB (0%) 
Title : Forced 
Language : German 
Default : No 
Forced : No 

Menu 
00:00:00.000 : en:Chapter 01 
00:09:28.568 : en:Chapter 02 
00:13:19.757 : en:Chapter 03 
00:19:31.837 : en:Chapter 04 
00:22:33.810 : en:Chapter 05 
00:28:23.410 : en:Chapter 06 
00:33:06.567 : en:Chapter 07 
00:37:26.702 : en:Chapter 08 
00:41:46.253 : en:Chapter 09 
00:48:18.854 : en:Chapter 10 
00:52:12.629 : en:Chapter 11 
00:56:16.539 : en:Chapter 12 
00:59:45.707 : en:Chapter 13 
01:09:01.470 : en:Chapter 14 
01:11:57.730 : en:Chapter 15 
01:15:03.040 : en:Chapter 16 
01:27:15.146 : en:Chapter 17 
01:30:49.902 : en:Chapter 18 
01:35:01.070 : en:Chapter 19 
01:47:20.267 : en:Chapter 20

Screencaps

Download

File: Scream 3 2000 (1080p x265 10bit Tigole).mkv (3.3 GB)

Download: Google Drive

Leave a Reply

Your email address will not be published. Required fields are marked *