Satyagraha (2013) (1080p BluRay x265 HEVC 10bit AAC 5.1 Hindi Natty)

Info

Image result for Satyagraha (2013) wallpaper

Plot: Satyagraha is the story of a son who yearns for a father. Of a father, who grieves for his lost son. Of a young woman who fights so hard with life that she has forgotten to love. Of an ambitious rabble-rouser, for whom action is the knee-jerk mantra. It is the story of how these four discover one another, and come together to raise hell, shaking the powers that be to their very roots! But, Satyagraha is also the story of an influential power-hungry despot who will stop at nothing to destroy them.

Encode

Source:

Release: 
Satyagraha.2013.Complete.Bluray.AVC.DTS-HDMA.5.1-DTOne

Mediainfo

General 
Format : Matroska 
Format version : Version 4 
File size : 4.58 GiB 
Duration : 2 h 33 min 
Overall bit rate : 4 273 kb/s 
Movie name : Satyagraha (2013) 
Encoded date : UTC 2018-12-18 11:33:06 
Writing application : mkvmerge v29.0.0 ('Like It Or Not') 64-bit 
Writing library : libebml v1.3.6 + libmatroska v1.4.9 
Writing frontend : Natty 

Video 
ID : 1 
Format : HEVC 
Format/Info : High Efficiency Video Coding 
Format profile : Main [email protected]@Main 
Codec ID : V_MPEGH/ISO/HEVC 
Duration : 2 h 33 min 
Bit rate : 3 859 kb/s 
Width : 1 920 pixels 
Height : 804 pixels 
Display aspect ratio : 2.40:1 
Frame rate mode : Constant 
Frame rate : 23.976 (24000/1001) FPS 
Color space : YUV 
Chroma subsampling : 4:2:0 
Bit depth : 10 bits 
Bits/(Pixel*Frame) : 0.104 
Stream size : 4.14 GiB (90%) 
Writing library : x265 2.9+15-81373aab81df:[Windows][MSVC 1916][64 bit] 10bit 
Encoding settings : cpuid=1111039 / frame-threads=2 / numa-pools=4 / wpp / no-pmode / no-pme / no-psnr / no-ssim / log-level=2 / input-csp=1 / input-res=1920x804 / interlace=0 / total-frames=220834 / level-idc=0 / high-tier=1 / uhd-bd=0 / ref=5 / no-allow-non-conformance / no-repeat-headers / annexb / no-aud / no-hrd / info / hash=0 / no-temporal-layers / open-gop / min-keyint=23 / keyint=400 / gop-lookahead=0 / bframes=8 / b-adapt=2 / b-pyramid / bframe-bias=0 / rc-lookahead=80 / lookahead-slices=4 / scenecut=40 / radl=0 / no-splice / no-intra-refresh / ctu=32 / min-cu-size=8 / no-rect / no-amp / max-tu-size=16 / tu-inter-depth=1 / tu-intra-depth=1 / limit-tu=0 / rdoq-level=2 / dynamic-rd=0.00 / no-ssim-rd / signhide / no-tskip / nr-intra=0 / nr-inter=0 / no-constrained-intra / no-strong-intra-smoothing / max-merge=2 / limit-refs=3 / limit-modes / me=3 / subme=5 / merange=57 / temporal-mvp / weightp / weightb / no-analyze-src-pics / deblock=-3:0 / no-sao / no-sao-non-deblock / rd=4 / no-early-skip / rskip / no-fast-intra / no-tskip-fast / no-cu-lossless / b-intra / no-splitrd-skip / rdpenalty=0 / psy-rd=2.00 / psy-rdoq=1.00 / no-rd-refine / no-lossless / cbqpoffs=0 / crqpoffs=0 / rc=crf / crf=22.0 / qcomp=0.50 / qpstep=4 / stats-write=0 / stats-read=0 / ipratio=1.40 / pbratio=1.30 / aq-mode=3 / aq-strength=1.00 / cutree / zone-count=0 / no-strict-cbr / qg-size=32 / no-rc-grain / qpmax=69 / qpmin=0 / no-const-vbv / sar=0 / overscan=0 / videoformat=5 / range=0 / colorprim=1 / transfer=1 / colormatrix=1 / chromaloc=0 / display-window=0 / max-cll=0,0 / min-luma=0 / max-luma=1023 / log2-max-poc-lsb=8 / vui-timing-info / vui-hrd-info / slices=1 / no-opt-qp-pps / no-opt-ref-list-length-pps / no-multi-pass-opt-rps / scenecut-bias=0.05 / no-opt-cu-delta-qp / no-aq-motion / no-hdr / no-hdr-opt / no-dhdr10-opt / no-idr-recovery-sei / analysis-reuse-level=8 / scale-factor=0 / refine-intra=0 / refine-inter=0 / refine-mv=0 / no-limit-sao / ctu-info=0 / no-lowpass-dct / refine-mv-type=0 / copy-pic=1 / max-ausize-factor=1.0 / no-dynamic-refine / no-single-sei 
Default : Yes 
Forced : No 
Color range : Limited 
Color primaries : BT.709 
Transfer characteristics : BT.709 
Matrix coefficients : BT.709 

Audio 
ID : 2 
Format : AAC LC 
Format/Info : Advanced Audio Codec Low Complexity 
Codec ID : A_AAC-2 
Duration : 2 h 33 min 
Bit rate : 384 kb/s 
Channel(s) : 6 channels 
Channel layout : C L R Ls Rs LFE 
Sampling rate : 48.0 kHz 
Frame rate : 46.875 FPS (1024 SPF) 
Compression mode : Lossy 
Delay relative to video : 20 ms 
Stream size : 427 MiB (9%) 
Language : Hindi 
Default : No 
Forced : No 

Subtitle 
ID : 3 
Format : PGS 
Muxing mode : zlib 
Codec ID : S_HDMV/PGS 
Codec ID/Info : Picture based subtitle format used on BDs/HD-DVDs 
Duration : 2 h 26 min 
Bit rate : 37.1 kb/s 
Count of elements : 3391 
Stream size : 39.0 MiB (1%) 
Language : English 
Default : No 
Forced : No 

Menu 
00:00:00.000 : en:Chapter 01 
00:10:19.952 : en:Chapter 02 
00:14:41.046 : en:Chapter 03 
00:21:36.169 : en:Chapter 04 
00:31:30.847 : en:Chapter 05 
00:37:05.932 : en:Chapter 06 
00:46:25.240 : en:Chapter 07 
00:49:51.238 : en:Chapter 08 
01:02:38.713 : en:Chapter 09 
01:06:08.714 : en:Chapter 10 
01:07:19.035 : en:Chapter 11 
01:10:02.156 : en:Chapter 12 
01:13:02.586 : en:Chapter 13 
01:18:27.661 : en:Chapter 14 
01:26:09.706 : en:Chapter 15 
01:28:31.848 : en:Chapter 16 
01:34:03.596 : en:Chapter 17 
01:39:50.526 : en:Chapter 18 
01:44:53.161 : en:Chapter 19 
01:51:36.022 : en:Chapter 20 
01:54:25.817 : en:Chapter 21 
01:58:28.392 : en:Chapter 22 
02:02:45.858 : en:Chapter 23 
02:04:29.086 : en:Chapter 24 
02:12:23.769 : en:Chapter 25 
02:19:38.286 : en:Chapter 26 
02:28:42.121 : en:Chapter 27

Screencaps

Download

File: Satyagraha (2013) (1080p BluRay x265 Natty).mkv (4.6 GB)

Download: Google Drive

Featurettes: Google Drive

Leave a Reply

Your email address will not be published. Required fields are marked *