Rockstar (2011) (1080p BluRay x265 HEVC 10bit AAC 5.1 Hindi Natty)

Info

Plot: An uninhibited youth woos the hottest about-to-be-married college girl. He rises to become a rock-star – then self-destructs

Encode

Source:

ROCKSTAR (2011) UNTOUCHED BD50 1080P AVC DTS-HDMA 5.1 - DTONE 10TH ANNIVERSARY | 44 GB | DesiTorrents

Mediainfo

General 
Format : Matroska 
Format version : Version 4 / Version 2 
File size : 4.62 GiB 
Duration : 2 h 39 min 
Overall bit rate : 4 160 kb/s 
Movie name : Rockstar (2011) 
Encoded date : UTC 2018-08-26 20:01:07 
Writing application : mkvmerge v25.0.0 ('Prog Noir') 64-bit 
Writing library : libebml v1.3.6 + libmatroska v1.4.9 
Cover : Yes 
Attachments : cover.jpg 
Writing frontend : Natty 

Video 
ID : 1 
Format : HEVC 
Format/Info : High Efficiency Video Coding 
Format profile : Main [email protected]@Main 
Codec ID : V_MPEGH/ISO/HEVC 
Duration : 2 h 39 min 
Bit rate : 3 714 kb/s 
Width : 1 920 pixels 
Height : 816 pixels 
Display aspect ratio : 2.35:1 
Frame rate mode : Constant 
Frame rate : 24.000 FPS 
Color space : YUV 
Chroma subsampling : 4:2:0 
Bit depth : 10 bits 
Bits/(Pixel*Frame) : 0.099 
Stream size : 4.13 GiB (89%) 
Writing library : x265 2.8+66-88ee12651e30:[Windows][MSVC 1915][64 bit] 10bit 
Encoding settings : cpuid=1111039 / frame-threads=2 / numa-pools=4 / wpp / no-pmode / no-pme / no-psnr / no-ssim / log-level=2 / input-csp=1 / input-res=1920x816 / interlace=0 / total-frames=229052 / level-idc=0 / high-tier=1 / uhd-bd=0 / ref=5 / no-allow-non-conformance / no-repeat-headers / annexb / no-aud / no-hrd / info / hash=0 / no-temporal-layers / open-gop / min-keyint=24 / keyint=400 / gop-lookahead=0 / bframes=8 / b-adapt=2 / b-pyramid / bframe-bias=0 / rc-lookahead=100 / lookahead-slices=4 / scenecut=40 / radl=0 / no-intra-refresh / ctu=32 / min-cu-size=8 / no-rect / no-amp / max-tu-size=16 / tu-inter-depth=1 / tu-intra-depth=1 / limit-tu=0 / rdoq-level=2 / dynamic-rd=0.00 / no-ssim-rd / signhide / no-tskip / nr-intra=0 / nr-inter=0 / no-constrained-intra / no-strong-intra-smoothing / max-merge=2 / limit-refs=3 / limit-modes / me=3 / subme=5 / merange=57 / temporal-mvp / weightp / weightb / no-analyze-src-pics / deblock=-2:-2 / no-sao / no-sao-non-deblock / rd=4 / no-early-skip / rskip / no-fast-intra / no-tskip-fast / no-cu-lossless / b-intra / no-splitrd-skip / rdpenalty=0 / psy-rd=2.00 / psy-rdoq=1.00 / no-rd-refine / no-lossless / cbqpoffs=0 / crqpoffs=0 / rc=crf / crf=24.0 / qcomp=0.60 / qpstep=4 / stats-write=0 / stats-read=0 / ipratio=1.40 / pbratio=1.30 / aq-mode=3 / aq-strength=1.00 / cutree / zone-count=0 / no-strict-cbr / qg-size=32 / no-rc-grain / qpmax=69 / qpmin=0 / no-const-vbv / sar=0 / overscan=0 / videoformat=5 / range=0 / colorprim=1 / transfer=1 / colormatrix=1 / chromaloc=0 / display-window=0 / max-cll=0,0 / min-luma=0 / max-luma=1023 / log2-max-poc-lsb=8 / vui-timing-info / vui-hrd-info / slices=1 / no-opt-qp-pps / no-opt-ref-list-length-pps / no-multi-pass-opt-rps / scenecut-bias=0.05 / no-opt-cu-delta-qp / no-aq-motion / no-hdr / no-hdr-opt / no-dhdr10-opt / no-idr-recovery-sei / analysis-reuse-level=8 / scale-factor=0 / refine-intra=0 / refine-inter=0 / refine-mv=0 / no-limit-sao / ctu-info=0 / no-lowpass-dct / refine-mv-type=0 / copy-pic=1 / max-ausize-factor=1.0 / no-dynamic-refine / no-single-sei 
Default : Yes 
Forced : No 
Color range : Limited 
Color primaries : BT.709 
Transfer characteristics : BT.709 
Matrix coefficients : BT.709 

Audio 
ID : 2 
Format : AAC 
Format/Info : Advanced Audio Codec 
Format profile : LC 
Codec ID : A_AAC 
Duration : 2 h 39 min 
Bit rate : 433 kb/s 
Channel(s) : 6 channels 
Channel positions : Front: L C R, Side: L R, LFE 
Sampling rate : 48.0 kHz 
Frame rate : 46.875 FPS (1024 spf) 
Compression mode : Lossy 
Delay relative to video : 20 ms 
Stream size : 492 MiB (10%) 
Language : Hindi 
Default : No 
Forced : No 

Subtitle 
ID : 3 
Format : PGS 
Muxing mode : zlib 
Codec ID : S_HDMV/PGS 
Codec ID/Info : Picture based subtitle format used on BDs/HD-DVDs 
Duration : 2 h 33 min 
Bit rate : 30.7 kb/s 
Count of elements : 4109 
Stream size : 33.7 MiB (1%) 
Language : English 
Default : No 
Forced : No 

Menu 
00:00:00.000 : en:Chapter 01 
00:02:16.208 : en:Chapter 02 
00:05:02.041 : en:Chapter 03 
00:08:19.916 : en:Chapter 04 
00:09:41.250 : en:Chapter 05 
00:15:44.583 : en:Chapter 06 
00:18:37.958 : en:Chapter 07 
00:33:45.625 : en:Chapter 08 
00:34:56.750 : en:Chapter 09 
00:43:38.000 : en:Chapter 10 
00:47:15.750 : en:Chapter 11 
00:53:12.416 : en:Chapter 12 
00:59:47.625 : en:Chapter 13 
01:04:49.916 : en:Chapter 14 
01:08:38.291 : en:Chapter 15 
01:13:01.166 : en:Chapter 16 
01:18:25.625 : en:Chapter 17 
01:26:32.666 : en:Chapter 18 
01:31:52.666 : en:Chapter 19 
01:36:07.208 : en:Chapter 20 
01:38:40.583 : en:Chapter 21 
01:39:36.541 : en:Chapter 22 
01:46:46.750 : en:Chapter 23 
01:48:42.291 : en:Chapter 24 
01:51:32.541 : en:Chapter 25 
01:53:57.291 : en:Chapter 26 
01:57:27.291 : en:Chapter 27 
02:11:01.791 : en:Chapter 28 
02:18:26.750 : en:Chapter 29 
02:23:12.500 : en:Chapter 30 
02:28:12.875 : en:Chapter 31 
02:30:45.333 : en:Chapter 32 
02:35:59.875 : en:Chapter 33

Screencaps

Download

File: Rockstar (2011) (1080p BluRay x265 Natty).mkv (4.6 GB)

Download: Google Drive

Leave a Reply

Your email address will not be published. Required fields are marked *