Namastey London (2007) (1080p BluRay x265 HEVC 10bit AAC 5.1 Hindi Natty)

Info

Image result for Namastey London (2007)

Plot: A man takes his thoroughly-British daughter to his home country, India. There, he arranges her marriage to someone she considers a fool. The daughter attempts to outwit them, but the groom quietly and patiently hatches his own plan.

Encode

Source:

Release: 
Namastey London.2007.BD25.Untouched BluRay.Eros.DRs

Mediainfo

General 
Format : Matroska 
Format version : Version 4 
File size : 4.27 GiB 
Duration : 2 h 16 min 
Overall bit rate : 4 475 kb/s 
Movie name : Namastey London 2007 (1080p BluRay x265 clearFoster) 
Encoded date : UTC 2018-12-18 09:28:36 
Writing application : mkvmerge v29.0.0 ('Like It Or Not') 64-bit 
Writing library : libebml v1.3.6 + libmatroska v1.4.9 
Cover : Yes 
Attachments : cover.jpg 
Writing frontend : cFstr 

Video 
ID : 1 
Format : HEVC 
Format/Info : High Efficiency Video Coding 
Format profile : Main [email protected]@Main 
Codec ID : V_MPEGH/ISO/HEVC 
Duration : 2 h 16 min 
Bit rate : 3 961 kb/s 
Width : 1 920 pixels 
Height : 816 pixels 
Display aspect ratio : 2.35:1 
Frame rate mode : Constant 
Frame rate : 23.976 (24000/1001) FPS 
Color space : YUV 
Chroma subsampling : 4:2:0 
Bit depth : 10 bits 
Bits/(Pixel*Frame) : 0.105 
Stream size : 3.78 GiB (89%) 
Writing library : x265 2.9+8-27d8424c799d:[Windows][MSVC 1915][64 bit] 10bit 
Encoding settings : cpuid=1064959 / frame-threads=2 / numa-pools=6 / wpp / no-pmode / no-pme / no-psnr / no-ssim / log-level=2 / input-csp=1 / input-res=1920x816 / interlace=0 / total-frames=196658 / level-idc=0 / high-tier=1 / uhd-bd=0 / ref=5 / no-allow-non-conformance / no-repeat-headers / annexb / no-aud / no-hrd / info / hash=0 / no-temporal-layers / open-gop / min-keyint=23 / keyint=400 / gop-lookahead=0 / bframes=8 / b-adapt=2 / b-pyramid / bframe-bias=0 / rc-lookahead=100 / lookahead-slices=5 / scenecut=40 / radl=0 / no-intra-refresh / ctu=32 / min-cu-size=8 / no-rect / no-amp / max-tu-size=16 / tu-inter-depth=1 / tu-intra-depth=1 / limit-tu=0 / rdoq-level=2 / dynamic-rd=0.00 / no-ssim-rd / signhide / no-tskip / nr-intra=0 / nr-inter=0 / no-constrained-intra / no-strong-intra-smoothing / max-merge=2 / limit-refs=3 / limit-modes / me=3 / subme=5 / merange=57 / temporal-mvp / weightp / weightb / no-analyze-src-pics / deblock=-3:0 / no-sao / no-sao-non-deblock / rd=4 / no-early-skip / rskip / no-fast-intra / no-tskip-fast / no-cu-lossless / b-intra / no-splitrd-skip / rdpenalty=0 / psy-rd=2.00 / psy-rdoq=1.00 / no-rd-refine / no-lossless / cbqpoffs=0 / crqpoffs=0 / rc=crf / crf=22.0 / qcomp=0.50 / qpstep=4 / stats-write=0 / stats-read=0 / ipratio=1.40 / pbratio=1.30 / aq-mode=3 / aq-strength=1.00 / cutree / zone-count=0 / no-strict-cbr / qg-size=32 / no-rc-grain / qpmax=69 / qpmin=0 / no-const-vbv / sar=0 / overscan=0 / videoformat=5 / range=0 / colorprim=1 / transfer=1 / colormatrix=1 / chromaloc=0 / display-window=0 / max-cll=0,0 / min-luma=0 / max-luma=1023 / log2-max-poc-lsb=8 / vui-timing-info / vui-hrd-info / slices=1 / no-opt-qp-pps / no-opt-ref-list-length-pps / no-multi-pass-opt-rps / scenecut-bias=0.05 / no-opt-cu-delta-qp / aq-motion / no-hdr / no-hdr-opt / no-dhdr10-opt / no-idr-recovery-sei / analysis-reuse-level=10 / scale-factor=0 / refine-intra=0 / refine-inter=0 / refine-mv=0 / no-limit-sao / ctu-info=0 / no-lowpass-dct / refine-mv-type=0 / copy-pic=1 / max-ausize-factor=1.0 / no-dynamic-refine / no-single-sei 
Default : Yes 
Forced : No 
Color range : Limited 
Color primaries : BT.709 
Transfer characteristics : BT.709 
Matrix coefficients : BT.709 

Audio 
ID : 2 
Format : AAC LC 
Format/Info : Advanced Audio Codec Low Complexity 
Codec ID : A_AAC-2 
Duration : 2 h 16 min 
Bit rate : 500 kb/s 
Channel(s) : 6 channels 
Channel layout : C L R Ls Rs LFE 
Sampling rate : 48.0 kHz 
Frame rate : 46.875 FPS (1024 SPF) 
Compression mode : Lossy 
Delay relative to video : 20 ms 
Stream size : 489 MiB (11%) 
Language : Hindi 
Default : Yes 
Forced : No 

Subtitle 
ID : 3 
Format : PGS 
Muxing mode : zlib 
Codec ID : S_HDMV/PGS 
Codec ID/Info : Picture based subtitle format used on BDs/HD-DVDs 
Duration : 2 h 12 min 
Bit rate : 40.9 kb/s 
Count of elements : 2725 
Stream size : 38.7 MiB (1%) 
Language : English 
Default : No 
Forced : No 

Menu 
00:00:00.000 : en:00:00:00.000 
00:00:57.766 : en:00:00:57.766 
00:04:01.032 : en:00:04:01.032 
00:06:11.037 : en:00:06:11.037 
00:13:46.701 : en:00:13:46.701 
00:18:49.545 : en:00:18:49.545 
00:23:00.129 : en:00:23:00.129 
00:27:07.292 : en:00:27:07.292 
00:32:46.715 : en:00:32:46.715 
00:35:01.808 : en:00:35:01.808 
00:40:35.683 : en:00:40:35.683 
00:51:21.745 : en:00:51:21.745 
00:54:54.041 : en:00:54:54.041 
01:00:11.358 : en:01:00:11.358 
01:03:47.449 : en:01:03:47.449 
01:15:00.037 : en:01:15:00.037 
01:21:24.004 : en:01:21:24.004 
01:24:06.041 : en:01:24:06.041 
01:29:21.439 : en:01:29:21.439 
01:33:31.606 : en:01:33:31.606 
01:39:49.775 : en:01:39:49.775 
01:45:39.833 : en:01:45:39.833 
01:50:41.718 : en:01:50:41.718 
02:05:51.043 : en:02:05:51.043

Screencaps

Download

File: Namastey London (2007) (1080p BluRay x265 Natty).mkv (4.3 GB)

Download: Google Drive

Leave a Reply

Your email address will not be published. Required fields are marked *