Mission: Impossible – Fallout (2018) (1080p WEB-DL DD5.1 H264 CMRG)

Info

Image result for Mission Impossible Fallout

Plot: When an IMF mission ends badly, the world is faced with dire consequences. As Ethan Hunt takes it upon himself to fulfil his original briefing, the CIA begin to question his loyalty and his motives. The IMF team find themselves in a race against time, hunted by assassins while trying to prevent a global catastrophe.

Mediainfo

General
Unique ID                                : 189378640466833398058408340989631218749 (0x8E78FFDBF896D859803A2B96AC9B443D)
Complete name                            : Mission.Impossible.Fallout.2018.1080p.WEB-DL.DD5.1.H264-CMRG.mkv
Format                                   : Matroska
Format version                           : Version 4 / Version 2
File size                                : 5.68 GiB
Duration                                 : 2 h 27 min
Overall bit rate                         : 5 509 kb/s
Movie name                               : CMRG
Encoded date                             : UTC 2018-11-06 14:14:50
Writing application                      : mkvmerge v11.0.0 ('Alive') 64bit
Writing library                          : libebml v1.3.4 + libmatroska v1.4.5

Video
ID                                       : 1
Format                                   : AVC
Format/Info                              : Advanced Video Codec
Format profile                           : [email protected]
Format settings, CABAC                   : Yes
Format settings, ReFrames                : 4 frames
Codec ID                                 : V_MPEG4/ISO/AVC
Duration                                 : 2 h 27 min
Bit rate                                 : 5 124 kb/s
Width                                    : 1 920 pixels
Height                                   : 1 012 pixels
Display aspect ratio                     : 1.897
Frame rate mode                          : Constant
Frame rate                               : 23.976 (24000/1001) FPS
Color space                              : YUV
Chroma subsampling                       : 4:2:0
Bit depth                                : 8 bits
Scan type                                : Progressive
Bits/(Pixel*Frame)                       : 0.110
Stream size                              : 5.29 GiB (93%)
Language                                 : English
Default                                  : Yes
Forced                                   : No
Color range                              : Limited
Color primaries                          : BT.709
Transfer characteristics                 : BT.709
Matrix coefficients                      : BT.709

Audio
ID                                       : 2
Format                                   : AC-3
Format/Info                              : Audio Coding 3
Mode extension                           : CM (complete main)
Format settings, Endianness              : Big
Codec ID                                 : A_AC3
Duration                                 : 2 h 27 min
Bit rate mode                            : Constant
Bit rate                                 : 384 kb/s
Channel(s)                               : 6 channels
Channel positions                        : Front: L C R, Side: L R, LFE
Sampling rate                            : 48.0 kHz
Frame rate                               : 31.250 FPS (1536 spf)
Bit depth                                : 16 bits
Compression mode                         : Lossy
Delay relative to video                  : -43 ms
Stream size                              : 405 MiB (7%)
Language                                 : English
Default                                  : Yes
Forced                                   : No

Menu
00:00:00.000                             : en:1
00:10:35.000                             : en:2
00:17:09.000                             : en:3
00:26:54.000                             : en:4
00:35:53.000                             : en:5
00:49:14.000                             : en:6
00:59:56.000                             : en:7
01:10:18.000                             : en:8
01:17:01.000                             : en:9
01:28:22.000                             : en:10
01:39:02.000                             : en:11
01:46:19.000                             : en:12
01:55:37.000                             : en:13
02:03:02.000                             : en:14
02:13:52.000                             : en:15
02:19:38.000                             : en:16

Screencaps

Download

File: Mission.Impossible.Fallout.2018.1080p.WEB-DL.DD5.1.H264-CMRG.mkv (5.68 GB)

Download: Google Drive

Leave a Reply

Your email address will not be published. Required fields are marked *