Men in Black II (2002) (2160p BluRay x265 HEVC 10bit AAC 7.1 Joy)

Info

Plot: Kay and Jay reunite to provide our best, last and only line of defense against a sinister seductress who levels the toughest challenge yet to the MIBs untarnished mission statement: protecting the earth from the scum of the universe. It’s been four years since the alien-seeking agents averted an intergalactic disaster of epic proportions. And now it’s a race against the clock as Jay must convince Kay-who not only has absolutely no memory of his time spent with the Men In Black, but is also the only living person left with the expertise to save the galaxy-to reunite with the MIB before the earth submits to ultimate destruction.

Encode

Source:

Release: 
Men.in.Black.II.2002.2160p.BluRay.x265.10bit.SDR.DTS-HD.MA.TrueHD.7.1.Atmos-SWTYBLZ.mkv (50.95 GBs)

Mediainfo

General 
Format : Matroska 
Format version : Version 4 / Version 2 
File size : 4.13 GiB 
Duration : 1 h 28 min 
Overall bit rate : 6 708 kb/s 
Movie name : Men in Black II 2002 (2160p x265 10bit S50 Joy)[UTR] 
Encoded date : UTC 2018-06-01 15:54:51 
Writing application : mkvmerge v23.0.0 ('The Bride Said No') 64-bit 
Writing library : libebml v1.3.6 + libmatroska v1.4.9 
Cover : Yes 
Attachments : cover.jpg 
Writing frontend : StaxRip v1.7.0.6 

Video 
ID : 1 
Format : HEVC 
Format/Info : High Efficiency Video Coding 
Format profile : Main [email protected]@Main 
Codec ID : V_MPEGH/ISO/HEVC 
Duration : 1 h 28 min 
Bit rate : 5 996 kb/s 
Width : 3 840 pixels 
Height : 2 064 pixels 
Display aspect ratio : 1.85:1 
Frame rate mode : Constant 
Frame rate : 23.976 (24000/1001) FPS 
Color space : YUV 
Chroma subsampling : 4:2:0 
Bit depth : 10 bits 
Bits/(Pixel*Frame) : 0.032 
Stream size : 3.69 GiB (89%) 
Writing library : x265 2.7+2-22c127ff05d5:[Windows][MSVC 1900][64 bit] 10bit 
Encoding settings : cpuid=1173503 / frame-threads=4 / numa-pools=16 / wpp / pmode / no-pme / no-psnr / ssim / log-level=2 / input-csp=1 / input-res=3840x2064 / interlace=0 / total-frames=126792 / level-idc=0 / high-tier=1 / uhd-bd=0 / ref=3 / no-allow-non-conformance / no-repeat-headers / annexb / no-aud / no-hrd / info / hash=0 / no-temporal-layers / open-gop / min-keyint=23 / keyint=250 / gop-lookahead=0 / bframes=4 / b-adapt=2 / b-pyramid / bframe-bias=0 / rc-lookahead=50 / lookahead-slices=8 / scenecut=40 / radl=0 / no-intra-refresh / ctu=64 / min-cu-size=8 / no-rect / no-amp / max-tu-size=32 / tu-inter-depth=1 / tu-intra-depth=1 / limit-tu=0 / rdoq-level=1 / dynamic-rd=0.00 / ssim-rd / signhide / no-tskip / nr-intra=0 / nr-inter=0 / no-constrained-intra / strong-intra-smoothing / max-merge=2 / limit-refs=0 / no-limit-modes / me=1 / subme=2 / merange=57 / temporal-mvp / weightp / weightb / no-analyze-src-pics / deblock=0:0 / sao / no-sao-non-deblock / rd=3 / no-early-skip / rskip / no-fast-intra / no-tskip-fast / no-cu-lossless / b-intra / no-splitrd-skip / rdpenalty=0 / psy-rd=0.00 / psy-rdoq=0.00 / no-rd-refine / no-lossless / cbqpoffs=0 / crqpoffs=0 / rc=abr / bitrate=6000 / qcomp=0.60 / qpstep=4 / stats-write=0 / stats-read=2 / cplxblur=20.0 / qblur=0.5 / ipratio=1.40 / pbratio=1.30 / aq-mode=2 / aq-strength=1.00 / cutree / zone-count=0 / no-strict-cbr / qg-size=32 / no-rc-grain / qpmax=69 / qpmin=0 / no-const-vbv / sar=0 / overscan=0 / videoformat=5 / range=0 / colorprim=2 / transfer=2 / colormatrix=2 / chromaloc=0 / display-window=0 / max-cll=0,0 / min-luma=0 / max-luma=1023 / log2-max-poc-lsb=8 / vui-timing-info / vui-hrd-info / slices=1 / no-opt-qp-pps / no-opt-ref-list-length-pps / multi-pass-opt-rps / scenecut-bias=0.05 / no-opt-cu-delta-qp / no-aq-motion / no-hdr / no-hdr-opt / no-dhdr10-opt / analysis-reuse-level=5 / scale-factor=0 / refine-intra=0 / refine-inter=0 / refine-mv=0 / limit-sao / ctu-info=0 / no-lowpass-dct / refine-mv-type=0 / copy-pic=1 
Default : Yes 
Forced : No 

Audio 
ID : 2 
Format : AAC 
Format/Info : Advanced Audio Codec 
Format profile : LC 
Codec ID : A_AAC 
Duration : 1 h 28 min 
Bit rate : 541 kb/s 
Channel(s) : 7 channels 
Channel(s)_Original : 8 channels 
Channel positions : Front: L C R, Side: L R, Back: L R, LFE 
Sampling rate : 48.0 kHz 
Frame rate : 46.875 FPS (1024 spf) 
Compression mode : Lossy 
Delay relative to video : 9 ms 
Stream size : 341 MiB (8%) 
Language : English 
Default : No 
Forced : No 

Subtitle #1 
ID : 3 
Format : UTF-8 
Codec ID : S_TEXT/UTF8 
Codec ID/Info : UTF-8 Plain Text 
Duration : 1 h 20 min 
Bit rate : 63 b/s 
Count of elements : 1058 
Stream size : 37.4 KiB (0%) 
Language : English 
Default : No 
Forced : No 

Subtitle #2 
ID : 4 
Format : VobSub 
Muxing mode : zlib 
Codec ID : S_VOBSUB 
Codec ID/Info : Picture based subtitle format used on DVDs 
Duration : 1 h 27 min 
Bit rate : 13.0 kb/s 
Count of elements : 1401 
Stream size : 8.14 MiB (0%) 
Language : English 
Default : No 
Forced : No 

Subtitle #3 
ID : 5 
Format : VobSub 
Muxing mode : zlib 
Codec ID : S_VOBSUB 
Codec ID/Info : Picture based subtitle format used on DVDs 
Duration : 1 h 27 min 
Bit rate : 10.5 kb/s 
Count of elements : 1067 
Stream size : 6.59 MiB (0%) 
Language : English 
Default : No 
Forced : No 

Subtitle #4 
ID : 6 
Format : VobSub 
Muxing mode : zlib 
Codec ID : S_VOBSUB 
Codec ID/Info : Picture based subtitle format used on DVDs 
Duration : 1 h 27 min 
Bit rate : 13.0 kb/s 
Count of elements : 1398 
Stream size : 8.13 MiB (0%) 
Language : English 
Default : No 
Forced : No 

Subtitle #5 
ID : 7 
Format : VobSub 
Muxing mode : zlib 
Codec ID : S_VOBSUB 
Codec ID/Info : Picture based subtitle format used on DVDs 
Duration : 1 h 20 min 
Bit rate : 11.5 kb/s 
Count of elements : 1074 
Stream size : 6.58 MiB (0%) 
Language : English 
Default : No 
Forced : No 

Subtitle #6 
ID : 8 
Format : VobSub 
Muxing mode : zlib 
Codec ID : S_VOBSUB 
Codec ID/Info : Picture based subtitle format used on DVDs 
Duration : 1 h 20 min 
Bit rate : 5 776 b/s 
Count of elements : 1033 
Stream size : 3.31 MiB (0%) 
Language : Arabic 
Default : No 
Forced : No 

Subtitle #7 
ID : 9 
Format : VobSub 
Muxing mode : zlib 
Codec ID : S_VOBSUB 
Codec ID/Info : Picture based subtitle format used on DVDs 
Duration : 1 h 27 min 
Bit rate : 9 100 b/s 
Count of elements : 1048 
Stream size : 5.71 MiB (0%) 
Language : Chinese 
Default : No 
Forced : No 

Subtitle #8 
ID : 10 
Format : VobSub 
Muxing mode : zlib 
Codec ID : S_VOBSUB 
Codec ID/Info : Picture based subtitle format used on DVDs 
Duration : 1 h 20 min 
Bit rate : 9 124 b/s 
Count of elements : 1066 
Stream size : 5.22 MiB (0%) 
Language : Chinese 
Default : No 
Forced : No 

Subtitle #9 
ID : 11 
Format : VobSub 
Muxing mode : zlib 
Codec ID : S_VOBSUB 
Codec ID/Info : Picture based subtitle format used on DVDs 
Duration : 1 h 20 min 
Bit rate : 8 337 b/s 
Count of elements : 1022 
Stream size : 4.77 MiB (0%) 
Language : Croatian 
Default : No 
Forced : No 

Subtitle #10 
ID : 12 
Format : VobSub 
Muxing mode : zlib 
Codec ID : S_VOBSUB 
Codec ID/Info : Picture based subtitle format used on DVDs 
Duration : 1 h 20 min 
Bit rate : 8 380 b/s 
Count of elements : 1027 
Stream size : 4.80 MiB (0%) 
Language : Czech 
Default : No 
Forced : No 

Subtitle #11 
ID : 13 
Format : VobSub 
Muxing mode : zlib 
Codec ID : S_VOBSUB 
Codec ID/Info : Picture based subtitle format used on DVDs 
Duration : 39 min 20 s 
Bit rate : 74 b/s 
Count of elements : 5 
Stream size : 21.4 KiB (0%) 
Language : Czech 
Default : No 
Forced : Yes 

Subtitle #12 
ID : 14 
Format : VobSub 
Muxing mode : zlib 
Codec ID : S_VOBSUB 
Codec ID/Info : Picture based subtitle format used on DVDs 
Duration : 1 h 27 min 
Bit rate : 7 827 b/s 
Count of elements : 760 
Stream size : 4.91 MiB (0%) 
Language : Danish 
Default : No 
Forced : No 

Subtitle #13 
ID : 15 
Format : VobSub 
Muxing mode : zlib 
Codec ID : S_VOBSUB 
Codec ID/Info : Picture based subtitle format used on DVDs 
Duration : 1 h 20 min 
Bit rate : 9 615 b/s 
Count of elements : 949 
Stream size : 5.50 MiB (0%) 
Language : Dutch 
Default : No 
Forced : No 

Subtitle #14 
ID : 16 
Format : VobSub 
Muxing mode : zlib 
Codec ID : S_VOBSUB 
Codec ID/Info : Picture based subtitle format used on DVDs 
Duration : 1 h 20 min 
Bit rate : 9 106 b/s 
Count of elements : 831 
Stream size : 5.21 MiB (0%) 
Language : Finnish 
Default : No 
Forced : No 

Subtitle #15 
ID : 17 
Format : VobSub 
Muxing mode : zlib 
Codec ID : S_VOBSUB 
Codec ID/Info : Picture based subtitle format used on DVDs 
Duration : 1 h 27 min 
Bit rate : 8 227 b/s 
Count of elements : 946 
Stream size : 5.16 MiB (0%) 
Language : French 
Default : No 
Forced : No 

Subtitle #16 
ID : 18 
Format : VobSub 
Muxing mode : zlib 
Codec ID : S_VOBSUB 
Codec ID/Info : Picture based subtitle format used on DVDs 
Duration : 1 h 27 min 
Bit rate : 28 b/s 
Count of elements : 5 
Stream size : 18.2 KiB (0%) 
Language : French 
Default : No 
Forced : Yes 

Subtitle #17 
ID : 19 
Format : VobSub 
Muxing mode : zlib 
Codec ID : S_VOBSUB 
Codec ID/Info : Picture based subtitle format used on DVDs 
Duration : 1 h 20 min 
Bit rate : 11.3 kb/s 
Count of elements : 1046 
Stream size : 6.45 MiB (0%) 
Language : German 
Default : No 
Forced : No 

Subtitle #18 
ID : 20 
Format : VobSub 
Muxing mode : zlib 
Codec ID : S_VOBSUB 
Codec ID/Info : Picture based subtitle format used on DVDs 
Duration : 53 min 24 s 
Bit rate : 157 b/s 
Count of elements : 13 
Stream size : 61.5 KiB (0%) 
Language : German 
Default : No 
Forced : Yes 

Subtitle #19 
ID : 21 
Format : VobSub 
Muxing mode : zlib 
Codec ID : S_VOBSUB 
Codec ID/Info : Picture based subtitle format used on DVDs 
Duration : 1 h 20 min 
Bit rate : 10.4 kb/s 
Count of elements : 1016 
Stream size : 6.00 MiB (0%) 
Language : Greek 
Default : No 
Forced : No 

Subtitle #20 
ID : 22 
Format : VobSub 
Muxing mode : zlib 
Codec ID : S_VOBSUB 
Codec ID/Info : Picture based subtitle format used on DVDs 
Duration : 1 h 20 min 
Bit rate : 9 695 b/s 
Count of elements : 1027 
Stream size : 5.55 MiB (0%) 
Language : Hungarian 
Default : No 
Forced : No 

Subtitle #21 
ID : 23 
Format : VobSub 
Muxing mode : zlib 
Codec ID : S_VOBSUB 
Codec ID/Info : Picture based subtitle format used on DVDs 
Duration : 1 h 19 min 
Bit rate : 44 b/s 
Count of elements : 7 
Stream size : 26.2 KiB (0%) 
Language : Hungarian 
Default : No 
Forced : Yes 

Subtitle #22 
ID : 24 
Format : VobSub 
Muxing mode : zlib 
Codec ID : S_VOBSUB 
Codec ID/Info : Picture based subtitle format used on DVDs 
Duration : 1 h 20 min 
Bit rate : 11.0 kb/s 
Count of elements : 1040 
Stream size : 6.28 MiB (0%) 
Language : Italian 
Default : No 
Forced : No 

Subtitle #23 
ID : 25 
Format : VobSub 
Muxing mode : zlib 
Codec ID : S_VOBSUB 
Codec ID/Info : Picture based subtitle format used on DVDs 
Duration : 53 min 24 s 
Bit rate : 125 b/s 
Count of elements : 12 
Stream size : 49.2 KiB (0%) 
Language : Italian 
Default : No 
Forced : Yes 

Subtitle #24 
ID : 26 
Format : VobSub 
Muxing mode : zlib 
Codec ID : S_VOBSUB 
Codec ID/Info : Picture based subtitle format used on DVDs 
Duration : 1 h 20 min 
Bit rate : 7 286 b/s 
Count of elements : 1201 
Stream size : 4.17 MiB (0%) 
Language : Japanese 
Default : No 
Forced : No 

Subtitle #25 
ID : 27 
Format : VobSub 
Muxing mode : zlib 
Codec ID : S_VOBSUB 
Codec ID/Info : Picture based subtitle format used on DVDs 
Duration : 1 h 20 min 
Bit rate : 9 088 b/s 
Count of elements : 1052 
Stream size : 5.20 MiB (0%) 
Language : Korean 
Default : No 
Forced : No 

Subtitle #26 
ID : 28 
Format : VobSub 
Muxing mode : zlib 
Codec ID : S_VOBSUB 
Codec ID/Info : Picture based subtitle format used on DVDs 
Duration : 1 h 27 min 
Bit rate : 8 121 b/s 
Count of elements : 901 
Stream size : 5.09 MiB (0%) 
Language : Norwegian Bokmal 
Default : No 
Forced : No 

Subtitle #27 
ID : 29 
Format : VobSub 
Muxing mode : zlib 
Codec ID : S_VOBSUB 
Codec ID/Info : Picture based subtitle format used on DVDs 
Duration : 1 h 20 min 
Bit rate : 8 075 b/s 
Count of elements : 1033 
Stream size : 4.62 MiB (0%) 
Language : Polish 
Default : No 
Forced : No 

Subtitle #28 
ID : 30 
Format : VobSub 
Muxing mode : zlib 
Codec ID : S_VOBSUB 
Codec ID/Info : Picture based subtitle format used on DVDs 
Duration : 15 s 36 ms 
Bit rate : 5 616 b/s 
Count of elements : 2 
Stream size : 10.3 KiB (0%) 
Language : Polish 
Default : No 
Forced : Yes 

Subtitle #29 
ID : 31 
Format : VobSub 
Muxing mode : zlib 
Codec ID : S_VOBSUB 
Codec ID/Info : Picture based subtitle format used on DVDs 
Duration : 1 h 27 min 
Bit rate : 8 578 b/s 
Count of elements : 1007 
Stream size : 5.38 MiB (0%) 
Language : Portuguese 
Default : No 
Forced : No 

Subtitle #30 
ID : 32 
Format : VobSub 
Muxing mode : zlib 
Codec ID : S_VOBSUB 
Codec ID/Info : Picture based subtitle format used on DVDs 
Duration : 1 h 27 min 
Bit rate : 65 b/s 
Count of elements : 10 
Stream size : 42.0 KiB (0%) 
Language : Portuguese 
Default : No 
Forced : Yes 

Subtitle #31 
ID : 33 
Format : VobSub 
Muxing mode : zlib 
Codec ID : S_VOBSUB 
Codec ID/Info : Picture based subtitle format used on DVDs 
Duration : 1 h 20 min 
Bit rate : 11.1 kb/s 
Count of elements : 1052 
Stream size : 6.34 MiB (0%) 
Language : Portuguese 
Default : No 
Forced : No 

Subtitle #32 
ID : 34 
Format : VobSub 
Muxing mode : zlib 
Codec ID : S_VOBSUB 
Codec ID/Info : Picture based subtitle format used on DVDs 
Duration : 1 h 27 min 
Bit rate : 8 939 b/s 
Count of elements : 1041 
Stream size : 5.61 MiB (0%) 
Language : Romanian 
Default : No 
Forced : No 

Subtitle #33 
ID : 35 
Format : VobSub 
Muxing mode : zlib 
Codec ID : S_VOBSUB 
Codec ID/Info : Picture based subtitle format used on DVDs 
Duration : 1 h 20 min 
Bit rate : 12.2 kb/s 
Count of elements : 1139 
Stream size : 6.97 MiB (0%) 
Language : Russian 
Default : No 
Forced : No 

Subtitle #34 
ID : 36 
Format : VobSub 
Muxing mode : zlib 
Codec ID : S_VOBSUB 
Codec ID/Info : Picture based subtitle format used on DVDs 
Duration : 1 h 19 min 
Bit rate : 199 b/s 
Count of elements : 24 
Stream size : 117 KiB (0%) 
Language : Russian 
Default : No 
Forced : Yes 

Subtitle #35 
ID : 37 
Format : VobSub 
Muxing mode : zlib 
Codec ID : S_VOBSUB 
Codec ID/Info : Picture based subtitle format used on DVDs 
Duration : 1 h 20 min 
Bit rate : 10.1 kb/s 
Count of elements : 1087 
Stream size : 5.75 MiB (0%) 
Language : Spanish 
Default : No 
Forced : No 

Subtitle #36 
ID : 38 
Format : VobSub 
Muxing mode : zlib 
Codec ID : S_VOBSUB 
Codec ID/Info : Picture based subtitle format used on DVDs 
Duration : 53 min 24 s 
Bit rate : 140 b/s 
Count of elements : 13 
Stream size : 55.1 KiB (0%) 
Language : Spanish 
Default : No 
Forced : Yes 

Subtitle #37 
ID : 39 
Format : VobSub 
Muxing mode : zlib 
Codec ID : S_VOBSUB 
Codec ID/Info : Picture based subtitle format used on DVDs 
Duration : 1 h 20 min 
Bit rate : 10.6 kb/s 
Count of elements : 1058 
Stream size : 6.06 MiB (0%) 
Language : Spanish 
Default : No 
Forced : No 

Subtitle #38 
ID : 40 
Format : VobSub 
Muxing mode : zlib 
Codec ID : S_VOBSUB 
Codec ID/Info : Picture based subtitle format used on DVDs 
Duration : 1 h 3 min 
Bit rate : 72 b/s 
Count of elements : 9 
Stream size : 33.8 KiB (0%) 
Language : Spanish 
Default : No 
Forced : Yes 

Subtitle #39 
ID : 41 
Format : VobSub 
Muxing mode : zlib 
Codec ID : S_VOBSUB 
Codec ID/Info : Picture based subtitle format used on DVDs 
Duration : 1 h 27 min 
Bit rate : 8 096 b/s 
Count of elements : 771 
Stream size : 5.08 MiB (0%) 
Language : Swedish 
Default : No 
Forced : No 

Subtitle #40 
ID : 42 
Format : VobSub 
Muxing mode : zlib 
Codec ID : S_VOBSUB 
Codec ID/Info : Picture based subtitle format used on DVDs 
Duration : 1 h 20 min 
Bit rate : 10.1 kb/s 
Count of elements : 1087 
Stream size : 5.76 MiB (0%) 
Language : Thai 
Default : No 
Forced : No 

Subtitle #41 
ID : 43 
Format : VobSub 
Muxing mode : zlib 
Codec ID : S_VOBSUB 
Codec ID/Info : Picture based subtitle format used on DVDs 
Duration : 1 h 19 min 
Bit rate : 162 b/s 
Count of elements : 21 
Stream size : 95.1 KiB (0%) 
Language : Thai 
Default : No 
Forced : Yes 

Subtitle #42 
ID : 44 
Format : VobSub 
Muxing mode : zlib 
Codec ID : S_VOBSUB 
Codec ID/Info : Picture based subtitle format used on DVDs 
Duration : 1 h 20 min 
Bit rate : 10.5 kb/s 
Count of elements : 1086 
Stream size : 5.99 MiB (0%) 
Language : Turkish 
Default : No 
Forced : No 

Menu 
00:00:00.000 : en:Chapter 1 
00:07:01.129 : en:Chapter 2 
00:13:20.716 : en:Chapter 3 
00:19:05.936 : en:Chapter 4 
00:24:23.170 : en:Chapter 5 
00:30:41.256 : en:Chapter 6 
00:34:59.388 : en:Chapter 7 
00:41:55.596 : en:Chapter 8 
00:48:13.974 : en:Chapter 9 
00:52:32.858 : en:Chapter 10 
00:57:32.824 : en:Chapter 11 
01:02:34.125 : en:Chapter 12 
01:06:20.434 : en:Chapter 13 
01:10:30.059 : en:Chapter 14 
01:13:54.847 : en:Chapter 15 
01:16:02.474 : en:Chapter 16

Screencaps

Download

File: Men in Black II 2002 (2160p x265 10bit S50 Joy).mkv (4.1 GB)

Download: Google Drive

Leave a Reply

Your email address will not be published. Required fields are marked *