Men in Black 3 (2012) (1080p BluRay x265 HEVC 10bit AAC 7.1 Joy)

Info

Image result for men in black 3 movie poster

Plot: Agents J (Will Smith) and K (Tommy Lee Jones) are back…in time. J has seen some inexplicable things in his 15 years with the Men in Black, but nothing, not even aliens, perplexes him as much as his wry, reticent partner. But when K’s life and the fate of the planet are put at stake, Agent J will have to travel back in time to put things right. J discovers that there are secrets to the universe that K never told him – secrets that will reveal themselves as he teams up with the young Agent K (Josh Brolin) to save his partner, the agency, and the future of humankind.

Encode

Source:

Release: 
Men.in.Black.3.2012.2160p.BluRay.x265.10bit.SDR.DTS-HD.MA.TrueHD.7.1.Atmos-SWTYBLZ.mkv (44.76 GBs)

Mediainfo

General 
Format : Matroska 
Format version : Version 4 / Version 2 
File size : 1.46 GiB 
Duration : 1 h 45 min 
Overall bit rate : 1 969 kb/s 
Movie name : Men in Black 3 2012 (1080p x265 10bit S74 Joy)[UTR] 
Encoded date : UTC 2018-06-01 15:49:35 
Writing application : mkvmerge v23.0.0 ('The Bride Said No') 64-bit 
Writing library : libebml v1.3.6 + libmatroska v1.4.9 
Cover : Yes 
Attachments : cover.jpg 
Writing frontend : StaxRip v1.7.0.6 

Video 
ID : 1 
Format : HEVC 
Format/Info : High Efficiency Video Coding 
Format profile : Main [email protected]@Main 
Codec ID : V_MPEGH/ISO/HEVC 
Duration : 1 h 45 min 
Bit rate : 1 501 kb/s 
Width : 1 920 pixels 
Height : 1 024 pixels 
Display aspect ratio : 1.85:1 
Frame rate mode : Constant 
Frame rate : 23.976 (24000/1001) FPS 
Color space : YUV 
Chroma subsampling : 4:2:0 
Bit depth : 10 bits 
Bits/(Pixel*Frame) : 0.032 
Stream size : 1.11 GiB (76%) 
Writing library : x265 2.7+2-22c127ff05d5:[Windows][MSVC 1900][64 bit] 10bit 
Encoding settings : cpuid=1173503 / frame-threads=4 / numa-pools=16 / wpp / no-pmode / no-pme / no-psnr / ssim / log-level=2 / input-csp=1 / input-res=1920x1024 / interlace=0 / total-frames=152232 / level-idc=0 / high-tier=1 / uhd-bd=0 / ref=4 / no-allow-non-conformance / no-repeat-headers / annexb / no-aud / no-hrd / info / hash=0 / no-temporal-layers / open-gop / min-keyint=23 / keyint=250 / gop-lookahead=0 / bframes=4 / b-adapt=2 / b-pyramid / bframe-bias=0 / rc-lookahead=25 / lookahead-slices=4 / scenecut=40 / radl=0 / no-intra-refresh / ctu=64 / min-cu-size=8 / rect / no-amp / max-tu-size=32 / tu-inter-depth=1 / tu-intra-depth=1 / limit-tu=0 / rdoq-level=2 / dynamic-rd=0.00 / ssim-rd / signhide / no-tskip / nr-intra=0 / nr-inter=0 / no-constrained-intra / strong-intra-smoothing / max-merge=3 / limit-refs=3 / limit-modes / me=3 / subme=3 / merange=57 / temporal-mvp / weightp / weightb / no-analyze-src-pics / deblock=0:0 / sao / no-sao-non-deblock / rd=6 / no-early-skip / rskip / no-fast-intra / no-tskip-fast / no-cu-lossless / b-intra / no-splitrd-skip / rdpenalty=0 / psy-rd=1.30 / psy-rdoq=1.05 / no-rd-refine / no-lossless / cbqpoffs=0 / crqpoffs=0 / rc=abr / bitrate=1500 / qcomp=0.60 / qpstep=4 / stats-write=0 / stats-read=2 / cplxblur=20.0 / qblur=0.5 / ipratio=1.40 / pbratio=1.30 / aq-mode=3 / aq-strength=1.00 / cutree / zone-count=0 / no-strict-cbr / qg-size=32 / no-rc-grain / qpmax=69 / qpmin=0 / no-const-vbv / sar=0 / overscan=0 / videoformat=5 / range=0 / colorprim=2 / transfer=2 / colormatrix=2 / chromaloc=0 / display-window=0 / max-cll=0,0 / min-luma=0 / max-luma=1023 / log2-max-poc-lsb=8 / vui-timing-info / vui-hrd-info / slices=1 / no-opt-qp-pps / no-opt-ref-list-length-pps / multi-pass-opt-rps / scenecut-bias=0.05 / no-opt-cu-delta-qp / no-aq-motion / no-hdr / no-hdr-opt / no-dhdr10-opt / analysis-reuse-level=5 / scale-factor=0 / refine-intra=0 / refine-inter=0 / refine-mv=0 / limit-sao / ctu-info=0 / no-lowpass-dct / refine-mv-type=0 / copy-pic=1 
Default : Yes 
Forced : No 

Audio 
ID : 2 
Format : AAC 
Format/Info : Advanced Audio Codec 
Format profile : HE-AAC / LC 
Codec ID : A_AAC 
Duration : 1 h 45 min 
Bit rate : 295 kb/s 
Channel(s) : 7 channels 
Channel(s)_Original : 8 channels 
Channel positions : Front: L C R, Side: L R, Back: L R, LFE 
Sampling rate : 48.0 kHz / 24.0 kHz 
Frame rate : 23.438 FPS (1024 spf) 
Compression mode : Lossy 
Delay relative to video : 31 ms 
Stream size : 223 MiB (15%) 
Language : English 
Default : Yes 
Forced : No 

Subtitle #1 
ID : 3 
Format : UTF-8 
Codec ID : S_TEXT/UTF8 
Codec ID/Info : UTF-8 Plain Text 
Duration : 1 h 37 min 
Bit rate : 64 b/s 
Count of elements : 1448 
Stream size : 46.0 KiB (0%) 
Language : English 
Default : No 
Forced : No 

Subtitle #2 
ID : 4 
Format : VobSub 
Muxing mode : zlib 
Codec ID : S_VOBSUB 
Codec ID/Info : Picture based subtitle format used on DVDs 
Duration : 1 h 44 min 
Bit rate : 12.3 kb/s 
Count of elements : 1693 
Stream size : 9.15 MiB (1%) 
Language : English 
Default : No 
Forced : No 

Subtitle #3 
ID : 5 
Format : VobSub 
Muxing mode : zlib 
Codec ID : S_VOBSUB 
Codec ID/Info : Picture based subtitle format used on DVDs 
Duration : 1 h 44 min 
Bit rate : 10.4 kb/s 
Count of elements : 1326 
Stream size : 7.78 MiB (1%) 
Language : English 
Default : No 
Forced : No 

Subtitle #4 
ID : 6 
Format : VobSub 
Muxing mode : zlib 
Codec ID : S_VOBSUB 
Codec ID/Info : Picture based subtitle format used on DVDs 
Duration : 1 h 45 min 
Bit rate : 12.2 kb/s 
Count of elements : 1694 
Stream size : 9.15 MiB (1%) 
Language : English 
Default : No 
Forced : No 

Subtitle #5 
ID : 7 
Format : VobSub 
Muxing mode : zlib 
Codec ID : S_VOBSUB 
Codec ID/Info : Picture based subtitle format used on DVDs 
Duration : 1 h 44 min 
Bit rate : 10.4 kb/s 
Count of elements : 1327 
Stream size : 7.78 MiB (1%) 
Language : English 
Default : No 
Forced : No 

Subtitle #6 
ID : 8 
Format : VobSub 
Muxing mode : zlib 
Codec ID : S_VOBSUB 
Codec ID/Info : Picture based subtitle format used on DVDs 
Duration : 1 h 45 min 
Bit rate : 9 313 b/s 
Count of elements : 1476 
Stream size : 7.00 MiB (0%) 
Language : Chinese 
Default : No 
Forced : No 

Subtitle #7 
ID : 9 
Format : VobSub 
Muxing mode : zlib 
Codec ID : S_VOBSUB 
Codec ID/Info : Picture based subtitle format used on DVDs 
Duration : 1 h 37 min 
Bit rate : 9 297 b/s 
Count of elements : 1355 
Stream size : 6.48 MiB (0%) 
Language : Chinese 
Default : No 
Forced : No 

Subtitle #8 
ID : 10 
Format : VobSub 
Muxing mode : zlib 
Codec ID : S_VOBSUB 
Codec ID/Info : Picture based subtitle format used on DVDs 
Duration : 1 h 44 min 
Bit rate : 9 250 b/s 
Count of elements : 1378 
Stream size : 6.93 MiB (0%) 
Language : Czech 
Default : No 
Forced : No 

Subtitle #9 
ID : 11 
Format : VobSub 
Muxing mode : zlib 
Codec ID : S_VOBSUB 
Codec ID/Info : Picture based subtitle format used on DVDs 
Duration : 1 h 44 min 
Bit rate : 101 b/s 
Count of elements : 13 
Stream size : 77.6 KiB (0%) 
Language : Czech 
Default : No 
Forced : Yes 

Subtitle #10 
ID : 12 
Format : VobSub 
Muxing mode : zlib 
Codec ID : S_VOBSUB 
Codec ID/Info : Picture based subtitle format used on DVDs 
Duration : 1 h 44 min 
Bit rate : 9 505 b/s 
Count of elements : 1306 
Stream size : 7.13 MiB (0%) 
Language : Danish 
Default : No 
Forced : No 

Subtitle #11 
ID : 13 
Format : VobSub 
Muxing mode : zlib 
Codec ID : S_VOBSUB 
Codec ID/Info : Picture based subtitle format used on DVDs 
Duration : 1 h 44 min 
Bit rate : 8 714 b/s 
Count of elements : 1230 
Stream size : 6.54 MiB (0%) 
Language : Dutch 
Default : No 
Forced : No 

Subtitle #12 
ID : 14 
Format : VobSub 
Muxing mode : zlib 
Codec ID : S_VOBSUB 
Codec ID/Info : Picture based subtitle format used on DVDs 
Duration : 1 h 37 min 
Bit rate : 10.4 kb/s 
Count of elements : 1451 
Stream size : 7.20 MiB (0%) 
Language : Estonian 
Default : No 
Forced : No 

Subtitle #13 
ID : 15 
Format : VobSub 
Muxing mode : zlib 
Codec ID : S_VOBSUB 
Codec ID/Info : Picture based subtitle format used on DVDs 
Duration : 1 h 44 min 
Bit rate : 8 620 b/s 
Count of elements : 1262 
Stream size : 6.47 MiB (0%) 
Language : Finnish 
Default : No 
Forced : No 

Subtitle #14 
ID : 16 
Format : VobSub 
Muxing mode : zlib 
Codec ID : S_VOBSUB 
Codec ID/Info : Picture based subtitle format used on DVDs 
Duration : 1 h 44 min 
Bit rate : 8 134 b/s 
Count of elements : 1336 
Stream size : 6.10 MiB (0%) 
Language : French 
Default : No 
Forced : No 

Subtitle #15 
ID : 17 
Format : VobSub 
Muxing mode : zlib 
Codec ID : S_VOBSUB 
Codec ID/Info : Picture based subtitle format used on DVDs 
Duration : 1 h 44 min 
Bit rate : 31 b/s 
Count of elements : 4 
Stream size : 24.5 KiB (0%) 
Language : French 
Default : No 
Forced : Yes 

Subtitle #16 
ID : 18 
Format : VobSub 
Muxing mode : zlib 
Codec ID : S_VOBSUB 
Codec ID/Info : Picture based subtitle format used on DVDs 
Duration : 1 h 44 min 
Bit rate : 11.2 kb/s 
Count of elements : 1429 
Stream size : 8.38 MiB (1%) 
Language : German 
Default : No 
Forced : No 

Subtitle #17 
ID : 19 
Format : VobSub 
Muxing mode : zlib 
Codec ID : S_VOBSUB 
Codec ID/Info : Picture based subtitle format used on DVDs 
Duration : 1 h 44 min 
Bit rate : 181 b/s 
Count of elements : 25 
Stream size : 139 KiB (0%) 
Language : German 
Default : No 
Forced : Yes 

Subtitle #18 
ID : 20 
Format : VobSub 
Muxing mode : zlib 
Codec ID : S_VOBSUB 
Codec ID/Info : Picture based subtitle format used on DVDs 
Duration : 1 h 37 min 
Bit rate : 11.0 kb/s 
Count of elements : 1326 
Stream size : 7.69 MiB (1%) 
Language : Greek 
Default : No 
Forced : No 

Subtitle #19 
ID : 21 
Format : VobSub 
Muxing mode : zlib 
Codec ID : S_VOBSUB 
Codec ID/Info : Picture based subtitle format used on DVDs 
Duration : 1 h 44 min 
Bit rate : 9 421 b/s 
Count of elements : 1349 
Stream size : 7.07 MiB (0%) 
Language : Hungarian 
Default : No 
Forced : No 

Subtitle #20 
ID : 22 
Format : VobSub 
Muxing mode : zlib 
Codec ID : S_VOBSUB 
Codec ID/Info : Picture based subtitle format used on DVDs 
Duration : 1 h 44 min 
Bit rate : 154 b/s 
Count of elements : 26 
Stream size : 119 KiB (0%) 
Language : Hungarian 
Default : No 
Forced : Yes 

Subtitle #21 
ID : 23 
Format : VobSub 
Muxing mode : zlib 
Codec ID : S_VOBSUB 
Codec ID/Info : Picture based subtitle format used on DVDs 
Duration : 1 h 44 min 
Bit rate : 10.9 kb/s 
Count of elements : 1470 
Stream size : 8.15 MiB (1%) 
Language : Italian 
Default : No 
Forced : No 

Subtitle #22 
ID : 24 
Format : VobSub 
Muxing mode : zlib 
Codec ID : S_VOBSUB 
Codec ID/Info : Picture based subtitle format used on DVDs 
Duration : 1 h 45 min 
Bit rate : 8 075 b/s 
Count of elements : 1354 
Stream size : 6.07 MiB (0%) 
Language : Korean 
Default : No 
Forced : No 

Subtitle #23 
ID : 25 
Format : VobSub 
Muxing mode : zlib 
Codec ID : S_VOBSUB 
Codec ID/Info : Picture based subtitle format used on DVDs 
Duration : 1 h 37 min 
Bit rate : 9 297 b/s 
Count of elements : 1475 
Stream size : 6.48 MiB (0%) 
Language : Latvian 
Default : No 
Forced : No 

Subtitle #24 
ID : 26 
Format : VobSub 
Muxing mode : zlib 
Codec ID : S_VOBSUB 
Codec ID/Info : Picture based subtitle format used on DVDs 
Duration : 1 h 37 min 
Bit rate : 10.6 kb/s 
Count of elements : 1475 
Stream size : 7.35 MiB (0%) 
Language : Lithuanian 
Default : No 
Forced : No 

Subtitle #25 
ID : 27 
Format : VobSub 
Muxing mode : zlib 
Codec ID : S_VOBSUB 
Codec ID/Info : Picture based subtitle format used on DVDs 
Duration : 1 h 44 min 
Bit rate : 8 310 b/s 
Count of elements : 1410 
Stream size : 6.23 MiB (0%) 
Language : Norwegian Bokmal 
Default : No 
Forced : No 

Subtitle #26 
ID : 28 
Format : VobSub 
Muxing mode : zlib 
Codec ID : S_VOBSUB 
Codec ID/Info : Picture based subtitle format used on DVDs 
Duration : 1 h 44 min 
Bit rate : 8 984 b/s 
Count of elements : 1405 
Stream size : 6.74 MiB (0%) 
Language : Polish 
Default : No 
Forced : No 

Subtitle #27 
ID : 29 
Format : VobSub 
Muxing mode : zlib 
Codec ID : S_VOBSUB 
Codec ID/Info : Picture based subtitle format used on DVDs 
Duration : 1 h 44 min 
Bit rate : 203 b/s 
Count of elements : 29 
Stream size : 156 KiB (0%) 
Language : Polish 
Default : No 
Forced : Yes 

Subtitle #28 
ID : 30 
Format : VobSub 
Muxing mode : zlib 
Codec ID : S_VOBSUB 
Codec ID/Info : Picture based subtitle format used on DVDs 
Duration : 1 h 44 min 
Bit rate : 9 350 b/s 
Count of elements : 1219 
Stream size : 7.01 MiB (0%) 
Language : Portuguese 
Default : No 
Forced : No 

Subtitle #29 
ID : 31 
Format : VobSub 
Muxing mode : zlib 
Codec ID : S_VOBSUB 
Codec ID/Info : Picture based subtitle format used on DVDs 
Duration : 1 h 44 min 
Bit rate : 110 b/s 
Count of elements : 14 
Stream size : 84.7 KiB (0%) 
Language : Portuguese 
Default : No 
Forced : Yes 

Subtitle #30 
ID : 32 
Format : VobSub 
Muxing mode : zlib 
Codec ID : S_VOBSUB 
Codec ID/Info : Picture based subtitle format used on DVDs 
Duration : 1 h 44 min 
Bit rate : 10.0 kb/s 
Count of elements : 1415 
Stream size : 7.51 MiB (1%) 
Language : Romanian 
Default : No 
Forced : No 

Subtitle #31 
ID : 33 
Format : VobSub 
Muxing mode : zlib 
Codec ID : S_VOBSUB 
Codec ID/Info : Picture based subtitle format used on DVDs 
Duration : 1 h 37 min 
Bit rate : 10.8 kb/s 
Count of elements : 1463 
Stream size : 7.53 MiB (1%) 
Language : Russian 
Default : No 
Forced : No 

Subtitle #32 
ID : 34 
Format : VobSub 
Muxing mode : zlib 
Codec ID : S_VOBSUB 
Codec ID/Info : Picture based subtitle format used on DVDs 
Duration : 1 h 28 min 
Bit rate : 160 b/s 
Count of elements : 22 
Stream size : 104 KiB (0%) 
Language : Russian 
Default : No 
Forced : Yes 

Subtitle #33 
ID : 35 
Format : VobSub 
Muxing mode : zlib 
Codec ID : S_VOBSUB 
Codec ID/Info : Picture based subtitle format used on DVDs 
Duration : 1 h 44 min 
Bit rate : 9 724 b/s 
Count of elements : 1437 
Stream size : 7.29 MiB (0%) 
Language : Spanish 
Default : No 
Forced : No 

Subtitle #34 
ID : 36 
Format : VobSub 
Muxing mode : zlib 
Codec ID : S_VOBSUB 
Codec ID/Info : Picture based subtitle format used on DVDs 
Duration : 1 h 44 min 
Bit rate : 164 b/s 
Count of elements : 24 
Stream size : 126 KiB (0%) 
Language : Spanish 
Default : No 
Forced : Yes 

Subtitle #35 
ID : 37 
Format : VobSub 
Muxing mode : zlib 
Codec ID : S_VOBSUB 
Codec ID/Info : Picture based subtitle format used on DVDs 
Duration : 1 h 44 min 
Bit rate : 9 184 b/s 
Count of elements : 1230 
Stream size : 6.89 MiB (0%) 
Language : Spanish 
Default : No 
Forced : No 

Subtitle #36 
ID : 38 
Format : VobSub 
Muxing mode : zlib 
Codec ID : S_VOBSUB 
Codec ID/Info : Picture based subtitle format used on DVDs 
Duration : 1 h 44 min 
Bit rate : 145 b/s 
Count of elements : 24 
Stream size : 112 KiB (0%) 
Language : Spanish 
Default : No 
Forced : Yes 

Subtitle #37 
ID : 39 
Format : VobSub 
Muxing mode : zlib 
Codec ID : S_VOBSUB 
Codec ID/Info : Picture based subtitle format used on DVDs 
Duration : 1 h 45 min 
Bit rate : 8 607 b/s 
Count of elements : 1486 
Stream size : 6.47 MiB (0%) 
Language : Thai 
Default : No 
Forced : No 

Subtitle #38 
ID : 40 
Format : VobSub 
Muxing mode : zlib 
Codec ID : S_VOBSUB 
Codec ID/Info : Picture based subtitle format used on DVDs 
Duration : 1 h 37 min 
Bit rate : 10.5 kb/s 
Count of elements : 1453 
Stream size : 7.30 MiB (0%) 
Language : Turkish 
Default : No 
Forced : No 

Subtitle #39 
ID : 41 
Format : VobSub 
Muxing mode : zlib 
Codec ID : S_VOBSUB 
Codec ID/Info : Picture based subtitle format used on DVDs 
Duration : 1 h 44 min 
Bit rate : 8 555 b/s 
Count of elements : 1400 
Stream size : 6.41 MiB (0%) 
Language : Swedish 
Default : No 
Forced : No 

Subtitle #40 
ID : 42 
Format : VobSub 
Muxing mode : zlib 
Codec ID : S_VOBSUB 
Codec ID/Info : Picture based subtitle format used on DVDs 
Duration : 1 h 44 min 
Bit rate : 64 b/s 
Count of elements : 9 
Stream size : 49.0 KiB (0%) 
Language : French 
Default : No 
Forced : No 

Subtitle #41 
ID : 43 
Format : VobSub 
Muxing mode : zlib 
Codec ID : S_VOBSUB 
Codec ID/Info : Picture based subtitle format used on DVDs 
Duration : 1 h 44 min 
Bit rate : 66 b/s 
Count of elements : 9 
Stream size : 50.7 KiB (0%) 
Language : French 
Default : No 
Forced : Yes 

Subtitle #42 
ID : 44 
Format : VobSub 
Muxing mode : zlib 
Codec ID : S_VOBSUB 
Codec ID/Info : Picture based subtitle format used on DVDs 
Duration : 1 h 45 min 
Bit rate : 149 b/s 
Count of elements : 28 
Stream size : 115 KiB (0%) 
Language : Ukrainian 
Default : No 
Forced : No 

Subtitle #43 
ID : 45 
Format : VobSub 
Muxing mode : zlib 
Codec ID : S_VOBSUB 
Codec ID/Info : Picture based subtitle format used on DVDs 
Duration : 1 h 45 min 
Bit rate : 152 b/s 
Count of elements : 28 
Stream size : 117 KiB (0%) 
Language : Ukrainian 
Default : No 
Forced : Yes 

Subtitle #44 
ID : 46 
Format : UTF-8 
Codec ID : S_TEXT/UTF8 
Codec ID/Info : UTF-8 Plain Text 
Duration : 1 h 37 min 
Bit rate : 84 b/s 
Count of elements : 1442 
Stream size : 60.4 KiB (0%) 
Language : Arabic 
Default : No 
Forced : No 

Subtitle #45 
ID : 47 
Format : UTF-8 
Codec ID : S_TEXT/UTF8 
Codec ID/Info : UTF-8 Plain Text 
Duration : 1 h 40 min 
Bit rate : 103 b/s 
Count of elements : 1059 
Stream size : 75.8 KiB (0%) 
Language : Persian 
Default : No 
Forced : No 

Subtitle #46 
ID : 48 
Format : UTF-8 
Codec ID : S_TEXT/UTF8 
Codec ID/Info : UTF-8 Plain Text 
Duration : 1 h 37 min 
Bit rate : 93 b/s 
Count of elements : 1071 
Stream size : 66.6 KiB (0%) 
Language : Vietnamese 
Default : No 
Forced : No 

Menu 
00:00:00.000 : en:Chapter 1 
00:06:09.577 : en:Chapter 2 
00:11:27.478 : en:Chapter 3 
00:16:58.809 : en:Chapter 4 
00:22:36.229 : en:Chapter 5 
00:31:24.632 : en:Chapter 6 
00:37:36.420 : en:Chapter 7 
00:42:43.018 : en:Chapter 8 
00:48:55.849 : en:Chapter 9 
00:53:58.235 : en:Chapter 10 
00:59:27.772 : en:Chapter 11 
01:05:52.782 : en:Chapter 12 
01:11:56.312 : en:Chapter 13 
01:19:50.619 : en:Chapter 14 
01:27:57.063 : en:Chapter 15 
01:35:30.683 : en:Chapter 16

Screencaps

Download

File: Men in Black 3 2012 (1080p x265 10bit S74 Joy).mkv (1.5 GB)

Download: Google Drive

Leave a Reply

Your email address will not be published. Required fields are marked *