Margaret (2011) (1080p BluRay x265 HEVC 10bit AAC 5.1 Silence)

Info

Image result for Margaret (2011)

Plot: A young woman witnesses a bus accident, and is caught up in the aftermath, where the question of whether or not it was intentional affects many people’s lives.

Encode

Source:

Release: 
MARGARET 2011 BluRay 1080p AVC DTS HD MA5 1 CHDBits

Mediainfo

General 
Format : Matroska 
Format version : Version 4 / Version 2 
File size : 5.28 GiB 
Duration : 2 h 29 min 
Overall bit rate : 5 046 kb/s 
Movie name : Margaret 
Encoded date : UTC 2018-12-18 02:04:12 
Writing application : mkvmerge v20.0.0 ('I Am The Sun') 64-bit 
Writing library : libebml v1.3.5 + libmatroska v1.4.8 
Writing frontend : StaxRip v1.7.0.6 

Video 
ID : 1 
Format : HEVC 
Format/Info : High Efficiency Video Coding 
Format profile : Main [email protected]@Main 
Codec ID : V_MPEGH/ISO/HEVC 
Duration : 2 h 29 min 
Bit rate : 4 700 kb/s 
Width : 1 920 pixels 
Height : 1 032 pixels 
Display aspect ratio : 1.85:1 
Frame rate mode : Constant 
Frame rate : 23.976 (24000/1001) FPS 
Color space : YUV 
Chroma subsampling : 4:2:0 
Bit depth : 10 bits 
Bits/(Pixel*Frame) : 0.099 
Stream size : 4.92 GiB (93%) 
Writing library : x265 2.9+8-27d8424c799d:[Windows][MSVC 1900][64 bit] 10bit 
Encoding settings : cpuid=1111039 / frame-threads=4 / numa-pools=16 / wpp / no-pmode / no-pme / no-psnr / no-ssim / log-level=2 / input-csp=1 / input-res=1920x1032 / interlace=0 / total-frames=215617 / level-idc=0 / high-tier=1 / uhd-bd=0 / ref=4 / no-allow-non-conformance / no-repeat-headers / annexb / no-aud / no-hrd / info / hash=0 / no-temporal-layers / open-gop / min-keyint=23 / keyint=250 / gop-lookahead=0 / bframes=8 / b-adapt=2 / b-pyramid / bframe-bias=0 / rc-lookahead=60 / lookahead-slices=4 / scenecut=40 / radl=0 / no-intra-refresh / ctu=64 / min-cu-size=8 / rect / no-amp / max-tu-size=32 / tu-inter-depth=1 / tu-intra-depth=1 / limit-tu=0 / rdoq-level=2 / dynamic-rd=0.00 / no-ssim-rd / signhide / no-tskip / nr-intra=0 / nr-inter=0 / no-constrained-intra / strong-intra-smoothing / max-merge=3 / limit-refs=3 / limit-modes / me=3 / subme=5 / merange=57 / temporal-mvp / weightp / no-weightb / no-analyze-src-pics / deblock=-3:-3 / no-sao / no-sao-non-deblock / rd=4 / no-early-skip / rskip / no-fast-intra / no-tskip-fast / no-cu-lossless / no-b-intra / no-splitrd-skip / rdpenalty=0 / psy-rd=2.00 / psy-rdoq=1.00 / no-rd-refine / no-lossless / cbqpoffs=0 / crqpoffs=0 / rc=abr / bitrate=4700 / qcomp=0.60 / qpstep=4 / stats-write=0 / stats-read=2 / cplxblur=20.0 / qblur=0.5 / ipratio=1.40 / pbratio=1.30 / aq-mode=3 / aq-strength=1.00 / cutree / zone-count=0 / no-strict-cbr / qg-size=32 / no-rc-grain / qpmax=69 / qpmin=0 / no-const-vbv / sar=0 / overscan=0 / videoformat=5 / range=0 / colorprim=2 / transfer=2 / colormatrix=2 / chromaloc=0 / display-window=0 / max-cll=0,0 / min-luma=0 / max-luma=1023 / log2-max-poc-lsb=8 / vui-timing-info / vui-hrd-info / slices=1 / no-opt-qp-pps / no-opt-ref-list-length-pps / no-multi-pass-opt-rps / scenecut-bias=0.05 / no-opt-cu-delta-qp / no-aq-motion / no-hdr / no-hdr-opt / no-dhdr10-opt / no-idr-recovery-sei / analysis-reuse-level=5 / scale-factor=0 / refine-intra=0 / refine-inter=0 / refine-mv=0 / no-limit-sao / ctu-info=0 / no-lowpass-dct / refine-mv-type=0 / copy-pic=1 / max-ausize-factor=1.0 / no-dynamic-refine / no-single-sei 
Default : Yes 
Forced : No 

Audio 
ID : 2 
Format : AAC 
Format/Info : Advanced Audio Codec 
Format profile : LC 
Codec ID : A_AAC 
Duration : 2 h 29 min 
Bit rate : 316 kb/s 
Channel(s) : 6 channels 
Channel positions : Front: L C R, Side: L R, LFE 
Sampling rate : 48.0 kHz 
Frame rate : 46.875 FPS (1024 spf) 
Compression mode : Lossy 
Delay relative to video : 20 ms 
Stream size : 338 MiB (6%) 
Language : English 
Default : Yes 
Forced : No 

Subtitle #1 
ID : 3 
Format : PGS 
Muxing mode : zlib 
Codec ID : S_HDMV/PGS 
Codec ID/Info : Picture based subtitle format used on BDs/HD-DVDs 
Duration : 2 h 26 min 
Bit rate : 55.8 kb/s 
Count of elements : 5300 
Stream size : 58.4 MiB (1%) 
Language : English 
Default : No 
Forced : No 

Subtitle #2 
ID : 4 
Format : PGS 
Muxing mode : zlib 
Codec ID : S_HDMV/PGS 
Codec ID/Info : Picture based subtitle format used on BDs/HD-DVDs 
Duration : 2 h 26 min 
Bit rate : 44.3 kb/s 
Count of elements : 4304 
Stream size : 46.4 MiB (1%) 
Language : Spanish 
Default : No 
Forced : No 

Subtitle #3 
ID : 5 
Format : PGS 
Muxing mode : zlib 
Codec ID : S_HDMV/PGS 
Codec ID/Info : Picture based subtitle format used on BDs/HD-DVDs 
Duration : 2 h 6 min 
Bit rate : 164 b/s 
Count of elements : 18 
Stream size : 152 KiB (0%) 
Language : Spanish 
Default : No 
Forced : No 

Subtitle #4 
ID : 6 
Format : PGS 
Muxing mode : zlib 
Codec ID : S_HDMV/PGS 
Codec ID/Info : Picture based subtitle format used on BDs/HD-DVDs 
Duration : 2 h 6 min 
Bit rate : 178 b/s 
Count of elements : 18 
Stream size : 165 KiB (0%) 
Language : French 
Default : No 
Forced : No 

Subtitle #5 
ID : 7 
Format : PGS 
Muxing mode : zlib 
Codec ID : S_HDMV/PGS 
Codec ID/Info : Picture based subtitle format used on BDs/HD-DVDs 
Duration : 2 h 6 min 
Bit rate : 178 b/s 
Count of elements : 18 
Stream size : 165 KiB (0%) 
Language : French 
Default : No 
Forced : No 

Menu 
00:00:00.000 : en:Chapter 01 
00:03:22.785 : en:Chapter 02 
00:07:26.821 : en:Chapter 03 
00:11:03.496 : en:Chapter 04 
00:18:16.553 : en:Chapter 05 
00:20:57.339 : en:Chapter 06 
00:23:53.515 : en:Chapter 07 
00:28:26.079 : en:Chapter 08 
00:32:19.687 : en:Chapter 09 
00:36:02.618 : en:Chapter 10 
00:40:28.008 : en:Chapter 11 
00:46:35.626 : en:Chapter 12 
00:55:33.038 : en:Chapter 13 
00:57:45.295 : en:Chapter 14 
01:03:12.288 : en:Chapter 15 
01:08:06.207 : en:Chapter 16 
01:16:32.546 : en:Chapter 17 
01:19:58.752 : en:Chapter 18 
01:23:58.324 : en:Chapter 19 
01:27:29.494 : en:Chapter 20 
01:33:12.587 : en:Chapter 21 
01:36:44.507 : en:Chapter 22 
01:40:20.389 : en:Chapter 23 
01:46:37.766 : en:Chapter 24 
01:50:50.769 : en:Chapter 25 
01:53:29.052 : en:Chapter 26 
01:57:58.488 : en:Chapter 27 
02:02:30.551 : en:Chapter 28 
02:05:55.798 : en:Chapter 29 
02:07:25.262 : en:Chapter 30 
02:09:19.251 : en:Chapter 31 
02:12:54.508 : en:Chapter 32 
02:18:00.146 : en:Chapter 33 
02:19:47.670 : en:Chapter 34 
02:21:30.690 : en:Chapter 35 
02:26:52.804 : en:Chapter 36

Screencaps

Download

File: Margaret (2011) (1080p BluRay x265 Silence).mkv (5.3 GB)

Download: Google Drive

Leave a Reply

Your email address will not be published. Required fields are marked *