Mardaani (2014) (1080p BluRay x265 HEVC 10bit AAC 5.1 Hindi Natty)

Info

Image result for Mardaani (2014)

Plot: A story of Shivani Shivaji Roy, Crime Branch, who sets out to confront the mastermind behind a child trafficking mafia.

Encode

Source:

Release: 
Mardaani.2014.Complete.Bluray.AVC.Dolby.TrueHD.5.1-DTOne

Mediainfo

General 
Format : Matroska 
Format version : Version 4 / Version 2 
File size : 1.88 GiB 
Duration : 1 h 54 min 
Overall bit rate : 2 362 kb/s 
Encoded date : UTC 2018-12-15 02:36:37 
Writing application : mkvmerge v29.0.0 ('Like It Or Not') 64-bit 
Writing library : libebml v1.3.6 + libmatroska v1.4.9 
Writing frontend : Natty 

Video 
ID : 1 
Format : HEVC 
Format/Info : High Efficiency Video Coding 
Format profile : Main [email protected]@Main 
Codec ID : V_MPEGH/ISO/HEVC 
Duration : 1 h 54 min 
Bit rate : 1 847 kb/s 
Width : 1 920 pixels 
Height : 816 pixels 
Display aspect ratio : 2.35:1 
Frame rate mode : Constant 
Frame rate : 24.000 FPS 
Color space : YUV 
Chroma subsampling : 4:2:0 
Bit depth : 10 bits 
Bits/(Pixel*Frame) : 0.049 
Stream size : 1.47 GiB (78%) 
Writing library : x265 2.9+9-f74003e88622:[Windows][MSVC 1916][64 bit] 10bit 
Encoding settings : cpuid=1111039 / frame-threads=2 / numa-pools=4 / wpp / no-pmode / no-pme / no-psnr / no-ssim / log-level=2 / input-csp=1 / input-res=1920x816 / interlace=0 / total-frames=72004 / level-idc=0 / high-tier=1 / uhd-bd=0 / ref=5 / no-allow-non-conformance / no-repeat-headers / annexb / no-aud / no-hrd / info / hash=0 / no-temporal-layers / open-gop / min-keyint=24 / keyint=400 / gop-lookahead=0 / bframes=8 / b-adapt=2 / b-pyramid / bframe-bias=0 / rc-lookahead=80 / lookahead-slices=4 / scenecut=40 / radl=0 / no-intra-refresh / ctu=32 / min-cu-size=8 / no-rect / no-amp / max-tu-size=16 / tu-inter-depth=1 / tu-intra-depth=1 / limit-tu=0 / rdoq-level=2 / dynamic-rd=0.00 / no-ssim-rd / signhide / no-tskip / nr-intra=0 / nr-inter=0 / no-constrained-intra / no-strong-intra-smoothing / max-merge=2 / limit-refs=3 / limit-modes / me=3 / subme=5 / merange=57 / temporal-mvp / weightp / weightb / no-analyze-src-pics / deblock=-3:0 / no-sao / no-sao-non-deblock / rd=4 / no-early-skip / rskip / no-fast-intra / no-tskip-fast / no-cu-lossless / b-intra / no-splitrd-skip / rdpenalty=0 / psy-rd=2.00 / psy-rdoq=1.00 / no-rd-refine / no-lossless / cbqpoffs=0 / crqpoffs=0 / rc=crf / crf=22.0 / qcomp=0.50 / qpstep=4 / stats-write=0 / stats-read=0 / ipratio=1.40 / pbratio=1.30 / aq-mode=3 / aq-strength=1.00 / cutree / zone-count=0 / no-strict-cbr / qg-size=32 / no-rc-grain / qpmax=69 / qpmin=0 / no-const-vbv / sar=0 / overscan=0 / videoformat=5 / range=0 / colorprim=1 / transfer=1 / colormatrix=1 / chromaloc=0 / display-window=0 / max-cll=0,0 / min-luma=0 / max-luma=1023 / log2-max-poc-lsb=8 / vui-timing-info / vui-hrd-info / slices=1 / no-opt-qp-pps / no-opt-ref-list-length-pps / no-multi-pass-opt-rps / scenecut-bias=0.05 / no-opt-cu-delta-qp / no-aq-motion / no-hdr / no-hdr-opt / no-dhdr10-opt / no-idr-recovery-sei / analysis-reuse-level=8 / scale-factor=0 / refine-intra=0 / refine-inter=0 / refine-mv=0 / no-limit-sao / ctu-info=0 / no-lowpass-dct / refine-mv-type=0 / copy-pic=1 / max-ausize-factor=1.0 / no-dynamic-refine / no-single-sei 
Default : Yes 
Forced : No 
Color range : Limited 
Color primaries : BT.709 
Transfer characteristics : BT.709 
Matrix coefficients : BT.709 

Audio 
ID : 2 
Format : AAC 
Format/Info : Advanced Audio Codec 
Format profile : LC 
Codec ID : A_AAC 
Duration : 1 h 54 min 
Bit rate : 486 kb/s 
Channel(s) : 6 channels 
Channel positions : Front: L C R, Side: L R, LFE 
Sampling rate : 48.0 kHz 
Frame rate : 46.875 FPS (1024 spf) 
Compression mode : Lossy 
Delay relative to video : 20 ms 
Stream size : 397 MiB (21%) 
Language : Hindi 
Default : No 
Forced : No 

Subtitle #1 
ID : 3 
Format : PGS 
Muxing mode : zlib 
Codec ID : S_HDMV/PGS 
Codec ID/Info : Picture based subtitle format used on BDs/HD-DVDs 
Duration : 1 h 48 min 
Bit rate : 39.3 kb/s 
Count of elements : 3340 
Stream size : 30.4 MiB (2%) 
Language : English 
Default : Yes 
Forced : No 

Subtitle #2 
ID : 4 
Format : PGS 
Muxing mode : zlib 
Codec ID : S_HDMV/PGS 
Codec ID/Info : Picture based subtitle format used on BDs/HD-DVDs 
Duration : 1 h 48 min 
Bit rate : 22.6 kb/s 
Count of elements : 3340 
Stream size : 17.5 MiB (1%) 
Language : Arabic 
Default : No 
Forced : No 

Menu 
00:00:00.000 : en:Chapter 01 
00:07:04.458 : en:Chapter 02 
00:12:14.583 : en:Chapter 03 
00:18:18.333 : en:Chapter 04 
00:23:40.333 : en:Chapter 05 
00:29:43.833 : en:Chapter 06 
00:39:57.291 : en:Chapter 07 
00:42:05.041 : en:Chapter 08 
00:50:00.168 : en:Chapter 01 
00:57:27.210 : en:Chapter 02 
01:03:31.293 : en:Chapter 03 
01:12:16.585 : en:Chapter 04 
01:20:16.127 : en:Chapter 05 
01:23:17.418 : en:Chapter 06 
01:31:10.627 : en:Chapter 07 
01:37:47.168 : en:Chapter 08 
01:45:15.877 : en:Chapter 09 
01:49:45.918 : en:Chapter 10

Screencaps

Download

File: Mardaani (2014) (1080p BluRay x265 Natty).mkv (1.9 GB)

Download: Google Drive

Leave a Reply

Your email address will not be published. Required fields are marked *