Maleficent 2014 (1080p Bluray x265 HEVC 10bit AAC 5.1 Tigole)

Info

Image result for Maleficent 2014

Plot: A vengeful fairy is driven to curse an infant princess, only to discover that the child may be the one person who can restore peace to their troubled land.

Mediainfo

General
Unique ID                                : 243933457999175373547229760932997918103 (0xB783E007DAD022538268DC729B666D97)
Complete name                            : Maleficent 2014 (1080p x265 10bit Tigole).mkv
Format                                   : Matroska
Format version                           : Version 4 / Version 2
File size                                : 1.76 GiB
Duration                                 : 1 h 37 min
Overall bit rate                         : 2 586 kb/s
Movie name                               : Maleficent
Encoded date                             : UTC 2016-04-18 11:05:03
Writing application                      : mkvmerge v9.0.1 ('Obstacles') 64bit
Writing library                          : libebml v1.3.3 + libmatroska v1.4.4

Video
ID                                       : 1
Format                                   : HEVC
Format/Info                              : High Efficiency Video Coding
Format profile                           : Main [email protected]@Main
Codec ID                                 : V_MPEGH/ISO/HEVC
Duration                                 : 1 h 37 min
Bit rate                                 : 2 230 kb/s
Width                                    : 1 920 pixels
Height                                   : 800 pixels
Display aspect ratio                     : 2.40:1
Frame rate mode                          : Constant
Frame rate                               : 23.976 (24000/1001) FPS
Color space                              : YUV
Chroma subsampling                       : 4:2:0
Bit depth                                : 10 bits
Bits/(Pixel*Frame)                       : 0.061
Stream size                              : 1.52 GiB (86%)
Writing library                          : x265 1.9+140-34a3d35c5f97:[Windows][GCC 5.3.0][64 bit] 10bit
Encoding settings                        : wpp / ctu=64 / min-cu-size=8 / max-tu-size=32 / tu-intra-depth=1 / tu-inter-depth=1 / me=1 / subme=2 / merange=57 / no-rect / no-amp / max-merge=2 / temporal-mvp / no-early-skip / rdpenalty=0 / no-tskip / no-tskip-fast / strong-intra-smoothing / no-lossless / no-cu-lossless / no-constrained-intra / no-fast-intra / open-gop / no-temporal-layers / interlace=0 / keyint=250 / min-keyint=23 / scenecut=40 / rc-lookahead=20 / lookahead-slices=5 / bframes=4 / bframe-bias=0 / b-adapt=2 / ref=3 / limit-refs=3 / no-limit-modes / weightp / no-weightb / aq-mode=1 / qg-size=32 / aq-strength=1.00 / cbqpoffs=0 / crqpoffs=0 / rd=3 / psy-rd=2.00 / rdoq-level=0 / psy-rdoq=0.00 / no-rd-refine / signhide / deblock=0:0 / sao / no-sao-non-deblock / b-pyramid / cutree / no-intra-refresh / rc=2 / pass / bitrate=2229 / qcomp=0.60 / qpmin=0 / qpmax=51 / qpstep=4 / cplxblur=20.0 / qblur=0.5 / ipratio=1.40 / pbratio=1.30
Default                                  : Yes
Forced                                   : No

Audio
ID                                       : 2
Format                                   : AAC
Format/Info                              : Advanced Audio Codec
Format profile                           : LC
Codec ID                                 : A_AAC
Duration                                 : 1 h 37 min
Bit rate                                 : 339 kb/s
Channel(s)                               : 6 channels
Channel positions                        : Front: L C R, Side: L R, LFE
Sampling rate                            : 48.0 kHz
Frame rate                               : 46.875 FPS (1024 spf)
Compression mode                         : Lossy
Delay relative to video                  : 20 ms
Stream size                              : 237 MiB (13%)
Language                                 : English
Default                                  : No
Forced                                   : No

Text #1
ID                                       : 3
Format                                   : VobSub
Muxing mode                              : zlib
Codec ID                                 : S_VOBSUB
Codec ID/Info                            : Picture based subtitle format used on DVDs
Duration                                 : 1 h 30 min
Bit rate                                 : 4 331 b/s
Count of elements                        : 1038
Stream size                              : 2.81 MiB (0%)
Language                                 : English
Default                                  : No
Forced                                   : No

Text #2
ID                                       : 4
Format                                   : VobSub
Muxing mode                              : zlib
Codec ID                                 : S_VOBSUB
Codec ID/Info                            : Picture based subtitle format used on DVDs
Duration                                 : 1 h 28 min
Bit rate                                 : 3 217 b/s
Count of elements                        : 723
Stream size                              : 2.03 MiB (0%)
Language                                 : French
Default                                  : No
Forced                                   : No

Text #3
ID                                       : 5
Format                                   : VobSub
Muxing mode                              : zlib
Codec ID                                 : S_VOBSUB
Codec ID/Info                            : Picture based subtitle format used on DVDs
Duration                                 : 1 h 29 min
Bit rate                                 : 3 063 b/s
Count of elements                        : 670
Stream size                              : 1.97 MiB (0%)
Language                                 : Dutch
Default                                  : No
Forced                                   : No

Text #4
ID                                       : 6
Format                                   : VobSub
Muxing mode                              : zlib
Codec ID                                 : S_VOBSUB
Codec ID/Info                            : Picture based subtitle format used on DVDs
Duration                                 : 1 h 29 min
Bit rate                                 : 3 243 b/s
Count of elements                        : 737
Stream size                              : 2.07 MiB (0%)
Language                                 : Russian
Default                                  : No
Forced                                   : No

Text #5
ID                                       : 7
Format                                   : VobSub
Muxing mode                              : zlib
Codec ID                                 : S_VOBSUB
Codec ID/Info                            : Picture based subtitle format used on DVDs
Duration                                 : 1 h 27 min
Bit rate                                 : 2 082 b/s
Count of elements                        : 736
Stream size                              : 1.31 MiB (0%)
Language                                 : Arabic
Default                                  : No
Forced                                   : No

Text #6
ID                                       : 8
Format                                   : VobSub
Muxing mode                              : zlib
Codec ID                                 : S_VOBSUB
Codec ID/Info                            : Picture based subtitle format used on DVDs
Duration                                 : 3 s 163 ms
Bit rate                                 : 3 573 b/s
Count of elements                        : 1
Stream size                              : 1.38 KiB (0%)
Language                                 : French
Default                                  : No
Forced                                   : No

Text #7
ID                                       : 9
Format                                   : VobSub
Muxing mode                              : zlib
Codec ID                                 : S_VOBSUB
Codec ID/Info                            : Picture based subtitle format used on DVDs
Duration                                 : 1 min 5 s
Bit rate                                 : 508 b/s
Count of elements                        : 2
Stream size                              : 4.03 KiB (0%)
Language                                 : Russian
Default                                  : No
Forced                                   : No

Menu
00:00:00.000                             : en:Chapter 01
00:03:00.597                             : en:Chapter 02
00:08:10.948                             : en:Chapter 03
00:14:00.756                             : en:Chapter 04
00:19:10.607                             : en:Chapter 05
00:25:59.057                             : en:Chapter 06
00:33:09.737                             : en:Chapter 07
00:38:30.808                             : en:Chapter 08
00:43:21.140                             : en:Chapter 09
00:46:56.104                             : en:Chapter 10
00:51:11.943                             : en:Chapter 11
00:54:18.797                             : en:Chapter 12
00:58:37.722                             : en:Chapter 13
01:01:58.047                             : en:Chapter 14
01:05:09.989                             : en:Chapter 15
01:09:56.775                             : en:Chapter 16
01:15:40.619                             : en:Chapter 17
01:17:43.659                             : en:Chapter 18
01:25:44.931                             : en:Chapter 19
01:28:38.646                             : en:Chapter 20

Download

File: Maleficent 2014 (1080p x265 10bit Tigole).mkv (1.76 GB)

Download: Google Drive

Leave a Reply

Your email address will not be published. Required fields are marked *