Kingdom of Heaven 2005 DC Roadshow (1080p Bluray x265 HEVC 10bit AAC 5.1 Tigole)

Kingdom of Heaven (2005)

Plot: After his wife dies, a blacksmith named Balian is thrust into royalty, political intrigue and bloody holy wars during the Crusades.

IMDb: 7.2/10 – https://www.imdb.com/title/tt0320661

Kingdom of Heaven 2005 Director’s Cut Roadshow in 1080p, encoded with x265 in HEVC and AAC 5.1 English, with subtitles!
Encoded using the time consuming 2 pass, 10 bit color at 2722 kbps, from a Blu-ray source, for the highest quality possible.

Mediainfo
General 
Format : Matroska 
Format version : Version 4 / Version 2 
File size : 4.43 GiB 
Duration : 3 h 13 min 
Overall bit rate : 3 270 kb/s 
Movie name : Kingdom of Heaven 
Encoded date : UTC 2017-05-13 23:42:04 
Writing application : mkvmerge v9.6.0 ('Slave To Your Mind') 64bit 
Writing library : libebml v1.3.4 + libmatroska v1.4.5 

Video 
ID : 1 
Format : HEVC 
Format/Info : High Efficiency Video Coding 
Format profile : Main [email protected]@Main 
Codec ID : V_MPEGH/ISO/HEVC 
Duration : 3 h 13 min 
Bit rate : 2 723 kb/s 
Width : 1 920 pixels 
Height : 818 pixels 
Display aspect ratio : 2.35:1 
Frame rate mode : Constant 
Frame rate : 23.976 (24000/1001) FPS 
Color space : YUV 
Chroma subsampling : 4:2:0 
Bit depth : 10 bits 
Bits/(Pixel*Frame) : 0.072 
Stream size : 3.69 GiB (83%) 
Writing library : x265 2.4+6-fd01abfc7898:[Windows][GCC 6.3.0][64 bit] 10bit 
Encoding settings : cpuid=1173503 / frame-threads=3 / numa-pools=8 / wpp / no-pmode / no-pme / no-psnr / no-ssim / log-level=2 / input-csp=1 / input-res=1920x818 / interlace=0 / total-frames=278947 / level-idc=0 / high-tier=1 / uhd-bd=0 / ref=4 / no-allow-non-conformance / no-repeat-headers / annexb / no-aud / no-hrd / info / hash=0 / no-temporal-layers / open-gop / min-keyint=23 / keyint=250 / bframes=4 / b-adapt=2 / b-pyramid / bframe-bias=0 / rc-lookahead=25 / lookahead-slices=4 / scenecut=40 / no-intra-refresh / ctu=64 / min-cu-size=8 / rect / no-amp / max-tu-size=32 / tu-inter-depth=1 / tu-intra-depth=1 / limit-tu=0 / rdoq-level=2 / dynamic-rd=0.00 / no-ssim-rd / signhide / no-tskip / nr-intra=0 / nr-inter=0 / no-constrained-intra / strong-intra-smoothing / max-merge=3 / limit-refs=3 / limit-modes / me=3 / subme=3 / merange=57 / temporal-mvp / weightp / no-weightb / no-analyze-src-pics / deblock=0:0 / sao / no-sao-non-deblock / rd=4 / no-early-skip / rskip / no-fast-intra / no-tskip-fast / no-cu-lossless / no-b-intra / rdpenalty=0 / psy-rd=2.00 / psy-rdoq=1.00 / no-rd-refine / analysis-mode=0 / no-lossless / cbqpoffs=0 / crqpoffs=0 / rc=abr / bitrate=2722 / qcomp=0.60 / qpstep=4 / stats-write=0 / stats-read=2 / cplxblur=20.0 / qblur=0.5 / ipratio=1.40 / pbratio=1.30 / aq-mode=3 / aq-strength=1.00 / cutree / zone-count=0 / no-strict-cbr / qg-size=32 / no-rc-grain / qpmax=69 / qpmin=0 / sar=0 / overscan=0 / videoformat=5 / range=0 / colorprim=2 / transfer=2 / colormatrix=2 / chromaloc=0 / display-window=0 / max-cll=0,0 / min-luma=0 / max-luma=1023 / log2-max-poc-lsb=8 / vui-timing-info / vui-hrd-info / slices=1 / opt-qp-pps / opt-ref-list-length-pps / no-multi-pass-opt-rps / scenecut-bias=0.05 / no-opt-cu-delta-qp / no-aq-motion / no-hdr / no-hdr-opt / no-dhdr10-opt / refine-level=5 / no-limit-sao 
Default : Yes 
Forced : No 

Audio #1 
ID : 2 
Format : AAC 
Format/Info : Advanced Audio Codec 
Format profile : LC 
Codec ID : A_AAC 
Duration : 3 h 13 min 
Bit rate : 338 kb/s 
Channel(s) : 6 channels 
Channel positions : Front: L C R, Side: L R, LFE 
Sampling rate : 48.0 kHz 
Frame rate : 46.875 FPS (1024 spf) 
Compression mode : Lossy 
Delay relative to video : 20 ms 
Stream size : 469 MiB (10%) 
Language : English 
Default : Yes 
Forced : No 

Audio #2 
ID : 3 
Format : AAC 
Format/Info : Advanced Audio Codec 
Format profile : HE-AAC / LC 
Codec ID : A_AAC 
Duration : 3 h 13 min 
Bit rate : 66.2 kb/s 
Channel(s) : 2 channels 
Channel positions : Front: L R 
Sampling rate : 48.0 kHz / 24.0 kHz 
Frame rate : 23.438 FPS (1024 spf) 
Compression mode : Lossy 
Delay relative to video : 40 ms 
Stream size : 91.2 MiB (2%) 
Title : Commentary 1 
Language : English 
Default : No 
Forced : No 

Audio #3 
ID : 4 
Format : AAC 
Format/Info : Advanced Audio Codec 
Format profile : HE-AAC / LC 
Codec ID : A_AAC 
Duration : 3 h 13 min 
Bit rate : 66.2 kb/s 
Channel(s) : 2 channels 
Channel positions : Front: L R 
Sampling rate : 48.0 kHz / 24.0 kHz 
Frame rate : 23.438 FPS (1024 spf) 
Compression mode : Lossy 
Delay relative to video : 40 ms 
Stream size : 91.2 MiB (2%) 
Title : Commentary 2 
Language : English 
Default : No 
Forced : No 

Audio #4 
ID : 5 
Format : AAC 
Format/Info : Advanced Audio Codec 
Format profile : HE-AAC / LC 
Codec ID : A_AAC 
Duration : 3 h 13 min 
Bit rate : 66.2 kb/s 
Channel(s) : 2 channels 
Channel positions : Front: L R 
Sampling rate : 48.0 kHz / 24.0 kHz 
Frame rate : 23.438 FPS (1024 spf) 
Compression mode : Lossy 
Delay relative to video : 40 ms 
Stream size : 91.3 MiB (2%) 
Title : Commentary 3 
Language : English 
Default : No 
Forced : No 

Text #1 
ID : 6 
Format : VobSub 
Muxing mode : zlib 
Codec ID : S_VOBSUB 
Codec ID/Info : Picture based subtitle format used on DVDs 
Duration : 3 h 3 min 
Bit rate : 3 235 b/s 
Count of elements : 1264 
Stream size : 4.25 MiB (0%) 
Language : English 
Default : No 
Forced : No 

Text #2 
ID : 7 
Format : VobSub 
Muxing mode : zlib 
Codec ID : S_VOBSUB 
Codec ID/Info : Picture based subtitle format used on DVDs 
Duration : 3 h 13 min 
Bit rate : 2 700 b/s 
Count of elements : 978 
Stream size : 3.74 MiB (0%) 
Language : French 
Default : No 
Forced : No 

Text #3 
ID : 8 
Format : VobSub 
Muxing mode : zlib 
Codec ID : S_VOBSUB 
Codec ID/Info : Picture based subtitle format used on DVDs 
Duration : 3 h 13 min 
Bit rate : 2 793 b/s 
Count of elements : 1143 
Stream size : 3.86 MiB (0%) 
Language : Spanish 
Default : No 
Forced : No 

Menu 
00:00:00.000 : en:Chapter 01 
00:02:22.308 : en:Chapter 02 
00:06:11.621 : en:Chapter 03 
00:09:04.377 : en:Chapter 04 
00:11:03.496 : en:Chapter 05 
00:13:18.714 : en:Chapter 06 
00:16:18.978 : en:Chapter 07 
00:19:56.278 : en:Chapter 08 
00:22:19.212 : en:Chapter 09 
00:23:44.423 : en:Chapter 10 
00:25:59.683 : en:Chapter 11 
00:32:25.652 : en:Chapter 12 
00:34:17.764 : en:Chapter 13 
00:36:33.649 : en:Chapter 14 
00:38:15.293 : en:Chapter 15 
00:40:56.662 : en:Chapter 16 
00:43:39.450 : en:Chapter 17 
00:47:36.186 : en:Chapter 18 
00:50:48.378 : en:Chapter 19 
00:53:18.028 : en:Chapter 20 
00:55:59.272 : en:Chapter 21 
00:58:17.452 : en:Chapter 22 
01:00:17.196 : en:Chapter 23 
01:02:56.689 : en:Chapter 24 
01:07:28.210 : en:Chapter 25 
01:11:52.725 : en:Chapter 26 
01:17:51.083 : en:Chapter 27 
01:20:24.319 : en:Chapter 28 
01:21:50.030 : en:Chapter 29 
01:23:09.943 : en:Chapter 30 
01:26:15.503 : en:Chapter 31 
01:31:15.344 : en:Chapter 32 
01:32:29.752 : en:Chapter 33 
01:35:48.409 : en:Chapter 34 
01:39:19.995 : en:Chapter 35 
01:41:33.253 : en:Chapter 36 
01:43:58.315 : en:Chapter 37 
01:47:10.090 : en:Chapter 38 
01:49:35.694 : en:Chapter 39 
01:54:43.084 : en:Chapter 40 
01:59:13.187 : en:Chapter 41 
02:00:49.742 : en:Chapter 42 
02:02:27.173 : en:Chapter 43 
02:06:22.658 : en:Chapter 44 
02:08:27.908 : en:Chapter 45 
02:09:18.542 : en:Chapter 46 
02:12:04.416 : en:Chapter 47 
02:16:05.699 : en:Chapter 48 
02:17:47.300 : en:Chapter 49 
02:20:37.220 : en:Chapter 50 
02:22:30.041 : en:Chapter 51 
02:26:17.143 : en:Chapter 52 
02:28:38.576 : en:Chapter 53 
02:33:15.519 : en:Chapter 54 
02:39:19.466 : en:Chapter 55 
02:41:42.234 : en:Chapter 56 
02:43:40.393 : en:Chapter 57 
02:45:49.064 : en:Chapter 58 
02:49:28.199 : en:Chapter 59 
02:55:13.961 : en:Chapter 60 
02:57:30.306 : en:Chapter 61 
03:00:23.938 : en:Chapter 62 
03:01:40.890 : en:Chapter 63 
03:04:56.835 : en:Chapter 64

[collapse]

File: Kingdom of Heaven 2005 DC Roadshow (1080p x265 10bit Tigole).mkv (4.4 GB)

Download: Google Drive

Leave a Reply

Your email address will not be published. Required fields are marked *