Jurassic Park 1993 (1080p Bluray x265 HEVC 10bit AAC 7.1 Tigole)

Info

Image result for Jurassic Park (1993)

Plot: A wealthy entrepreneur secretly creates a theme park featuring living dinosaurs drawn from prehistoric DNA. Before opening day, he invites a team of experts and his two eager grandchildren to experience the park and help calm anxious investors. However, the park is anything but amusing as the security systems go off-line and the dinosaurs escape.


Mediainfo

General
Unique ID                                : 202891541775289402242791544177152215632 (0x98A37D54E7981781BC836EE46BF7CA50)
Complete name                            : Jurassic Park 1993 (1080p x265 10bit Tigole).mkv
Format                                   : Matroska
Format version                           : Version 4 / Version 2
File size                                : 2.64 GiB
Duration                                 : 2 h 6 min
Overall bit rate                         : 2 986 kb/s
Movie name                               : Jurassic Park
Encoded date                             : UTC 2016-09-09 21:31:47
Writing application                      : mkvmerge v9.2.0 ('Photograph') 64bit
Writing library                          : libebml v1.3.3 + libmatroska v1.4.4

Video
ID                                       : 1
Format                                   : HEVC
Format/Info                              : High Efficiency Video Coding
Format profile                           : Main [email protected]@Main
Codec ID                                 : V_MPEGH/ISO/HEVC
Duration                                 : 2 h 6 min
Bit rate                                 : 2 496 kb/s
Width                                    : 1 920 pixels
Height                                   : 1 040 pixels
Display aspect ratio                     : 1.85:1
Frame rate mode                          : Constant
Frame rate                               : 23.976 (24000/1001) FPS
Color space                              : YUV
Chroma subsampling                       : 4:2:0
Bit depth                                : 10 bits
Bits/(Pixel*Frame)                       : 0.052
Stream size                              : 2.21 GiB (84%)
Writing library                          : x265 2.0+16-215eedc9ecc0:[Windows][GCC 6.1.0][64 bit] 10bit
Encoding settings                        : wpp / ctu=64 / min-cu-size=8 / max-tu-size=32 / tu-intra-depth=1 / tu-inter-depth=1 / me=1 / subme=2 / merange=57 / no-rect / no-amp / max-merge=2 / temporal-mvp / no-early-skip / rskip / rdpenalty=0 / no-tskip / no-tskip-fast / strong-intra-smoothing / no-lossless / no-cu-lossless / no-constrained-intra / no-fast-intra / open-gop / no-temporal-layers / interlace=0 / keyint=250 / min-keyint=23 / scenecut=40 / rc-lookahead=20 / lookahead-slices=6 / bframes=4 / bframe-bias=0 / b-adapt=2 / ref=3 / limit-refs=3 / no-limit-modes / weightp / no-weightb / aq-mode=1 / qg-size=32 / aq-strength=1.00 / cbqpoffs=0 / crqpoffs=0 / rd=3 / psy-rd=2.00 / rdoq-level=0 / psy-rdoq=0.00 / log2-max-poc-lsb=8 / no-rd-refine / signhide / deblock=0:0 / sao / no-sao-non-deblock / b-pyramid / cutree / no-intra-refresh / rc=2 / pass / bitrate=2496 / qcomp=0.60 / qpmin=0 / qpmax=69 / qpstep=4 / cplxblur=20.0 / qblur=0.5 / ipratio=1.40 / pbratio=1.30
Default                                  : Yes
Forced                                   : No

Audio
ID                                       : 2
Format                                   : AAC
Format/Info                              : Advanced Audio Codec
Format profile                           : LC
Codec ID                                 : A_AAC
Duration                                 : 2 h 6 min
Bit rate                                 : 419 kb/s
Channel(s)                               : 8 channels
Channel positions                        : Front: L C R, Side: L R, Back: L R, LFE
Sampling rate                            : 48.0 kHz
Frame rate                               : 46.875 FPS (1024 spf)
Compression mode                         : Lossy
Delay relative to video                  : 20 ms
Stream size                              : 379 MiB (14%)
Language                                 : English
Default                                  : Yes
Forced                                   : No

Text #1
ID                                       : 3
Format                                   : VobSub
Muxing mode                              : zlib
Codec ID                                 : S_VOBSUB
Codec ID/Info                            : Picture based subtitle format used on DVDs
Duration                                 : 2 h 1 min
Bit rate                                 : 6 017 b/s
Count of elements                        : 1420
Stream size                              : 5.23 MiB (0%)
Language                                 : English
Default                                  : No
Forced                                   : No

Text #2
ID                                       : 4
Format                                   : VobSub
Muxing mode                              : zlib
Codec ID                                 : S_VOBSUB
Codec ID/Info                            : Picture based subtitle format used on DVDs
Duration                                 : 1 h 56 min
Bit rate                                 : 3 583 b/s
Count of elements                        : 1046
Stream size                              : 3.00 MiB (0%)
Language                                 : Japanese
Default                                  : No
Forced                                   : No

Text #3
ID                                       : 5
Format                                   : VobSub
Muxing mode                              : zlib
Codec ID                                 : S_VOBSUB
Codec ID/Info                            : Picture based subtitle format used on DVDs
Duration                                 : 2 h 5 min
Bit rate                                 : 4 674 b/s
Count of elements                        : 1144
Stream size                              : 4.18 MiB (0%)
Language                                 : French
Default                                  : No
Forced                                   : No

Text #4
ID                                       : 6
Format                                   : VobSub
Muxing mode                              : zlib
Codec ID                                 : S_VOBSUB
Codec ID/Info                            : Picture based subtitle format used on DVDs
Duration                                 : 2 h 5 min
Bit rate                                 : 4 768 b/s
Count of elements                        : 1142
Stream size                              : 4.26 MiB (0%)
Language                                 : Italian
Default                                  : No
Forced                                   : No

Text #5
ID                                       : 7
Format                                   : VobSub
Muxing mode                              : zlib
Codec ID                                 : S_VOBSUB
Codec ID/Info                            : Picture based subtitle format used on DVDs
Duration                                 : 2 h 5 min
Bit rate                                 : 5 286 b/s
Count of elements                        : 1140
Stream size                              : 4.73 MiB (0%)
Language                                 : German
Default                                  : No
Forced                                   : No

Text #6
ID                                       : 8
Format                                   : VobSub
Muxing mode                              : zlib
Codec ID                                 : S_VOBSUB
Codec ID/Info                            : Picture based subtitle format used on DVDs
Duration                                 : 2 h 4 min
Bit rate                                 : 132 b/s
Count of elements                        : 37
Stream size                              : 121 KiB (0%)
Title                                    : Forced
Language                                 : German
Default                                  : No
Forced                                   : No

Text #7
ID                                       : 9
Format                                   : VobSub
Muxing mode                              : zlib
Codec ID                                 : S_VOBSUB
Codec ID/Info                            : Picture based subtitle format used on DVDs
Duration                                 : 2 h 5 min
Bit rate                                 : 4 959 b/s
Count of elements                        : 1145
Stream size                              : 4.43 MiB (0%)
Language                                 : Spanish
Default                                  : No
Forced                                   : No

Text #8
ID                                       : 10
Format                                   : VobSub
Muxing mode                              : zlib
Codec ID                                 : S_VOBSUB
Codec ID/Info                            : Picture based subtitle format used on DVDs
Duration                                 : 2 h 5 min
Bit rate                                 : 4 992 b/s
Count of elements                        : 1140
Stream size                              : 4.46 MiB (0%)
Language                                 : Dutch
Default                                  : No
Forced                                   : No

Text #9
ID                                       : 11
Format                                   : VobSub
Muxing mode                              : zlib
Codec ID                                 : S_VOBSUB
Codec ID/Info                            : Picture based subtitle format used on DVDs
Duration                                 : 2 h 5 min
Bit rate                                 : 4 188 b/s
Count of elements                        : 1148
Stream size                              : 3.75 MiB (0%)
Language                                 : Chinese
Default                                  : No
Forced                                   : No

Text #10
ID                                       : 12
Format                                   : VobSub
Muxing mode                              : zlib
Codec ID                                 : S_VOBSUB
Codec ID/Info                            : Picture based subtitle format used on DVDs
Duration                                 : 2 h 5 min
Bit rate                                 : 4 341 b/s
Count of elements                        : 1125
Stream size                              : 3.88 MiB (0%)
Language                                 : Danish
Default                                  : No
Forced                                   : No

Text #11
ID                                       : 13
Format                                   : VobSub
Muxing mode                              : zlib
Codec ID                                 : S_VOBSUB
Codec ID/Info                            : Picture based subtitle format used on DVDs
Duration                                 : 2 h 5 min
Bit rate                                 : 4 173 b/s
Count of elements                        : 1142
Stream size                              : 3.73 MiB (0%)
Language                                 : Finnish
Default                                  : No
Forced                                   : No

Text #12
ID                                       : 14
Format                                   : VobSub
Muxing mode                              : zlib
Codec ID                                 : S_VOBSUB
Codec ID/Info                            : Picture based subtitle format used on DVDs
Duration                                 : 2 h 5 min
Bit rate                                 : 4 975 b/s
Count of elements                        : 1142
Stream size                              : 4.45 MiB (0%)
Language                                 : Icelandic
Default                                  : No
Forced                                   : No

Text #13
ID                                       : 15
Format                                   : VobSub
Muxing mode                              : zlib
Codec ID                                 : S_VOBSUB
Codec ID/Info                            : Picture based subtitle format used on DVDs
Duration                                 : 2 h 5 min
Bit rate                                 : 4 010 b/s
Count of elements                        : 1150
Stream size                              : 3.61 MiB (0%)
Language                                 : Korean
Default                                  : No
Forced                                   : No

Text #14
ID                                       : 16
Format                                   : VobSub
Muxing mode                              : zlib
Codec ID                                 : S_VOBSUB
Codec ID/Info                            : Picture based subtitle format used on DVDs
Duration                                 : 2 h 5 min
Bit rate                                 : 4 471 b/s
Count of elements                        : 1141
Stream size                              : 4.00 MiB (0%)
Language                                 : Norwegian Bokmal
Default                                  : No
Forced                                   : No

Text #15
ID                                       : 17
Format                                   : VobSub
Muxing mode                              : zlib
Codec ID                                 : S_VOBSUB
Codec ID/Info                            : Picture based subtitle format used on DVDs
Duration                                 : 2 h 5 min
Bit rate                                 : 5 067 b/s
Count of elements                        : 1145
Stream size                              : 4.56 MiB (0%)
Language                                 : Portuguese
Default                                  : No
Forced                                   : No

Text #16
ID                                       : 18
Format                                   : VobSub
Muxing mode                              : zlib
Codec ID                                 : S_VOBSUB
Codec ID/Info                            : Picture based subtitle format used on DVDs
Duration                                 : 2 h 5 min
Bit rate                                 : 4 139 b/s
Count of elements                        : 1140
Stream size                              : 3.70 MiB (0%)
Language                                 : Swedish
Default                                  : No
Forced                                   : No

Menu
00:00:00.000                             : en:Chapter 01
00:05:19.777                             : en:Chapter 02
00:10:14.363                             : en:Chapter 03
00:15:16.665                             : en:Chapter 04
00:19:32.880                             : en:Chapter 05
00:23:46.800                             : en:Chapter 06
00:31:40.148                             : en:Chapter 07
00:37:59.193                             : en:Chapter 08
00:40:26.465                             : en:Chapter 09
00:55:28.033                             : en:Chapter 10
01:01:43.241                             : en:Chapter 11
01:10:43.781                             : en:Chapter 12
01:20:01.129                             : en:Chapter 13
01:34:03.971                             : en:Chapter 14
01:39:45.145                             : en:Chapter 15
01:43:43.175                             : en:Chapter 16
01:47:56.845                             : en:Chapter 17
01:54:45.336                             : en:Chapter 18
01:58:04.410                             : en:Chapter 19
01:59:55.605                             : en:Chapter 20

Download

File: Jurassic Park 1993 (1080p x265 10bit Tigole).mkv (2.64 GB)

Download: Google Drive

Featurettes: Google Drive

Leave a Reply

Your email address will not be published. Required fields are marked *