Interview With The Vampire: The Vampire Chronicles (1994) (1080p BluRay x265 HEVC 10bit AAC 5.1 afm72)

Info

Image result for Interview With The Vampire - The Vampire Chronicles (1994) imdb

Plot: A vampire relates his epic life story of love, betrayal, loneliness, and dark hunger to an over-curious reporter.

Encode

Source:

Release: 
Interview with the Vampire_ The Vampire Chronicles 1994 1080p CEE Blu-ray VC-1 DTS-HD MA 5.1-HDCLUB

Mediainfo

General 
Format : Matroska 
Format version : Version 4 / Version 2 
File size : 5.27 GiB 
Duration : 2 h 2 min 
Overall bit rate : 6 151 kb/s 
Movie name : Interview with the Vampire: The Vampire Chronicles (1994) 
Encoded date : UTC 2018-12-21 13:31:45 
Writing application : mkvmerge v29.0.0 ('Like It Or Not') 64-bit 
Writing library : libebml v1.3.6 + libmatroska v1.4.9 
Cover : Yes 
Attachments : cover.jpg 
Writing frontend : StaxRip v1.9.0.0 

Video 
ID : 1 
Format : HEVC 
Format/Info : High Efficiency Video Coding 
Format profile : Main [email protected]@Main 
Codec ID : V_MPEGH/ISO/HEVC 
Duration : 2 h 2 min 
Bit rate : 5 597 kb/s 
Width : 1 920 pixels 
Height : 1 080 pixels 
Display aspect ratio : 16:9 
Frame rate mode : Constant 
Frame rate : 23.976 (24000/1001) FPS 
Color space : YUV 
Chroma subsampling : 4:2:0 
Bit depth : 10 bits 
Bits/(Pixel*Frame) : 0.113 
Stream size : 4.79 GiB (91%) 
Writing library : x265 2.9+8-27d8424c799d:[Windows][GCC 8.2.0][64 bit] 10bit 
Encoding settings : cpuid=1049583 / frame-threads=3 / numa-pools=8 / wpp / no-pmode / no-pme / no-psnr / no-ssim / log-level=2 / input-csp=1 / input-res=1920x1080 / interlace=0 / total-frames=176304 / level-idc=0 / high-tier=1 / uhd-bd=0 / ref=4 / no-allow-non-conformance / no-repeat-headers / annexb / no-aud / no-hrd / info / hash=0 / no-temporal-layers / open-gop / min-keyint=23 / keyint=250 / gop-lookahead=0 / bframes=8 / b-adapt=2 / b-pyramid / bframe-bias=0 / rc-lookahead=80 / lookahead-slices=4 / scenecut=40 / radl=0 / no-intra-refresh / ctu=64 / min-cu-size=8 / rect / no-amp / max-tu-size=32 / tu-inter-depth=1 / tu-intra-depth=1 / limit-tu=0 / rdoq-level=2 / dynamic-rd=0.00 / no-ssim-rd / signhide / no-tskip / nr-intra=0 / nr-inter=0 / no-constrained-intra / no-strong-intra-smoothing / max-merge=3 / limit-refs=3 / limit-modes / me=3 / subme=5 / merange=57 / temporal-mvp / weightp / no-weightb / no-analyze-src-pics / deblock=-3:-3 / no-sao / no-sao-non-deblock / rd=4 / no-early-skip / rskip / no-fast-intra / no-tskip-fast / no-cu-lossless / no-b-intra / no-splitrd-skip / rdpenalty=0 / psy-rd=2.00 / psy-rdoq=1.50 / no-rd-refine / no-lossless / cbqpoffs=0 / crqpoffs=0 / rc=crf / crf=20.0 / qcomp=0.60 / qpstep=4 / stats-write=0 / stats-read=0 / ipratio=1.40 / pbratio=1.30 / aq-mode=3 / aq-strength=1.00 / cutree / zone-count=0 / no-strict-cbr / qg-size=32 / no-rc-grain / qpmax=69 / qpmin=0 / no-const-vbv / sar=0 / overscan=0 / videoformat=5 / range=0 / colorprim=2 / transfer=2 / colormatrix=2 / chromaloc=0 / display-window=0 / max-cll=0,0 / min-luma=0 / max-luma=1023 / log2-max-poc-lsb=8 / vui-timing-info / vui-hrd-info / slices=1 / no-opt-qp-pps / no-opt-ref-list-length-pps / no-multi-pass-opt-rps / scenecut-bias=0.05 / no-opt-cu-delta-qp / aq-motion / no-hdr / no-hdr-opt / no-dhdr10-opt / no-idr-recovery-sei / analysis-reuse-level=5 / scale-factor=0 / refine-intra=0 / refine-inter=0 / refine-mv=0 / no-limit-sao / ctu-info=0 / no-lowpass-dct / refine-mv-type=0 / copy-pic=1 / max-ausize-factor=1.0 / no-dynamic-refine / no-single-sei 
Default : Yes 
Forced : No 

Audio #1 
ID : 2 
Format : AAC 
Format/Info : Advanced Audio Codec 
Format profile : LC 
Codec ID : A_AAC 
Duration : 2 h 2 min 
Bit rate : 459 kb/s 
Channel(s) : 6 channels 
Channel positions : Front: L C R, Side: L R, LFE 
Sampling rate : 48.0 kHz 
Frame rate : 46.875 FPS (1024 spf) 
Compression mode : Lossy 
Delay relative to video : 20 ms 
Stream size : 402 MiB (7%) 
Language : English 
Default : Yes 
Forced : No 

Audio #2 
ID : 3 
Format : AAC 
Format/Info : Advanced Audio Codec 
Format profile : HE-AAC / LC 
Codec ID : A_AAC 
Duration : 2 h 2 min 
Bit rate : 80.0 kb/s 
Channel(s) : 2 channels 
Channel positions : Front: L R 
Sampling rate : 48.0 kHz / 24.0 kHz 
Frame rate : 23.438 FPS (1024 spf) 
Compression mode : Lossy 
Delay relative to video : 40 ms 
Stream size : 70.1 MiB (1%) 
Title : Commentary with director Neil Jordan 
Language : English 
Default : No 
Forced : No 

Subtitle 
ID : 4 
Format : PGS 
Muxing mode : zlib 
Codec ID : S_HDMV/PGS 
Codec ID/Info : Picture based subtitle format used on BDs/HD-DVDs 
Duration : 1 h 59 min 
Bit rate : 24.8 kb/s 
Count of elements : 2664 
Stream size : 21.1 MiB (0%) 
Language : English 
Default : No 
Forced : No 

Menu 
00:00:00.000 : en:Getting Used to Killing 
00:03:01.473 : en:A Cursed Blace Burns 
00:05:51.101 : en:"Take Her, Louis!" 
00:09:30.487 : en:Claudia; "...and So Shall We" 
00:11:23.892 : en:Lestat's Gift; One Happy Family 
00:16:17.226 : en:"You Made Us What We Are" 
00:24:22.002 : en:"Good Night, Sweet Prince" 
00:30:51.767 : en:The Trail of Vulgar Fictions 
00:36:15.340 : en:Alive Again in Paris 
00:40:51.324 : en:Santiago and Armand 
00:50:17.389 : en:A Stage Spectacle of Death 
00:56:40.772 : en:The Source of Evil 
01:08:55.381 : en:A Crime Among Us Vampires 
01:10:29.100 : en:Letting Go? 
01:11:31.704 : en:The Stamina for Immortality 
01:14:11.280 : en:A Mother for Claudia 
01:19:44.571 : en:A Mob of the Undead 
01:23:56.615 : en:Burned By the Light 
01:24:32.484 : en:Merciless Revenge 
01:25:51.897 : en:A Lesson I Don't Care to Learn 
01:30:09.279 : en:Back to the New World 
01:34:13.690 : en:The Scent of Death 
01:36:23.945 : en:"Do You Like Dying?" 
01:40:33.694 : en:A Passenger 
01:43:35.000 : en:A Lesson I Don't Care to Learn 
01:46:00.396 : en:Back to the New World 
01:47:05.836 : en:The Scent of Death 
01:52:49.137 : en:The Interviewer Doesn't Get It 
01:54:47.089 : en:The Interviewer's Passenger (Sympathy for the Devil); End Credits

Screencaps

Download

File: Interview With The Vampire – The Vampire Chronicles (1994) (1080p BluRay x265 afm72).mkv (5.3 GB)

Download: Google Drive

Featurettes: Google Drive

Leave a Reply

Your email address will not be published. Required fields are marked *