Gangster (2006) (1080p BluRay x265 HEVC 10bit AAC 5.1 Hindi Natty)

Info

Plot: Simran drowns her misery in booze. Her one friend in Seoul, is Aakash, a singer in an Indian restaurant. One night, Simran tells Aakash of her past and the reasons for her loneliness. Originally a bar dancer in Mumbai, Simran is the girlfriend of a notorious gangster, Daya, who is a headhunter for hire. After hearing her story Aakash is determined to save Simran from the gangster’s world.

Encode

Source:

Gangster.•.2006.•.BD50.•.Untouched.BluRay.•.T-Series.•.DRs (34 GB) @ Hon3yHD

Mediainfo

General 
Format : Matroska 
Format version : Version 4 / Version 2 
File size : 3.85 GiB 
Duration : 2 h 0 min 
Overall bit rate : 4 579 kb/s 
Movie name : GANGSTER 
Encoded date : UTC 2018-01-08 02:18:27 
Writing application : mkvmerge v19.0.0 ('Brave Captain') 64-bit 
Writing library : libebml v1.3.5 + libmatroska v1.4.8 
Cover : Yes 
Attachments : cover.jpg 
Writing frontend : Natty 

Video 
ID : 1 
Format : HEVC 
Format/Info : High Efficiency Video Coding 
Format profile : Main [email protected]@Main 
Codec ID : V_MPEGH/ISO/HEVC 
Duration : 2 h 0 min 
Bit rate : 3 999 kb/s 
Width : 1 920 pixels 
Height : 820 pixels 
Display aspect ratio : 2.35:1 
Frame rate mode : Constant 
Frame rate : 24.000 FPS 
Color space : YUV 
Chroma subsampling : 4:2:0 
Bit depth : 10 bits 
Bits/(Pixel*Frame) : 0.106 
Stream size : 3.36 GiB (87%) 
Writing library : x265 2.6+24-69cfe46e8a3b:[Windows][MSVC 1900][64 bit] 10bit 
Encoding settings : cpuid=1173503 / frame-threads=2 / numa-pools=4 / wpp / no-pmode / no-pme / no-psnr / no-ssim / log-level=2 / csvfn=D:\Encoding\gangster\GANGSTER_t00_new.csv / csv-log-level=0 / input-csp=1 / input-res=1920x820 / interlace=0 / total-frames=173247 / level-idc=0 / high-tier=1 / uhd-bd=0 / ref=6 / no-allow-non-conformance / no-repeat-headers / annexb / no-aud / no-hrd / info / hash=0 / no-temporal-layers / open-gop / min-keyint=24 / keyint=400 / gop-lookahead=0 / bframes=8 / b-adapt=2 / b-pyramid / bframe-bias=0 / rc-lookahead=100 / lookahead-slices=5 / scenecut=40 / radl=0 / no-intra-refresh / ctu=32 / min-cu-size=8 / no-rect / no-amp / max-tu-size=16 / tu-inter-depth=1 / tu-intra-depth=1 / limit-tu=0 / rdoq-level=2 / dynamic-rd=0.00 / no-ssim-rd / signhide / no-tskip / nr-intra=0 / nr-inter=0 / no-constrained-intra / no-strong-intra-smoothing / max-merge=2 / limit-refs=3 / limit-modes / me=3 / subme=5 / merange=57 / temporal-mvp / weightp / no-weightb / no-analyze-src-pics / deblock=-3:0 / no-sao / no-sao-non-deblock / rd=4 / no-early-skip / rskip / no-fast-intra / no-tskip-fast / no-cu-lossless / no-b-intra / no-splitrd-skip / rdpenalty=0 / psy-rd=2.00 / psy-rdoq=6.00 / no-rd-refine / no-lossless / cbqpoffs=0 / crqpoffs=0 / rc=abr / bitrate=4001 / qcomp=0.90 / qpstep=4 / stats-write=0 / stats-read=2 / cplxblur=20.0 / qblur=0.5 / ipratio=1.40 / pbratio=1.30 / aq-mode=3 / aq-strength=0.90 / cutree / zone-count=0 / no-strict-cbr / qg-size=16 / no-rc-grain / qpmax=69 / qpmin=0 / no-const-vbv / sar=0 / overscan=0 / videoformat=5 / range=0 / colorprim=2 / transfer=2 / colormatrix=2 / chromaloc=0 / display-window=0 / max-cll=0,0 / min-luma=0 / max-luma=1023 / log2-max-poc-lsb=8 / vui-timing-info / vui-hrd-info / slices=1 / no-opt-qp-pps / no-opt-ref-list-length-pps / multi-pass-opt-rps / scenecut-bias=0.05 / no-opt-cu-delta-qp / aq-motion / no-hdr / no-hdr-opt / no-dhdr10-opt / analysis-save=(null) / analysis-load=(null) / analysis-reuse-level=8 / scale-factor=0 / refine-intra=0 / refine-inter=0 / refine-mv=0 / no-limit-sao / ctu-info=0 / no-lowpass-dct / refine-mv-type=0 / copy-pic=1 
Default : Yes 
Forced : No 

Audio 
ID : 2 
Format : AAC 
Format/Info : Advanced Audio Codec 
Format profile : LC 
Codec ID : A_AAC 
Duration : 2 h 0 min 
Bit rate : 576 kb/s 
Channel(s) : 6 channels 
Channel positions : Front: L C R, Side: L R, LFE 
Sampling rate : 48.0 kHz 
Frame rate : 46.875 FPS (1024 spf) 
Compression mode : Lossy 
Delay relative to video : 20 ms 
Stream size : 495 MiB (13%) 
Language : Hindi 
Default : No 
Forced : No 

Subtitle 
ID : 3 
Format : PGS 
Muxing mode : zlib 
Codec ID : S_HDMV/PGS 
Codec ID/Info : Picture based subtitle format used on BDs/HD-DVDs 
Duration : 1 h 58 min 
Bit rate : 17.2 kb/s 
Count of elements : 1508 
Stream size : 14.5 MiB (0%) 
Language : English 
Default : No 
Forced : No 

Menu 
00:00:00.000 : en:Chapter 01 
00:00:13.625 : en:Chapter 02 
00:02:00.541 : en:Chapter 03 
00:09:40.000 : en:Chapter 04 
00:15:38.458 : en:Chapter 05 
00:21:56.000 : en:Chapter 06 
00:22:08.125 : en:Chapter 07 
00:27:21.625 : en:Chapter 08 
00:33:46.916 : en:Chapter 09 
00:39:09.833 : en:Chapter 10 
00:45:33.666 : en:Chapter 11 
00:53:13.000 : en:Chapter 12 
00:58:22.625 : en:Chapter 13 
00:58:28.375 : en:Chapter 14 
01:00:11.625 : en:Chapter 15 
01:02:56.625 : en:Chapter 16 
01:10:51.583 : en:Chapter 17 
01:12:43.458 : en:Chapter 18 
01:17:34.666 : en:Chapter 19 
01:20:19.500 : en:Chapter 20 
01:21:20.333 : en:Chapter 21 
01:27:39.416 : en:Chapter 22 
01:30:58.458 : en:Chapter 23 
01:38:26.625 : en:Chapter 24 
01:38:41.833 : en:Chapter 25 
01:53:44.291 : en:Chapter 26 
01:55:22.541 : en:Chapter 27

Screencaps

Download

File: Gangster (2006) (1080p BluRay x265 Natty).mkv (3.9 GB)

Download: Google Drive

1 thought on “Gangster (2006) (1080p BluRay x265 HEVC 10bit AAC 5.1 Hindi Natty)

Leave a Reply

Your email address will not be published. Required fields are marked *