Ex Machina (2015) (1080p BluRay x265 HEVC 10bit AAC 5.1 afm72)

Info

Image result for Ex Machina (2015)

Plot: Caleb, a 24 year old coder at the world’s largest internet company, wins a competition to spend a week at a private mountain retreat belonging to Nathan, the reclusive CEO of the company. But when Caleb arrives at the remote location he finds that he will have to participate in a strange and fascinating experiment in which he must interact with the world’s first true artificial intelligence, housed in the body of a beautiful robot girl.


Mediainfo

General 
Format : Matroska 
Format version : Version 4 / Version 2 
File size : 3.93 GiB 
Duration : 1 h 48 min 
Overall bit rate : 5 208 kb/s 
Encoded date : UTC 2018-12-08 22:22:51 
Writing application : mkvmerge v29.0.0 ('Like It Or Not') 64-bit 
Writing library : libebml v1.3.6 + libmatroska v1.4.9 
Writing frontend : StaxRip v1.9.0.0 

Video 
ID : 1 
Format : HEVC 
Format/Info : High Efficiency Video Coding 
Format profile : Main [email protected]@Main 
Codec ID : V_MPEGH/ISO/HEVC 
Duration : 1 h 48 min 
Bit rate : 4 829 kb/s 
Width : 1 920 pixels 
Height : 804 pixels 
Display aspect ratio : 2.40:1 
Frame rate mode : Constant 
Frame rate : 23.976 (24000/1001) FPS 
Color space : YUV 
Chroma subsampling : 4:2:0 
Bit depth : 10 bits 
Bits/(Pixel*Frame) : 0.130 
Stream size : 3.64 GiB (93%) 
Writing library : x265 2.9+9-f74003e88622:[Windows][GCC 8.2.0][64 bit] 10bit 
Encoding settings : cpuid=1111039 / frame-threads=3 / numa-pools=8 / wpp / no-pmode / no-pme / no-psnr / no-ssim / log-level=2 / input-csp=1 / input-res=1920x804 / interlace=0 / total-frames=155385 / level-idc=0 / high-tier=1 / uhd-bd=0 / ref=4 / no-allow-non-conformance / no-repeat-headers / annexb / no-aud / no-hrd / info / hash=0 / no-temporal-layers / open-gop / min-keyint=23 / keyint=250 / gop-lookahead=0 / bframes=8 / b-adapt=2 / b-pyramid / bframe-bias=0 / rc-lookahead=80 / lookahead-slices=4 / scenecut=40 / radl=0 / no-intra-refresh / ctu=64 / min-cu-size=8 / no-rect / no-amp / max-tu-size=32 / tu-inter-depth=1 / tu-intra-depth=1 / limit-tu=0 / rdoq-level=2 / dynamic-rd=0.00 / no-ssim-rd / signhide / no-tskip / nr-intra=0 / nr-inter=0 / no-constrained-intra / no-strong-intra-smoothing / max-merge=3 / limit-refs=3 / limit-modes / me=3 / subme=5 / merange=57 / temporal-mvp / weightp / no-weightb / no-analyze-src-pics / deblock=-3:-3 / no-sao / no-sao-non-deblock / rd=4 / no-early-skip / rskip / no-fast-intra / no-tskip-fast / no-cu-lossless / no-b-intra / no-splitrd-skip / rdpenalty=0 / psy-rd=2.00 / psy-rdoq=1.00 / no-rd-refine / no-lossless / cbqpoffs=0 / crqpoffs=0 / rc=crf / crf=18.0 / qcomp=0.60 / qpstep=4 / stats-write=0 / stats-read=0 / ipratio=1.40 / pbratio=1.30 / aq-mode=3 / aq-strength=1.00 / cutree / zone-count=0 / no-strict-cbr / qg-size=32 / no-rc-grain / qpmax=69 / qpmin=0 / no-const-vbv / sar=0 / overscan=0 / videoformat=5 / range=0 / colorprim=2 / transfer=2 / colormatrix=2 / chromaloc=0 / display-window=0 / max-cll=0,0 / min-luma=0 / max-luma=1023 / log2-max-poc-lsb=8 / vui-timing-info / vui-hrd-info / slices=1 / no-opt-qp-pps / no-opt-ref-list-length-pps / no-multi-pass-opt-rps / scenecut-bias=0.05 / no-opt-cu-delta-qp / no-aq-motion / no-hdr / no-hdr-opt / no-dhdr10-opt / no-idr-recovery-sei / analysis-reuse-level=5 / scale-factor=0 / refine-intra=0 / refine-inter=0 / refine-mv=0 / no-limit-sao / ctu-info=0 / no-lowpass-dct / refine-mv-type=0 / copy-pic=1 / max-ausize-factor=1.0 / no-dynamic-refine / no-single-sei 
Default : Yes 
Forced : No 

Audio 
ID : 2 
Format : AAC 
Format/Info : Advanced Audio Codec 
Format profile : LC 
Codec ID : A_AAC 
Duration : 1 h 48 min 
Bit rate : 367 kb/s 
Channel(s) : 6 channels 
Channel positions : Front: L C R, Side: L R, LFE 
Sampling rate : 48.0 kHz 
Frame rate : 46.875 FPS (1024 spf) 
Compression mode : Lossy 
Delay relative to video : 20 ms 
Stream size : 284 MiB (7%) 
Language : English 
Default : No 
Forced : No 

Subtitle 
ID : 3 
Format : PGS 
Muxing mode : zlib 
Codec ID : S_HDMV/PGS 
Codec ID/Info : Picture based subtitle format used on BDs/HD-DVDs 
Duration : 1 h 38 min 
Bit rate : 32.5 kb/s 
Count of elements : 2497 
Stream size : 23.0 MiB (1%) 
Language : English 
Default : No 
Forced : No 

Menu 
00:00:00.000 : en:00:00:00.000 
00:04:34.941 : en:00:04:34.941 
00:11:16.634 : en:00:11:16.634 
00:15:08.157 : en:00:15:08.157 
00:23:38.751 : en:00:23:38.751 
00:31:57.999 : en:00:31:57.999 
00:36:05.163 : en:00:36:05.163 
00:40:26.758 : en:00:40:26.758 
00:45:56.379 : en:00:45:56.379 
00:53:28.956 : en:00:53:28.956 
01:00:26.081 : en:01:00:26.081 
01:04:01.254 : en:01:04:01.254 
01:07:19.077 : en:01:07:19.077 
01:13:22.023 : en:01:13:22.023 
01:16:56.111 : en:01:16:56.111 
01:21:36.517 : en:01:21:36.517 
01:27:36.835 : en:01:27:36.835 
01:32:54.152 : en:01:32:54.152 
01:38:51.008 : en:01:38:51.008 
01:42:26.932 : en:01:42:26.932

Screencaps

Download

File: Ex Machina (2015) (1080p BluRay x265 afm72).mkv (3.9 GB)

Download: Google Drive

Featurettes: Google Drive

1 thought on “Ex Machina (2015) (1080p BluRay x265 HEVC 10bit AAC 5.1 afm72)

Leave a Reply

Your email address will not be published. Required fields are marked *