Django Unchained 2012 (1080p Bluray x265 HEVC 10bit AAC 5.1 Tigole)

Info

Image result for Django Unchained 2012 poster

Plot: With the help of a German bounty hunter, a freed slave sets out to rescue his wife from a brutal Mississippi plantation owner.

Mediainfo

General
Unique ID                                : 206825339489081232300690738076071415830 (0x9B991C8883121E1E9834CF4C9C42D016)
Complete name                            : Django Unchained 2012 (1080p x265 10bit Tigole).mkv
Format                                   : Matroska
Format version                           : Version 4 / Version 2
File size                                : 3.28 GiB
Duration                                 : 2 h 45 min
Overall bit rate                         : 2 843 kb/s
Movie name                               : Django Unchained
Encoded date                             : UTC 2016-10-02 08:00:38
Writing application                      : mkvmerge v9.2.0 ('Photograph') 64bit
Writing library                          : libebml v1.3.3 + libmatroska v1.4.4

Video
ID                                       : 1
Format                                   : HEVC
Format/Info                              : High Efficiency Video Coding
Format profile                           : Main [email protected]@Main
Codec ID                                 : V_MPEGH/ISO/HEVC
Duration                                 : 2 h 45 min
Bit rate                                 : 2 485 kb/s
Width                                    : 1 920 pixels
Height                                   : 800 pixels
Display aspect ratio                     : 2.40:1
Frame rate mode                          : Constant
Frame rate                               : 23.976 (24000/1001) FPS
Color space                              : YUV
Chroma subsampling                       : 4:2:0
Bit depth                                : 10 bits
Bits/(Pixel*Frame)                       : 0.067
Stream size                              : 2.87 GiB (87%)
Writing library                          : x265 2.1+2-c0d91c2b4048:[Windows][GCC 6.2.0][64 bit] 10bit
Encoding settings                        : wpp / ctu=64 / min-cu-size=8 / max-tu-size=32 / tu-intra-depth=1 / tu-inter-depth=1 / me=1 / subme=2 / merange=57 / no-rect / no-amp / max-merge=2 / temporal-mvp / no-early-skip / rskip / rdpenalty=0 / no-tskip / no-tskip-fast / strong-intra-smoothing / no-lossless / no-cu-lossless / no-constrained-intra / no-fast-intra / open-gop / no-temporal-layers / interlace=0 / keyint=250 / min-keyint=23 / scenecut=40 / rc-lookahead=20 / lookahead-slices=5 / bframes=4 / bframe-bias=0 / b-adapt=2 / ref=3 / limit-refs=3 / no-limit-modes / weightp / no-weightb / aq-mode=1 / qg-size=32 / aq-strength=1.00 / cbqpoffs=0 / crqpoffs=0 / rd=3 / psy-rd=2.00 / rdoq-level=0 / psy-rdoq=0.00 / log2-max-poc-lsb=8 / no-rd-refine / signhide / deblock=0:0 / sao / no-sao-non-deblock / b-pyramid / cutree / no-intra-refresh / rc=2 / pass / bitrate=2485 / qcomp=0.60 / qpmin=0 / qpmax=69 / qpstep=4 / cplxblur=20.0 / qblur=0.5 / ipratio=1.40 / pbratio=1.30
Default                                  : Yes
Forced                                   : No

Audio
ID                                       : 2
Format                                   : AAC
Format/Info                              : Advanced Audio Codec
Format profile                           : LC
Codec ID                                 : A_AAC
Duration                                 : 2 h 45 min
Bit rate                                 : 334 kb/s
Channel(s)                               : 6 channels
Channel positions                        : Front: L C R, Side: L R, LFE
Sampling rate                            : 48.0 kHz
Frame rate                               : 46.875 FPS (1024 spf)
Compression mode                         : Lossy
Delay relative to video                  : 20 ms
Stream size                              : 395 MiB (12%)
Language                                 : English
Default                                  : Yes
Forced                                   : No

Text #1
ID                                       : 3
Format                                   : VobSub
Muxing mode                              : zlib
Codec ID                                 : S_VOBSUB
Codec ID/Info                            : Picture based subtitle format used on DVDs
Duration                                 : 2 h 44 min
Bit rate                                 : 5 251 b/s
Count of elements                        : 2318
Stream size                              : 6.19 MiB (0%)
Language                                 : English
Default                                  : No
Forced                                   : No

Text #2
ID                                       : 4
Format                                   : VobSub
Muxing mode                              : zlib
Codec ID                                 : S_VOBSUB
Codec ID/Info                            : Picture based subtitle format used on DVDs
Duration                                 : 2 h 41 min
Bit rate                                 : 5 655 b/s
Count of elements                        : 1959
Stream size                              : 6.54 MiB (0%)
Language                                 : German
Default                                  : No
Forced                                   : No

Text #3
ID                                       : 5
Format                                   : VobSub
Muxing mode                              : zlib
Codec ID                                 : S_VOBSUB
Codec ID/Info                            : Picture based subtitle format used on DVDs
Duration                                 : 2 h 18 min
Bit rate                                 : 21 b/s
Count of elements                        : 6
Stream size                              : 21.9 KiB (0%)
Title                                    : Forced
Language                                 : German
Default                                  : No
Forced                                   : No

Text #4
ID                                       : 6
Format                                   : VobSub
Muxing mode                              : zlib
Codec ID                                 : S_VOBSUB
Codec ID/Info                            : Picture based subtitle format used on DVDs
Duration                                 : 2 h 41 min
Bit rate                                 : 5 259 b/s
Count of elements                        : 1923
Stream size                              : 6.08 MiB (0%)
Language                                 : Hindi
Default                                  : No
Forced                                   : No

Text #5
ID                                       : 7
Format                                   : VobSub
Muxing mode                              : zlib
Codec ID                                 : S_VOBSUB
Codec ID/Info                            : Picture based subtitle format used on DVDs
Duration                                 : 2 h 41 min
Bit rate                                 : 5 225 b/s
Count of elements                        : 1949
Stream size                              : 6.04 MiB (0%)
Language                                 : Turkish
Default                                  : No
Forced                                   : No

Menu
00:00:00.000                             : en:Chapter 01
00:03:36.132                             : en:Chapter 02
00:12:48.142                             : en:Chapter 03
00:18:49.711                             : en:Chapter 04
00:26:48.148                             : en:Chapter 05
00:31:44.444                             : en:Chapter 06
00:40:26.799                             : en:Chapter 07
00:46:05.554                             : en:Chapter 08
00:52:36.903                             : en:Chapter 09
00:58:12.780                             : en:Chapter 10
01:02:19.944                             : en:Chapter 11
01:12:13.120                             : en:Chapter 12
01:18:36.169                             : en:Chapter 13
01:26:08.329                             : en:Chapter 14
01:34:49.475                             : en:Chapter 15
01:40:52.046                             : en:Chapter 16
01:45:33.785                             : en:Chapter 17
01:50:00.802                             : en:Chapter 18
01:55:03.688                             : en:Chapter 19
02:03:55.386                             : en:Chapter 20
02:08:14.520                             : en:Chapter 21
02:14:14.046                             : en:Chapter 22
02:17:28.907                             : en:Chapter 23
02:22:32.627                             : en:Chapter 24
02:26:28.446                             : en:Chapter 25
02:33:00.129                             : en:Chapter 26
02:35:41.665                             : en:Chapter 27
02:41:30.931                             : en:Chapter 28

Download

File: Django Unchained 2012 (1080p x265 10bit Tigole).mkv (3.28 GB)

Download: Google Drive

Featurettes: Google Drive

2 thoughts on “Django Unchained 2012 (1080p Bluray x265 HEVC 10bit AAC 5.1 Tigole)

  1. Thanks for this. But the better encode came out few days ago by afm72 from team QXR. His encode has high bitrate compared to that of Tigole.

Leave a Reply

Your email address will not be published. Required fields are marked *