Dhoom (2004) (1080p BluRay x265 HEVC 10bit AAC 5.1 Hindi Natty)

Info

Plot: A gang of bikers headed by the cool-headed and arrogant Kabir is on a robbing spree in Mumbai. They rob establishments and then zip away on their superbikes. ACP Jai Dixit is the case in-charge and he recruits a bumbling bike mechanic and racer named Ali to chase the gang on a bike and help Jai nab them. Kabir accepts the challenge, and pulls off another robbery amidst a function. This causes Jai and Ali to call it off. Jai resigns from the police force and Ali goes back to his daily job. Meanwhile Kabir has lost one of his team members and recruits Ali for their final job in Goa. The action shifts from the congested Mumbai traffic to the sunny Goa for the final showdown between cops and robbers.

Encode

Source:

Dhoom.2004.BD50.---YRF(yrf) 29 GB @ Hon3yHD

Mediainfo

General 
Format : Matroska 
Format version : Version 4 / Version 2 
File size : 3.16 GiB 
Duration : 2 h 9 min 
Overall bit rate : 3 498 kb/s 
Movie name : Dhoom 
Encoded date : UTC 2018-02-08 03:06:30 
Writing application : mkvmerge v20.0.0 ('I Am The Sun') 64-bit 
Writing library : libebml v1.3.5 + libmatroska v1.4.8 
Writing frontend : Natty 

Video 
ID : 1 
Format : HEVC 
Format/Info : High Efficiency Video Coding 
Format profile : Main [email protected]@Main 
Codec ID : V_MPEGH/ISO/HEVC 
Duration : 2 h 9 min 
Bit rate : 3 002 kb/s 
Width : 1 920 pixels 
Height : 818 pixels 
Display aspect ratio : 2.35:1 
Frame rate mode : Constant 
Frame rate : 24.000 FPS 
Color space : YUV 
Chroma subsampling : 4:2:0 
Bit depth : 10 bits 
Bits/(Pixel*Frame) : 0.080 
Stream size : 2.71 GiB (86%) 
Writing library : x265 2.6+37-1949157705ce:[Windows][MSVC 1912][64 bit] 10bit 
Encoding settings : cpuid=1173503 / frame-threads=2 / numa-pools=4 / wpp / no-pmode / no-pme / no-psnr / no-ssim / log-level=2 / input-csp=1 / input-res=1920x818 / interlace=0 / total-frames=185928 / level-idc=0 / high-tier=1 / uhd-bd=0 / ref=6 / no-allow-non-conformance / no-repeat-headers / annexb / no-aud / no-hrd / info / hash=0 / no-temporal-layers / open-gop / min-keyint=24 / keyint=400 / gop-lookahead=0 / bframes=8 / b-adapt=2 / b-pyramid / bframe-bias=0 / rc-lookahead=100 / lookahead-slices=5 / scenecut=40 / radl=0 / no-intra-refresh / ctu=32 / min-cu-size=8 / no-rect / no-amp / max-tu-size=16 / tu-inter-depth=1 / tu-intra-depth=1 / limit-tu=0 / rdoq-level=2 / dynamic-rd=0.00 / no-ssim-rd / signhide / no-tskip / nr-intra=0 / nr-inter=0 / no-constrained-intra / no-strong-intra-smoothing / max-merge=2 / limit-refs=3 / limit-modes / me=3 / subme=5 / merange=57 / temporal-mvp / weightp / no-weightb / no-analyze-src-pics / deblock=-2:0 / no-sao / no-sao-non-deblock / rd=4 / no-early-skip / rskip / no-fast-intra / no-tskip-fast / no-cu-lossless / no-b-intra / no-splitrd-skip / rdpenalty=0 / psy-rd=2.00 / psy-rdoq=1.00 / no-rd-refine / no-lossless / cbqpoffs=0 / crqpoffs=0 / rc=abr / bitrate=3001 / qcomp=0.75 / qpstep=4 / stats-write=0 / stats-read=2 / cplxblur=20.0 / qblur=0.5 / ipratio=1.40 / pbratio=1.30 / aq-mode=3 / aq-strength=0.85 / cutree / zone-count=0 / no-strict-cbr / qg-size=16 / no-rc-grain / qpmax=69 / qpmin=0 / no-const-vbv / sar=0 / overscan=0 / videoformat=5 / range=0 / colorprim=1 / transfer=1 / colormatrix=1 / chromaloc=0 / display-window=0 / max-cll=0,0 / min-luma=0 / max-luma=1023 / log2-max-poc-lsb=8 / vui-timing-info / vui-hrd-info / slices=1 / no-opt-qp-pps / no-opt-ref-list-length-pps / multi-pass-opt-rps / scenecut-bias=0.05 / no-opt-cu-delta-qp / aq-motion / no-hdr / no-hdr-opt / no-dhdr10-opt / analysis-reuse-level=8 / scale-factor=0 / refine-intra=0 / refine-inter=0 / refine-mv=0 / no-limit-sao / ctu-info=0 / no-lowpass-dct / refine-mv-type=0 / copy-pic=1 
Default : Yes 
Forced : No 
Color range : Limited 
Color primaries : BT.709 
Transfer characteristics : BT.709 
Matrix coefficients : BT.709 

Audio 
ID : 2 
Format : AAC 
Format/Info : Advanced Audio Codec 
Format profile : LC 
Codec ID : A_AAC 
Duration : 2 h 9 min 
Bit rate : 483 kb/s 
Channel(s) : 6 channels 
Channel positions : Front: L C R, Side: L R, LFE 
Sampling rate : 48.0 kHz 
Frame rate : 46.875 FPS (1024 spf) 
Compression mode : Lossy 
Delay relative to video : 20 ms 
Stream size : 446 MiB (14%) 
Language : Hindi 
Default : No 
Forced : No 

Subtitle #1 
ID : 3 
Format : PGS 
Muxing mode : zlib 
Codec ID : S_HDMV/PGS 
Codec ID/Info : Picture based subtitle format used on BDs/HD-DVDs 
Duration : 2 h 5 min 
Bit rate : 25.8 kb/s 
Count of elements : 2798 
Stream size : 23.1 MiB (1%) 
Language : English 
Default : Yes 
Forced : No 

Subtitle #2 
ID : 4 
Format : PGS 
Muxing mode : zlib 
Codec ID : S_HDMV/PGS 
Codec ID/Info : Picture based subtitle format used on BDs/HD-DVDs 
Duration : 2 h 7 min 
Bit rate : 9 124 b/s 
Count of elements : 1736 
Stream size : 8.32 MiB (0%) 
Language : Arabic 
Default : No 
Forced : No 

Menu 
00:00:00.000 : en:Chapter 01 
00:04:49.000 : en:Chapter 02 
00:10:10.458 : en:Chapter 03 
00:12:25.541 : en:Chapter 04 
00:16:57.875 : en:Chapter 05 
00:22:23.416 : en:Chapter 06 
00:25:25.291 : en:Chapter 07 
00:33:04.250 : en:Chapter 08 
00:35:41.708 : en:Chapter 09 
00:40:06.291 : en:Chapter 10 
00:43:30.541 : en:Chapter 11 
00:51:33.583 : en:Chapter 12 
00:56:09.958 : en:Chapter 13 
00:59:51.583 : en:Chapter 14 
01:02:40.625 : en:Chapter 15 
01:07:41.958 : en:Chapter 16 
01:08:53.375 : en:Chapter 17 
01:15:16.583 : en:Chapter 18 
01:19:33.875 : en:Chapter 19 
01:25:58.916 : en:Chapter 20 
01:29:59.708 : en:Chapter 21 
01:32:35.916 : en:Chapter 22 
01:35:33.875 : en:Chapter 23 
01:39:43.791 : en:Chapter 24 
01:45:27.166 : en:Chapter 25 
01:50:19.500 : en:Chapter 26 
01:55:21.166 : en:Chapter 27 
02:05:56.500 : en:Chapter 28

Screencaps

Download

File: Dhoom (2004) (1080p BluRay x265 Natty).mkv (3.2 GB)

Download: Google Drive

Leave a Reply

Your email address will not be published. Required fields are marked *