Blood Diamond 2006 (1080p Bluray x265 HEVC 10bit AAC 5.1 Tigole)

Info

Image result for Blood Diamond 2006

Plot: A fisherman, a smuggler, and a syndicate of businessmen match wits over the possession of a priceless diamond.

Mediainfo

General
Unique ID                                : 174732500537405474701725320694592613402 (0x83744168BA3D4C469EFF34531B82AC1A)
Complete name                            : Blood Diamond 2006 (1080p x265 10bit Tigole).mkv
Format                                   : Matroska
Format version                           : Version 4 / Version 2
File size                                : 2.26 GiB
Duration                                 : 2 h 23 min
Overall bit rate                         : 2 258 kb/s
Encoded date                             : UTC 2016-03-09 10:32:40
Writing application                      : mkvmerge v8.9.0 ('Father Daughter') 64bit
Writing library                          : libebml v1.3.3 + libmatroska v1.4.4

Video
ID                                       : 1
Format                                   : HEVC
Format/Info                              : High Efficiency Video Coding
Format profile                           : Main [email protected]@Main
Codec ID                                 : V_MPEGH/ISO/HEVC
Duration                                 : 2 h 23 min
Bit rate                                 : 2 043 kb/s
Width                                    : 1 920 pixels
Height                                   : 800 pixels
Display aspect ratio                     : 2.40:1
Frame rate mode                          : Constant
Frame rate                               : 23.976 (24000/1001) FPS
Color space                              : YUV
Chroma subsampling                       : 4:2:0
Bit depth                                : 10 bits
Bits/(Pixel*Frame)                       : 0.055
Stream size                              : 2.05 GiB (91%)
Writing library                          : x265 1.9+54-291beccb6760:[Windows][GCC 5.3.0][64 bit] 10bit
Encoding settings                        : wpp / ctu=64 / min-cu-size=8 / max-tu-size=32 / tu-intra-depth=1 / tu-inter-depth=1 / me=1 / subme=2 / merange=57 / no-rect / no-amp / max-merge=2 / temporal-mvp / no-early-skip / rdpenalty=0 / no-tskip / no-tskip-fast / strong-intra-smoothing / no-lossless / no-cu-lossless / no-constrained-intra / no-fast-intra / open-gop / no-temporal-layers / interlace=0 / keyint=250 / min-keyint=23 / scenecut=40 / rc-lookahead=20 / lookahead-slices=0 / bframes=4 / bframe-bias=0 / b-adapt=2 / ref=3 / limit-refs=0 / no-limit-modes / weightp / no-weightb / aq-mode=1 / qg-size=64 / aq-strength=1.00 / cbqpoffs=0 / crqpoffs=0 / rd=3 / psy-rd=0.30 / rdoq-level=0 / psy-rdoq=0.00 / no-rd-refine / signhide / deblock / sao / no-sao-non-deblock / b-pyramid / cutree / no-intra-refresh / rc=2 / pass / bitrate=2043 / qcomp=0.60 / qpmin=0 / qpmax=51 / qpstep=4 / cplxblur=20.0 / qblur=0.5 / ipratio=1.40 / pbratio=1.30
Default                                  : Yes
Forced                                   : No

Audio
ID                                       : 2
Format                                   : AAC
Format/Info                              : Advanced Audio Codec
Format profile                           : HE-AAC / LC
Codec ID                                 : A_AAC
Duration                                 : 2 h 23 min
Bit rate                                 : 212 kb/s
Channel(s)                               : 6 channels
Channel positions                        : Front: L C R, Side: L R, LFE
Sampling rate                            : 48.0 kHz / 24.0 kHz
Frame rate                               : 23.438 FPS (1024 spf)
Compression mode                         : Lossy
Delay relative to video                  : 40 ms
Stream size                              : 218 MiB (9%)
Language                                 : English
Default                                  : Yes
Forced                                   : No

Text
ID                                       : 3
Format                                   : UTF-8
Codec ID                                 : S_TEXT/UTF8
Codec ID/Info                            : UTF-8 Plain Text
Duration                                 : 2 h 12 min
Bit rate                                 : 52 b/s
Count of elements                        : 1441
Stream size                              : 51.1 KiB (0%)
Language                                 : English
Default                                  : No
Forced                                   : No

Menu
00:00:00.000                             : en:Caught in Revolution's Net
00:06:32.559                             : en:Conflict Zone Statistics
00:08:57.537                             : en:Danny Negotiates
00:14:38.211                             : en:Give It to Me
00:18:05.251                             : en:Hidden Stones
00:21:56.482                             : en:Meeting Maddy
00:27:35.988                             : en:Soldiers and Captives
00:30:43.175                             : en:Colored By Blood
00:34:48.086                             : en:Soldier of the Revolution
00:37:43.761                             : en:Get Over Yourself
00:41:20.812                             : en:Freetown Siege
00:47:08.659                             : en:Shooting to Kill
00:50:19.683                             : en:Using Each Other
00:53:58.235                             : en:Unhappy Reunion
00:57:38.622                             : en:His Only Chance
01:04:04.007                             : en:A Little Bang-Bang
01:08:51.461                             : en:Drive to Survive
01:11:17.773                             : en:Good Intentions
01:16:19.909                             : en:Painful History
01:21:18.540                             : en:Child Soldier's Target
01:24:27.229                             : en:Parting Company
01:29:51.720                             : en:After Skinning
01:34:16.985                             : en:The Master
01:37:39.187                             : en:Searching for Dia
01:43:13.020                             : en:A Father Forsaken
01:46:02.856                             : en:Kill Them All
01:50:56.984                             : en:Deadly Digsite
01:56:07.794                             : en:I Am Your Father
01:59:04.471                             : en:Take Your Boy Home
02:04:21.454                             : en:A Real Story Now
02:08:59.065                             : en:Solomon Negotiates
02:12:07.753                             : en:Third World's Voice; Coda
02:14:56.922                             : en:End Credits

Download

File: Blood Diamond 2006 (1080p x265 10bit Tigole).mkv (2.26 GB)

Download: Google Drive

Leave a Reply

Your email address will not be published. Required fields are marked *