Birdman 2014 (1080p Bluray x265 HEVC 10bit AAC 5.1 Tigole)

Info

Image result for Birdman 2014

Plot: A washed-up superhero actor attempts to revive his fading career by writing, directing, and starring in a Broadway production.

Mediainfo

General
Unique ID                                : 199032294547835244751671940505012506257 (0x95BC39C0B938FCF4940A7EE1E1538E91)
Complete name                            : Birdman 2014 (1080p x265 10bit Tigole).mkv
Format                                   : Matroska
Format version                           : Version 4 / Version 2
File size                                : 3.17 GiB
Duration                                 : 1 h 59 min
Overall bit rate                         : 3 801 kb/s
Movie name                               : Birdman or (The Unexpected Virtue of Ignorance)
Encoded date                             : UTC 2017-03-25 04:32:24
Writing application                      : mkvmerge v9.6.0 ('Slave To Your Mind') 64bit
Writing library                          : libebml v1.3.4 + libmatroska v1.4.5

Video
ID                                       : 1
Format                                   : HEVC
Format/Info                              : High Efficiency Video Coding
Format profile                           : Main [email protected]@Main
Codec ID                                 : V_MPEGH/ISO/HEVC
Duration                                 : 1 h 59 min
Bit rate                                 : 3 337 kb/s
Width                                    : 1 920 pixels
Height                                   : 1 040 pixels
Display aspect ratio                     : 1.85:1
Frame rate mode                          : Constant
Frame rate                               : 23.976 (24000/1001) FPS
Color space                              : YUV
Chroma subsampling                       : 4:2:0
Bit depth                                : 10 bits
Bits/(Pixel*Frame)                       : 0.070
Stream size                              : 2.78 GiB (88%)
Writing library                          : x265 2.3+22-db5e22b856f5:[Windows][GCC 6.3.0][64 bit] 10bit
Encoding settings                        : cpuid=1173503 / frame-threads=3 / numa-pools=8 / wpp / no-pmode / no-pme / no-psnr / no-ssim / log-level=2 / input-csp=1 / input-res=1920x1040 / interlace=0 / total-frames=171601 / level-idc=0 / high-tier=1 / uhd-bd=0 / ref=3 / no-allow-non-conformance / no-repeat-headers / annexb / no-aud / no-hrd / info / hash=0 / no-temporal-layers / open-gop / min-keyint=23 / keyint=250 / bframes=4 / b-adapt=2 / b-pyramid / bframe-bias=0 / rc-lookahead=20 / lookahead-slices=6 / scenecut=40 / no-intra-refresh / ctu=64 / min-cu-size=8 / no-rect / no-amp / max-tu-size=32 / tu-inter-depth=1 / tu-intra-depth=1 / limit-tu=0 / rdoq-level=0 / dynamic-rd=0.00 / signhide / no-tskip / nr-intra=0 / nr-inter=0 / no-constrained-intra / strong-intra-smoothing / max-merge=2 / limit-refs=3 / no-limit-modes / me=1 / subme=2 / merange=57 / temporal-mvp / weightp / no-weightb / no-analyze-src-pics / deblock=0:0 / sao / no-sao-non-deblock / rd=3 / no-early-skip / rskip / no-fast-intra / no-tskip-fast / no-cu-lossless / no-b-intra / rdpenalty=0 / psy-rd=2.00 / psy-rdoq=0.00 / no-rd-refine / analysis-mode=0 / no-lossless / cbqpoffs=0 / crqpoffs=0 / rc=abr / bitrate=3336 / qcomp=0.60 / qpstep=4 / stats-write=0 / stats-read=2 / cplxblur=20.0 / qblur=0.5 / ipratio=1.40 / pbratio=1.30 / aq-mode=2 / aq-strength=1.00 / cutree / zone-count=0 / no-strict-cbr / qg-size=32 / no-rc-grain / qpmax=69 / qpmin=0 / sar=0 / overscan=0 / videoformat=5 / range=0 / colorprim=2 / transfer=2 / colormatrix=2 / chromaloc=0 / display-window=0 / max-cll=0,0 / min-luma=0 / max-luma=1023 / log2-max-poc-lsb=8 / vui-timing-info / vui-hrd-info / slices=1 / opt-qp-pps / opt-ref-list-length-pps / no-multi-pass-opt-rps / scenecut-bias=0.05 / no-opt-cu-delta-qp / no-aq-motion / no-hdr / no-hdr-opt / refine-level=5
Default                                  : Yes
Forced                                   : No

Audio
ID                                       : 2
Format                                   : AAC
Format/Info                              : Advanced Audio Codec
Format profile                           : LC
Codec ID                                 : A_AAC
Duration                                 : 1 h 59 min
Bit rate                                 : 332 kb/s
Channel(s)                               : 6 channels
Channel positions                        : Front: L C R, Side: L R, LFE
Sampling rate                            : 48.0 kHz
Frame rate                               : 46.875 FPS (1024 spf)
Compression mode                         : Lossy
Delay relative to video                  : 20 ms
Stream size                              : 284 MiB (9%)
Language                                 : English
Default                                  : Yes
Forced                                   : No

Text #1
ID                                       : 3
Format                                   : VobSub
Muxing mode                              : zlib
Codec ID                                 : S_VOBSUB
Codec ID/Info                            : Picture based subtitle format used on DVDs
Duration                                 : 1 h 58 min
Bit rate                                 : 7 604 b/s
Count of elements                        : 1972
Stream size                              : 6.45 MiB (0%)
Language                                 : English
Default                                  : No
Forced                                   : No

Text #2
ID                                       : 4
Format                                   : VobSub
Muxing mode                              : zlib
Codec ID                                 : S_VOBSUB
Codec ID/Info                            : Picture based subtitle format used on DVDs
Duration                                 : 1 h 58 min
Bit rate                                 : 4 758 b/s
Count of elements                        : 1602
Stream size                              : 4.03 MiB (0%)
Language                                 : Chinese
Default                                  : No
Forced                                   : No

Text #3
ID                                       : 5
Format                                   : VobSub
Muxing mode                              : zlib
Codec ID                                 : S_VOBSUB
Codec ID/Info                            : Picture based subtitle format used on DVDs
Duration                                 : 1 h 58 min
Bit rate                                 : 6 456 b/s
Count of elements                        : 1480
Stream size                              : 5.47 MiB (0%)
Language                                 : Danish
Default                                  : No
Forced                                   : No

Text #4
ID                                       : 6
Format                                   : VobSub
Muxing mode                              : zlib
Codec ID                                 : S_VOBSUB
Codec ID/Info                            : Picture based subtitle format used on DVDs
Duration                                 : 1 h 58 min
Bit rate                                 : 6 404 b/s
Count of elements                        : 1526
Stream size                              : 5.42 MiB (0%)
Language                                 : Estonian
Default                                  : No
Forced                                   : No

Text #5
ID                                       : 7
Format                                   : VobSub
Muxing mode                              : zlib
Codec ID                                 : S_VOBSUB
Codec ID/Info                            : Picture based subtitle format used on DVDs
Duration                                 : 1 h 58 min
Bit rate                                 : 5 645 b/s
Count of elements                        : 1520
Stream size                              : 4.78 MiB (0%)
Language                                 : Finnish
Default                                  : No
Forced                                   : No

Text #6
ID                                       : 8
Format                                   : VobSub
Muxing mode                              : zlib
Codec ID                                 : S_VOBSUB
Codec ID/Info                            : Picture based subtitle format used on DVDs
Duration                                 : 1 h 58 min
Bit rate                                 : 6 787 b/s
Count of elements                        : 1593
Stream size                              : 5.75 MiB (0%)
Language                                 : German
Default                                  : No
Forced                                   : No

Text #7
ID                                       : 9
Format                                   : VobSub
Muxing mode                              : zlib
Codec ID                                 : S_VOBSUB
Codec ID/Info                            : Picture based subtitle format used on DVDs
Duration                                 : 1 h 58 min
Bit rate                                 : 38 b/s
Count of elements                        : 8
Stream size                              : 33.0 KiB (0%)
Title                                    : Forced
Language                                 : German
Default                                  : No
Forced                                   : No

Text #8
ID                                       : 10
Format                                   : VobSub
Muxing mode                              : zlib
Codec ID                                 : S_VOBSUB
Codec ID/Info                            : Picture based subtitle format used on DVDs
Duration                                 : 1 h 58 min
Bit rate                                 : 5 956 b/s
Count of elements                        : 1519
Stream size                              : 5.04 MiB (0%)
Language                                 : Hindi
Default                                  : No
Forced                                   : No

Text #9
ID                                       : 11
Format                                   : VobSub
Muxing mode                              : zlib
Codec ID                                 : S_VOBSUB
Codec ID/Info                            : Picture based subtitle format used on DVDs
Duration                                 : 1 h 50 min
Bit rate                                 : 7 755 b/s
Count of elements                        : 1523
Stream size                              : 6.15 MiB (0%)
Language                                 : Indonesian
Default                                  : No
Forced                                   : No

Text #10
ID                                       : 12
Format                                   : VobSub
Muxing mode                              : zlib
Codec ID                                 : S_VOBSUB
Codec ID/Info                            : Picture based subtitle format used on DVDs
Duration                                 : 1 h 58 min
Bit rate                                 : 6 233 b/s
Count of elements                        : 1521
Stream size                              : 5.28 MiB (0%)
Language                                 : Italian
Default                                  : No
Forced                                   : No

Text #11
ID                                       : 13
Format                                   : VobSub
Muxing mode                              : zlib
Codec ID                                 : S_VOBSUB
Codec ID/Info                            : Picture based subtitle format used on DVDs
Duration                                 : 1 h 58 min
Bit rate                                 : 4 864 b/s
Count of elements                        : 1594
Stream size                              : 4.11 MiB (0%)
Language                                 : Japanese
Default                                  : No
Forced                                   : No

Text #12
ID                                       : 14
Format                                   : VobSub
Muxing mode                              : zlib
Codec ID                                 : S_VOBSUB
Codec ID/Info                            : Picture based subtitle format used on DVDs
Duration                                 : 1 h 58 min
Bit rate                                 : 6 401 b/s
Count of elements                        : 1521
Stream size                              : 5.42 MiB (0%)
Language                                 : Latvian
Default                                  : No
Forced                                   : No

Text #13
ID                                       : 15
Format                                   : VobSub
Muxing mode                              : zlib
Codec ID                                 : S_VOBSUB
Codec ID/Info                            : Picture based subtitle format used on DVDs
Duration                                 : 1 h 58 min
Bit rate                                 : 6 091 b/s
Count of elements                        : 1518
Stream size                              : 5.16 MiB (0%)
Language                                 : Lithuanian
Default                                  : No
Forced                                   : No

Text #14
ID                                       : 16
Format                                   : VobSub
Muxing mode                              : zlib
Codec ID                                 : S_VOBSUB
Codec ID/Info                            : Picture based subtitle format used on DVDs
Duration                                 : 1 h 50 min
Bit rate                                 : 7 919 b/s
Count of elements                        : 1522
Stream size                              : 6.28 MiB (0%)
Language                                 : Malay
Default                                  : No
Forced                                   : No

Text #15
ID                                       : 17
Format                                   : VobSub
Muxing mode                              : zlib
Codec ID                                 : S_VOBSUB
Codec ID/Info                            : Picture based subtitle format used on DVDs
Duration                                 : 1 h 58 min
Bit rate                                 : 6 149 b/s
Count of elements                        : 1518
Stream size                              : 5.21 MiB (0%)
Language                                 : Norwegian Bokmal
Default                                  : No
Forced                                   : No

Text #16
ID                                       : 18
Format                                   : VobSub
Muxing mode                              : zlib
Codec ID                                 : S_VOBSUB
Codec ID/Info                            : Picture based subtitle format used on DVDs
Duration                                 : 1 h 58 min
Bit rate                                 : 6 138 b/s
Count of elements                        : 1521
Stream size                              : 5.20 MiB (0%)
Language                                 : Russian
Default                                  : No
Forced                                   : No

Text #17
ID                                       : 19
Format                                   : VobSub
Muxing mode                              : zlib
Codec ID                                 : S_VOBSUB
Codec ID/Info                            : Picture based subtitle format used on DVDs
Duration                                 : 1 h 58 min
Bit rate                                 : 5 954 b/s
Count of elements                        : 1602
Stream size                              : 5.04 MiB (0%)
Language                                 : Spanish
Default                                  : No
Forced                                   : No

Text #18
ID                                       : 20
Format                                   : VobSub
Muxing mode                              : zlib
Codec ID                                 : S_VOBSUB
Codec ID/Info                            : Picture based subtitle format used on DVDs
Duration                                 : 1 h 58 min
Bit rate                                 : 6 311 b/s
Count of elements                        : 1520
Stream size                              : 5.35 MiB (0%)
Language                                 : Swedish
Default                                  : No
Forced                                   : No

Text #19
ID                                       : 21
Format                                   : VobSub
Muxing mode                              : zlib
Codec ID                                 : S_VOBSUB
Codec ID/Info                            : Picture based subtitle format used on DVDs
Duration                                 : 1 h 58 min
Bit rate                                 : 5 573 b/s
Count of elements                        : 1520
Stream size                              : 4.72 MiB (0%)
Language                                 : Thai
Default                                  : No
Forced                                   : No

Text #20
ID                                       : 22
Format                                   : VobSub
Muxing mode                              : zlib
Codec ID                                 : S_VOBSUB
Codec ID/Info                            : Picture based subtitle format used on DVDs
Duration                                 : 1 h 58 min
Bit rate                                 : 6 494 b/s
Count of elements                        : 1519
Stream size                              : 5.50 MiB (0%)
Language                                 : Turkish
Default                                  : No
Forced                                   : No

Text #21
ID                                       : 23
Format                                   : VobSub
Muxing mode                              : zlib
Codec ID                                 : S_VOBSUB
Codec ID/Info                            : Picture based subtitle format used on DVDs
Duration                                 : 1 h 58 min
Bit rate                                 : 6 495 b/s
Count of elements                        : 1522
Stream size                              : 5.50 MiB (0%)
Language                                 : Ukrainian
Default                                  : No
Forced                                   : No

Text #22
ID                                       : 24
Format                                   : VobSub
Muxing mode                              : zlib
Codec ID                                 : S_VOBSUB
Codec ID/Info                            : Picture based subtitle format used on DVDs
Duration                                 : 1 h 58 min
Bit rate                                 : 7 063 b/s
Count of elements                        : 1520
Stream size                              : 5.98 MiB (0%)
Language                                 : Vietnamese
Default                                  : No
Forced                                   : No

Menu
00:00:00.000                             : en:Chapter 01
00:03:29.083                             : en:Chapter 02
00:07:34.328                             : en:Chapter 03
00:09:08.506                             : en:Chapter 04
00:12:39.717                             : en:Chapter 05
00:16:53.220                             : en:Chapter 06
00:19:07.729                             : en:Chapter 07
00:20:21.803                             : en:Chapter 08
00:25:21.311                             : en:Chapter 09
00:31:44.694                             : en:Chapter 10
00:36:09.959                             : en:Chapter 11
00:37:12.980                             : en:Chapter 12
00:42:09.318                             : en:Chapter 13
00:48:49.676                             : en:Chapter 14
00:53:30.957                             : en:Chapter 15
00:58:31.257                             : en:Chapter 16
01:03:17.627                             : en:Chapter 17
01:08:28.938                             : en:Chapter 18
01:12:42.649                             : en:Chapter 19
01:17:01.700                             : en:Chapter 20
01:20:45.048                             : en:Chapter 21
01:25:14.317                             : en:Chapter 22
01:28:05.488                             : en:Chapter 23
01:33:22.388                             : en:Chapter 24
01:39:14.573                             : en:Chapter 25
01:43:10.726                             : en:Chapter 26
01:46:43.688                             : en:Chapter 27
01:52:16.813                             : en:Chapter 28

Download

File: Birdman 2014 (1080p x265 10bit Tigole).mkv (3.17 GB)

Download: Google Drive

Featurettes: Google Drive

Leave a Reply

Your email address will not be published. Required fields are marked *