Bird Box (2018) (2160p NF WEB-DL x265 HEVC 10bit SDR AC3 5.1 Joy)

Info

Plot: A woman and a pair of children are blindfolded and make their way through a post-apocalyptic setting along a river.

Encode

Source:

Release: 
Bird.Box.2018.2160p.WEBRip.X265-DEFLATE.mkv (16.85 GBs)

Mediainfo

General 
Format                                   : Matroska 
Format version                           : Version 4 / Version 2 
File size                                : 5.57 GiB 
Duration                                 : 2 h 3 min 
Overall bit rate                         : 6 443 kb/s 
Movie name                               : Bird Box 2018  (2160p x265 10bit S90 Joy)[UTR] 
Encoded date                             : UTC 2019-01-06 17:48:40 
Writing application                      : mkvmerge v28.2.0 ('The Awakening') 64-bit 
Writing library                          : libebml v1.3.6 + libmatroska v1.4.9 
Cover                                    : Yes 
Attachments                              : cover.jpg 
Writing frontend                         : StaxRip v1.8.2.0, Encoded by JoyBell 

Video 
ID                                       : 1 
Format                                   : HEVC 
Format/Info                              : High Efficiency Video Coding 
Format profile                           : Main [email protected]@Main 
Codec ID                                 : V_MPEGH/ISO/HEVC 
Duration                                 : 2 h 3 min 
Bit rate                                 : 5 990 kb/s 
Width                                    : 3 840 pixels 
Height                                   : 1 584 pixels 
Display aspect ratio                     : 2.40:1 
Frame rate mode                          : Constant 
Frame rate                               : 24.000 FPS 
Color space                              : YUV 
Chroma subsampling                       : 4:2:0 
Bit depth                                : 10 bits 
Bits/(Pixel*Frame)                       : 0.041 
Stream size                              : 5.18 GiB (93%) 
Writing library                          : x265 3.0_RC+2-8f1c154aae5e:[Windows][MSVC 1920][64 bit] 10bit 
Encoding settings                        : cpuid=1111039 / frame-threads=4 / numa-pools=16 / wpp / no-pmode / no-pme / no-psnr / ssim / log-level=2 / input-csp=1 / input-res=3840x1584 / interlace=0 / total-frames=178234 / level-idc=0 / high-tier=1 / uhd-bd=0 / ref=4 / no-allow-non-conformance / no-repeat-headers / annexb / no-aud / no-hrd / info / hash=0 / no-temporal-layers / open-gop / min-keyint=24 / keyint=250 / gop-lookahead=0 / bframes=4 / b-adapt=2 / b-pyramid / bframe-bias=0 / rc-lookahead=80 / lookahead-slices=4 / scenecut=40 / radl=0 / no-splice / no-intra-refresh / ctu=64 / min-cu-size=8 / no-rect / no-amp / max-tu-size=32 / tu-inter-depth=1 / tu-intra-depth=1 / limit-tu=0 / rdoq-level=2 / dynamic-rd=4.00 / ssim-rd / signhide / no-tskip / nr-intra=0 / nr-inter=0 / no-constrained-intra / strong-intra-smoothing / max-merge=3 / limit-refs=3 / limit-modes / me=3 / subme=3 / merange=57 / temporal-mvp / weightp / no-weightb / no-analyze-src-pics / deblock=0:0 / sao / no-sao-non-deblock / rd=4 / early-skip / rskip / no-fast-intra / no-tskip-fast / no-cu-lossless / no-b-intra / splitrd-skip / rdpenalty=0 / psy-rd=2.20 / psy-rdoq=1.40 / no-rd-refine / no-lossless / cbqpoffs=0 / crqpoffs=0 / rc=abr / bitrate=6000 / qcomp=0.60 / qpstep=4 / stats-write=0 / stats-read=2 / cplxblur=20.0 / qblur=0.5 / vbv-maxrate=12000 / vbv-bufsize=24000 / vbv-init=0.9 / ipratio=1.40 / pbratio=1.30 / aq-mode=2 / aq-strength=0.80 / cutree / zone-count=0 / no-strict-cbr / qg-size=32 / no-rc-grain / qpmax=69 / qpmin=0 / no-const-vbv / sar=0 / overscan=0 / videoformat=5 / range=0 / colorprim=2 / transfer=2 / colormatrix=2 / chromaloc=0 / display-window=0 / max-cll=0,0 / min-luma=0 / max-luma=1023 / log2-max-poc-lsb=8 / vui-timing-info / vui-hrd-info / slices=1 / no-opt-qp-pps / no-opt-ref-list-length-pps / multi-pass-opt-rps / scenecut-bias=0.05 / no-opt-cu-delta-qp / no-aq-motion / no-hdr / no-hdr-opt / no-dhdr10-opt / no-idr-recovery-sei / analysis-reuse-level=10 / scale-factor=0 / refine-intra=0 / refine-inter=0 / refine-mv=0 / refine-ctu-distortion=0 / limit-sao / ctu-info=0 / no-lowpass-dct / refine-analysis-type=0 / copy-pic=1 / max-ausize-factor=1.0 / no-dynamic-refine / no-single-sei / no-hevc-aq / qp-adaptation-range=1.00 
Default                                  : Yes 
Forced                                   : No 

Audio 
ID                                       : 2 
Format                                   : E-AC-3 
Format/Info                              : Enhanced Audio Coding 3 
Format settings, Endianness              : Big 
Codec ID                                 : A_EAC3 
Duration                                 : 2 h 3 min 
Bit rate mode                            : Constant 
Bit rate                                 : 448 kb/s 
Channel(s)                               : 6 channels 
Channel positions                        : Front: L C R, Side: L R, LFE 
Sampling rate                            : 48.0 kHz 
Frame rate                               : 187.500 FPS (256 spf) 
Compression mode                         : Lossy 
Stream size                              : 397 MiB (7%) 
Language                                 : English 
Default                                  : No 
Forced                                   : No 

Subtitle #1 
ID                                       : 3 
Format                                   : UTF-8 
Codec ID                                 : S_TEXT/UTF8 
Codec ID/Info                            : UTF-8 Plain Text 
Duration                                 : 1 h 56 min 
Bit rate                                 : 53 b/s 
Count of elements                        : 1454 
Stream size                              : 45.5 KiB (0%) 
Language                                 : English 
Default                                  : No 
Forced                                   : No 

Subtitle #2 
ID                                       : 4 
Format                                   : UTF-8 
Codec ID                                 : S_TEXT/UTF8 
Codec ID/Info                            : UTF-8 Plain Text 
Duration                                 : 1 h 59 min 
Bit rate                                 : 61 b/s 
Count of elements                        : 1727 
Stream size                              : 53.4 KiB (0%) 
Language                                 : English 
Default                                  : No 
Forced                                   : No 

Subtitle #3 
ID                                       : 5 
Format                                   : UTF-8 
Codec ID                                 : S_TEXT/UTF8 
Codec ID/Info                            : UTF-8 Plain Text 
Duration                                 : 2 h 3 min 
Bit rate                                 : 81 b/s 
Count of elements                        : 1448 
Stream size                              : 73.8 KiB (0%) 
Language                                 : Arabic 
Default                                  : No 
Forced                                   : No 

Subtitle #4 
ID                                       : 6 
Format                                   : UTF-8 
Codec ID                                 : S_TEXT/UTF8 
Codec ID/Info                            : UTF-8 Plain Text 
Duration                                 : 2 h 3 min 
Bit rate                                 : 73 b/s 
Count of elements                        : 1405 
Stream size                              : 66.8 KiB (0%) 
Language                                 : Bulgarian 
Default                                  : No 
Forced                                   : No 

Subtitle #5 
ID                                       : 7 
Format                                   : UTF-8 
Codec ID                                 : S_TEXT/UTF8 
Codec ID/Info                            : UTF-8 Plain Text 
Duration                                 : 2 h 3 min 
Bit rate                                 : 42 b/s 
Count of elements                        : 1442 
Stream size                              : 38.1 KiB (0%) 
Language                                 : Chinese 
Default                                  : No 
Forced                                   : No 

Subtitle #6 
ID                                       : 8 
Format                                   : UTF-8 
Codec ID                                 : S_TEXT/UTF8 
Codec ID/Info                            : UTF-8 Plain Text 
Duration                                 : 2 h 3 min 
Bit rate                                 : 43 b/s 
Count of elements                        : 1444 
Stream size                              : 39.2 KiB (0%) 
Language                                 : Chinese 
Default                                  : No 
Forced                                   : No 

Subtitle #7 
ID                                       : 9 
Format                                   : UTF-8 
Codec ID                                 : S_TEXT/UTF8 
Codec ID/Info                            : UTF-8 Plain Text 
Duration                                 : 2 h 3 min 
Bit rate                                 : 41 b/s 
Count of elements                        : 1420 
Stream size                              : 37.3 KiB (0%) 
Language                                 : Danish 
Default                                  : No 
Forced                                   : No 

Subtitle #8 
ID                                       : 10 
Format                                   : UTF-8 
Codec ID                                 : S_TEXT/UTF8 
Codec ID/Info                            : UTF-8 Plain Text 
Duration                                 : 2 h 3 min 
Bit rate                                 : 44 b/s 
Count of elements                        : 1423 
Stream size                              : 40.0 KiB (0%) 
Language                                 : Dutch 
Default                                  : No 
Forced                                   : No 

Subtitle #9 
ID                                       : 11 
Format                                   : UTF-8 
Codec ID                                 : S_TEXT/UTF8 
Codec ID/Info                            : UTF-8 Plain Text 
Duration                                 : 2 h 3 min 
Bit rate                                 : 40 b/s 
Count of elements                        : 1325 
Stream size                              : 36.8 KiB (0%) 
Language                                 : Finnish 
Default                                  : No 
Forced                                   : No 

Subtitle #10 
ID                                       : 12 
Format                                   : UTF-8 
Codec ID                                 : S_TEXT/UTF8 
Codec ID/Info                            : UTF-8 Plain Text 
Duration                                 : 2 h 3 min 
Bit rate                                 : 43 b/s 
Count of elements                        : 1395 
Stream size                              : 39.8 KiB (0%) 
Language                                 : French 
Default                                  : No 
Forced                                   : No 

Subtitle #11 
ID                                       : 13 
Format                                   : UTF-8 
Codec ID                                 : S_TEXT/UTF8 
Codec ID/Info                            : UTF-8 Plain Text 
Duration                                 : 2 h 3 min 
Bit rate                                 : 47 b/s 
Count of elements                        : 1421 
Stream size                              : 43.0 KiB (0%) 
Language                                 : German 
Default                                  : No 
Forced                                   : No 

Subtitle #12 
ID                                       : 14 
Format                                   : UTF-8 
Codec ID                                 : S_TEXT/UTF8 
Codec ID/Info                            : UTF-8 Plain Text 
Duration                                 : 2 h 3 min 
Bit rate                                 : 77 b/s 
Count of elements                        : 1416 
Stream size                              : 70.4 KiB (0%) 
Language                                 : Greek 
Default                                  : No 
Forced                                   : No 

Subtitle #13 
ID                                       : 15 
Format                                   : UTF-8 
Codec ID                                 : S_TEXT/UTF8 
Codec ID/Info                            : UTF-8 Plain Text 
Duration                                 : 2 h 3 min 
Bit rate                                 : 73 b/s 
Count of elements                        : 1416 
Stream size                              : 66.8 KiB (0%) 
Language                                 : Hebrew 
Default                                  : No 
Forced                                   : No 

Subtitle #14 
ID                                       : 16 
Format                                   : UTF-8 
Codec ID                                 : S_TEXT/UTF8 
Codec ID/Info                            : UTF-8 Plain Text 
Duration                                 : 2 h 3 min 
Bit rate                                 : 48 b/s 
Count of elements                        : 1450 
Stream size                              : 44.1 KiB (0%) 
Language                                 : Indonesian 
Default                                  : No 
Forced                                   : No 

Subtitle #15 
ID                                       : 17 
Format                                   : UTF-8 
Codec ID                                 : S_TEXT/UTF8 
Codec ID/Info                            : UTF-8 Plain Text 
Duration                                 : 2 h 3 min 
Bit rate                                 : 49 b/s 
Count of elements                        : 1451 
Stream size                              : 44.8 KiB (0%) 
Language                                 : Italian 
Default                                  : No 
Forced                                   : No 

Subtitle #16 
ID                                       : 18 
Format                                   : UTF-8 
Codec ID                                 : S_TEXT/UTF8 
Codec ID/Info                            : UTF-8 Plain Text 
Duration                                 : 2 h 3 min 
Bit rate                                 : 32 b/s 
Count of elements                        : 1606 
Stream size                              : 29.2 KiB (0%) 
Language                                 : Japanese 
Default                                  : No 
Forced                                   : No 

Subtitle #17 
ID                                       : 19 
Format                                   : UTF-8 
Codec ID                                 : S_TEXT/UTF8 
Codec ID/Info                            : UTF-8 Plain Text 
Duration                                 : 2 h 3 min 
Bit rate                                 : 55 b/s 
Count of elements                        : 1447 
Stream size                              : 50.5 KiB (0%) 
Language                                 : Korean 
Default                                  : No 
Forced                                   : No 

Subtitle #18 
ID                                       : 20 
Format                                   : UTF-8 
Codec ID                                 : S_TEXT/UTF8 
Codec ID/Info                            : UTF-8 Plain Text 
Duration                                 : 2 h 3 min 
Bit rate                                 : 46 b/s 
Count of elements                        : 1442 
Stream size                              : 42.0 KiB (0%) 
Language                                 : Norwegian Bokmal 
Default                                  : No 
Forced                                   : No 

Subtitle #19 
ID                                       : 21 
Format                                   : UTF-8 
Codec ID                                 : S_TEXT/UTF8 
Codec ID/Info                            : UTF-8 Plain Text 
Duration                                 : 2 h 3 min 
Bit rate                                 : 42 b/s 
Count of elements                        : 1362 
Stream size                              : 38.8 KiB (0%) 
Language                                 : Polish 
Default                                  : No 
Forced                                   : No 

Subtitle #20 
ID                                       : 22 
Format                                   : UTF-8 
Codec ID                                 : S_TEXT/UTF8 
Codec ID/Info                            : UTF-8 Plain Text 
Duration                                 : 2 h 3 min 
Bit rate                                 : 48 b/s 
Count of elements                        : 1538 
Stream size                              : 44.3 KiB (0%) 
Language                                 : Portuguese 
Default                                  : No 
Forced                                   : No 

Subtitle #21 
ID                                       : 23 
Format                                   : UTF-8 
Codec ID                                 : S_TEXT/UTF8 
Codec ID/Info                            : UTF-8 Plain Text 
Duration                                 : 2 h 3 min 
Bit rate                                 : 41 b/s 
Count of elements                        : 1443 
Stream size                              : 37.2 KiB (0%) 
Language                                 : Portuguese 
Default                                  : No 
Forced                                   : No 

Subtitle #22 
ID                                       : 24 
Format                                   : UTF-8 
Codec ID                                 : S_TEXT/UTF8 
Codec ID/Info                            : UTF-8 Plain Text 
Duration                                 : 2 h 3 min 
Bit rate                                 : 45 b/s 
Count of elements                        : 1422 
Stream size                              : 41.5 KiB (0%) 
Language                                 : Romanian 
Default                                  : No 
Forced                                   : No 

Subtitle #23 
ID                                       : 25 
Format                                   : UTF-8 
Codec ID                                 : S_TEXT/UTF8 
Codec ID/Info                            : UTF-8 Plain Text 
Duration                                 : 2 h 3 min 
Bit rate                                 : 73 b/s 
Count of elements                        : 1453 
Stream size                              : 66.7 KiB (0%) 
Language                                 : Russian 
Default                                  : No 
Forced                                   : No 

Subtitle #24 
ID                                       : 26 
Format                                   : UTF-8 
Codec ID                                 : S_TEXT/UTF8 
Codec ID/Info                            : UTF-8 Plain Text 
Duration                                 : 2 h 3 min 
Bit rate                                 : 42 b/s 
Count of elements                        : 1431 
Stream size                              : 38.3 KiB (0%) 
Language                                 : Spanish 
Default                                  : No 
Forced                                   : No 

Subtitle #25 
ID                                       : 27 
Format                                   : UTF-8 
Codec ID                                 : S_TEXT/UTF8 
Codec ID/Info                            : UTF-8 Plain Text 
Duration                                 : 2 h 3 min 
Bit rate                                 : 47 b/s 
Count of elements                        : 1441 
Stream size                              : 42.6 KiB (0%) 
Language                                 : Spanish 
Default                                  : No 
Forced                                   : No 

Subtitle #26 
ID                                       : 28 
Format                                   : UTF-8 
Codec ID                                 : S_TEXT/UTF8 
Codec ID/Info                            : UTF-8 Plain Text 
Duration                                 : 2 h 3 min 
Bit rate                                 : 43 b/s 
Count of elements                        : 1410 
Stream size                              : 39.7 KiB (0%) 
Language                                 : Swedish 
Default                                  : No 
Forced                                   : No 

Subtitle #27 
ID                                       : 29 
Format                                   : UTF-8 
Codec ID                                 : S_TEXT/UTF8 
Codec ID/Info                            : UTF-8 Plain Text 
Duration                                 : 2 h 3 min 
Bit rate                                 : 110 b/s 
Count of elements                        : 1442 
Stream size                              : 99.8 KiB (0%) 
Language                                 : Thai 
Default                                  : No 
Forced                                   : No 

Subtitle #28 
ID                                       : 30 
Format                                   : UTF-8 
Codec ID                                 : S_TEXT/UTF8 
Codec ID/Info                            : UTF-8 Plain Text 
Duration                                 : 2 h 3 min 
Bit rate                                 : 48 b/s 
Count of elements                        : 1440 
Stream size                              : 43.8 KiB (0%) 
Language                                 : Turkish 
Default                                  : No 
Forced                                   : No

Screencaps

Download

File: Bird Box 2018 (2160p x265 10bit S90 Joy).mkv (5.6 GB)

Download: Google Drive

2 thoughts on “Bird Box (2018) (2160p NF WEB-DL x265 HEVC 10bit SDR AC3 5.1 Joy)

  1. google error cant downloaded

    Sorry, you can’t view or download this file at this time.

    Too many users have viewed or downloaded this file recently. Please try accessing the file again later. If the file you are trying to access is particularly large or is shared with many people, it may take up to 24 hours to be able to view or download the file. If you still can’t access a file after 24 hours, contact your domain administrator.

Leave a Reply

Your email address will not be published. Required fields are marked *